<?xml version="1.0" encoding="UTF-8" standalone="no"?>
<!DOCTYPE svg  PUBLIC '-//W3C//DTD SVG 1.1//EN'  'http://www.w3.org/Graphics/SVG/1.1/DTD/svg11.dtd'>
<svg xmlns="http://www.w3.org/2000/svg">
<defs>
<font id="Square721BT-Bold" horiz-adv-x="699">
<font-face underline-position="5" font-weight="700" descent="-200" panose-1="2 0 8 5 5 0 0 2 0 4" units-per-em="1000" unicode-range="U+0020-2212" bbox="-31 -236 1522 969" x-height="514" underline-thickness="106" font-family="Square721BT" ascent="800" cap-height="727"/>
<missing-glyph horiz-adv-x="1000"/>
<glyph glyph-name=".notdef" horiz-adv-x="1000"/>
<glyph glyph-name=".null" horiz-adv-x="0"/>
<glyph glyph-name="nonmarkingreturn" horiz-adv-x="1000"/>
<glyph glyph-name="space" horiz-adv-x="350" unicode=" "/>
<glyph glyph-name="space" horiz-adv-x="350" unicode=" "/>
<glyph glyph-name="exclam" horiz-adv-x="350" unicode="!" d="M95 174h160v-174h-160v174zM95 727h160v-438h-160v438z"/>
<glyph glyph-name="quotedbl" horiz-adv-x="331" unicode='&quot;' d="M133 702v-273h-94v273h94zM292 702v-273h-94v273h94z"/>
<glyph glyph-name="numbersign" horiz-adv-x="769" unicode="#" d="M454 715l-71 -203h118l72 203h108l-72 -203h138l-36 -98h-137l-41 -118h142l-35 -98h-142l-72 -203h-108l72 203h-119l-73 -203h-107l71 203h-140l37 98h138l42 118h-146l36 98h145l72 203h108zM303 296h123l42 118h-122z"/>
<glyph glyph-name="dollar" d="M317 581h-10q-35 0 -51.5 -11t-16.5 -37v-30q0 -47 78 -54v132zM372 149h9q44 0 63 10t19 41v26q0 33 -21 45.5t-70 17.5v-140zM317 1h-26q-234 0 -234 162v60h169v-3q0 -41 18.5 -56t62.5 -15h10v148q-68 3 -116.5 15t-79 35.5t-45 60.5t-14.5 91v36q0 103 55 147 t174 44h26v56h55v-56h32q105 0 160 -41t55 -113v-42h-171q0 28 -15.5 39.5t-50.5 11.5h-10v-139q70 -5 121 -17t84 -34t49 -55t16 -80v-61q0 -91 -54 -142.5t-145 -51.5h-71v-70h-55v70z" unicode="$"/>
<glyph glyph-name="percent" horiz-adv-x="1097" unicode="%" d="M840 -9q-46 0 -77.5 8.5t-50.5 28t-27 51t-8 77.5v163q0 46 8.5 77.5t27.5 51t50 28t77 8.5h47q46 0 77.5 -9t50.5 -28.5t27 -51t8 -76.5v-163q0 -46 -8 -77.5t-27 -51t-50.5 -28t-77.5 -8.5h-47zM872 103q16 0 25 4.5t13.5 14t5.5 26t1 40.5v99q0 47 -7 66.5t-38 19.5 h-16q-16 0 -25 -4.5t-13.5 -14.5t-5.5 -26.5t-1 -40.5v-99q0 -24 1 -40.5t5.5 -26.5t13.5 -14t25 -4h16zM716 736h81l-418 -745h-82zM206 243q-46 0 -77.5 8.5t-50.5 28t-27 51t-8 77.5v163q0 46 8.5 77.5t27.5 51t50 28t77 8.5h47q46 0 77.5 -9t50.5 -28.5t27 -51t8 -76.5 v-163q0 -46 -8 -77.5t-27 -51t-50.5 -28t-77.5 -8.5h-47zM238 355q16 0 25 4.5t13.5 14.5t5.5 26.5t1 40.5v98q0 47 -7 66.5t-38 19.5h-16q-16 0 -25 -4.5t-13.5 -14.5t-5.5 -26.5t-1 -40.5v-98q0 -24 1 -40.5t5.5 -26.5t13.5 -14.5t25 -4.5h16z"/>
<glyph glyph-name="ampersand" horiz-adv-x="745" unicode="&amp;" d="M650 -18l-80 71q-30 -36 -76 -49t-113 -13h-93q-129 0 -190 43.5t-61 140.5v92q0 136 119 155q-31 26 -45 56t-14 68v38q0 83 55.5 117.5t170.5 34.5h56q115 0 170.5 -34.5t55.5 -117.5v-78h-160v52q0 20 -12.5 28.5t-38.5 8.5h-75q-26 0 -39 -8.5t-13 -28.5v-23 q0 -9 4 -18.5t10 -14.5l224 -201v80h158v-120q0 -26 -3 -47.5t-14 -38.5l96 -86zM245 344q-24 -4 -28.5 -21.5t-4.5 -53.5v-66q0 -36 18 -51.5t60 -15.5h114q19 0 30.5 4.5t19.5 16.5z"/>
<glyph glyph-name="quotesingle" horiz-adv-x="172" unicode="&apos;" d="M133 702v-273h-94v273h94z"/>
<glyph glyph-name="parenleft" horiz-adv-x="402" unicode="(" d="M91 487q0 67 8.5 114.5t29 77.5t54.5 43.5t85 13.5h62v-122q-26 -1 -40.5 -10t-21.5 -27t-8.5 -46t-1.5 -66v-202q0 -38 1.5 -66t8.5 -46t21.5 -27t40.5 -10v-123h-62q-51 0 -85 13.5t-54.5 43.5t-29 77t-8.5 115v247z"/>
<glyph glyph-name="parenright" horiz-adv-x="402" unicode=")" d="M310 240q0 -68 -8.5 -115t-29 -77t-54.5 -43.5t-85 -13.5h-61v123q26 1 40.5 10t21 27t8 46t1.5 66v202q0 38 -1.5 66t-8 46t-21 27t-40.5 10v122h61q51 0 85 -13.5t54.5 -43.5t29 -77.5t8.5 -114.5v-247z"/>
<glyph glyph-name="asterisk" horiz-adv-x="512" unicode="*" d="M185 295l-85 49l82 125l69 -40zM29 564l149 -9v-80l-149 -9v98zM100 687l85 49l67 -133l-69 -40zM327 736l84 -49l-82 -125l-69 40zM483 564v-98l-149 9v80zM411 344l-84 -49l-67 133l69 40z"/>
<glyph glyph-name="plus" horiz-adv-x="833" unicode="+" d="M466 596v-249h243v-97h-243v-250h-99v250h-243v97h243v249h99z"/>
<glyph glyph-name="comma" horiz-adv-x="350" unicode="," d="M96 174h160v-200q0 -45 -38 -73.5t-107 -28.5h-15v73h3q52 0 52 41q0 9 -1 14h-54v174z"/>
<glyph glyph-name="hyphen" horiz-adv-x="336" unicode="-" d="M22 338h292v-148h-292v148z"/>
<glyph glyph-name="hyphen" horiz-adv-x="336" unicode="­" d="M22 338h292v-148h-292v148z"/>
<glyph glyph-name="period" horiz-adv-x="350" unicode="." d="M95 174h160v-174h-160v174z"/>
<glyph glyph-name="slash" horiz-adv-x="273" unicode="/" d="M-23 -93l247 829h84l-247 -829h-84z"/>
<glyph glyph-name="zero" d="M51 439q0 81 12.5 137.5t42 92t78.5 51.5t122 16h87q72 0 121 -16t79 -51.5t42.5 -92t12.5 -137.5v-151q0 -81 -12.5 -137.5t-42.5 -92t-79 -51.5t-121 -16h-87q-73 0 -122 16t-78.5 51.5t-42 92t-12.5 137.5v151zM238 294q0 -41 3 -68.5t12.5 -43.5t28.5 -22.5t52 -6.5 h31q33 0 52 6.5t28.5 23t12 43.5t2.5 68v139q0 41 -2.5 68t-12 43.5t-28.5 23t-52 6.5h-31q-33 0 -52 -6.5t-28.5 -22.5t-12.5 -43.5t-3 -68.5v-139z" unicode="0"/>
<glyph glyph-name="one" d="M332 727h215v-727h-183v541l-171 -152l-110 123z" unicode="1"/>
<glyph glyph-name="two" d="M65 173q0 156 118 190l212 64q31 9 43.5 21t12.5 41v29q0 40 -18 55.5t-66 15.5h-32q-46 0 -64.5 -15.5t-18.5 -55.5v-41h-180v65q0 94 58 144t169 50h106q110 0 170.5 -51t60.5 -138v-60q0 -160 -133 -196l-206 -55q-24 -7 -33 -16.5t-9 -29.5v-29h376v-161h-566v173z " unicode="2"/>
<glyph glyph-name="three" d="M241 245v-35q0 -38 20 -54.5t66 -16.5h34q85 0 85 66v27q0 35 -20 51t-65 16h-60v146h58q78 0 78 64v19q0 62 -77 62h-31q-42 0 -60 -16.5t-18 -54.5v-25h-182v49q0 93 60.5 143t177.5 50h79q118 0 178 -46.5t60 -136.5v-47q0 -105 -109 -129q63 -17 91.5 -52.5 t28.5 -95.5v-54q0 -88 -61.5 -136t-173.5 -48h-110q-110 0 -171.5 50t-61.5 138v66h184z" unicode="3"/>
<glyph glyph-name="four" d="M35 330l285 397h262v-442h86v-146h-86v-139h-182v139h-365v191zM400 285v290l-204 -290h204z" unicode="4"/>
<glyph glyph-name="five" d="M249 214v-13q0 -39 19.5 -50t67.5 -11h27q27 0 44 3t26.5 11t13 22.5t3.5 38.5v72q0 25 -3.5 40t-13 22.5t-26.5 10t-44 2.5h-27q-41 0 -61 -6.5t-22 -31.5h-173v403h521v-144h-347v-128q19 24 48.5 37.5t73.5 13.5h42q115 0 166 -49t51 -157v-104q0 -58 -13.5 -97 t-44 -63t-79 -34.5t-118.5 -10.5h-68q-119 0 -181.5 48.5t-62.5 135.5v39h181z" unicode="5"/>
<glyph glyph-name="six" d="M441 528v9q0 32 -13.5 42.5t-51.5 10.5h-48q-23 0 -37.5 -2.5t-22.5 -9t-11 -19t-3 -32.5v-127q22 23 51 34.5t68 11.5h71q103 0 149.5 -48.5t46.5 -148.5v-67q0 -191 -242 -191h-86q-69 0 -115.5 16.5t-74.5 52t-40 92t-12 136.5v151q0 80 12 136.5t40 92t74.5 52 t115.5 16.5h86q112 0 168.5 -41.5t56.5 -122.5v-44h-182zM376 137q25 0 41 2t25 8t12.5 17t3.5 29v54q0 18 -3.5 29t-12.5 17t-25 7.5t-41 1.5h-39q-24 0 -40 -1.5t-25.5 -7.5t-13.5 -17t-4 -29v-54q0 -18 4 -29t13.5 -17t25.5 -8t40 -2h39z" unicode="6"/>
<glyph glyph-name="seven" d="M69 727h551v-144l-249 -583h-192l243 581h-353v146z" unicode="7"/>
<glyph glyph-name="eight" d="M365 139q86 0 86 67v28q0 68 -89 68h-20q-86 0 -86 -68v-28q0 -67 88 -67h21zM345 591q-79 0 -79 -64v-19q0 -65 78 -65h19q79 0 79 65v19q0 64 -80 64h-17zM307 -9q-112 0 -173.5 49.5t-61.5 134.5v54q0 60 29 96t91 52q-109 24 -109 120v46q0 99 58.5 146t179.5 47h66 q238 0 238 -193v-46q0 -93 -110 -120q63 -17 92 -52.5t29 -95.5v-54q0 -87 -61.5 -135.5t-173.5 -48.5h-94z" unicode="8"/>
<glyph glyph-name="nine" d="M264 199v-9q0 -32 13.5 -42.5t51.5 -10.5h48q23 0 37.5 2t22.5 9t11 19.5t3 32.5v127q-22 -23 -51 -34.5t-68 -11.5h-71q-103 0 -149.5 48.5t-46.5 148.5v66q0 192 242 192h86q70 0 116.5 -16.5t74.5 -52t39.5 -92t11.5 -136.5v-151q0 -80 -12 -136.5t-40 -92t-74.5 -52 t-115.5 -16.5h-86q-225 0 -225 163v45h182zM329 590q-26 0 -42 -2t-25 -8t-12 -17t-3 -29v-54q0 -18 3 -29t12 -17t25 -7.5t42 -1.5h40q24 0 40 1.5t25.5 7.5t13 17t3.5 29v54q0 18 -4 29t-13 17t-25 8t-40 2h-40z" unicode="9"/>
<glyph glyph-name="colon" horiz-adv-x="350" unicode=":" d="M95 174h160v-174h-160v174zM95 507h160v-174h-160v174z"/>
<glyph glyph-name="less" horiz-adv-x="833" unicode="&lt;" d="M704 476l-436 -178l436 -178v-107l-575 237v97l575 236v-107z"/>
<glyph glyph-name="equal" horiz-adv-x="833" unicode="=" d="M709 452v-97h-585v97h585zM709 242v-97h-585v97h585z"/>
<glyph glyph-name="greater" horiz-adv-x="833" unicode="&gt;" d="M704 347v-97l-575 -237v107l437 178l-437 178v107z"/>
<glyph glyph-name="question" horiz-adv-x="575" unicode="?" d="M171 174h171v-174h-171v174zM38 577q0 75 48.5 117t140.5 42h115q91 0 139 -42t48 -110v-71q0 -21 -6.5 -43.5t-17.5 -41.5q-9 -16 -22.5 -28t-29.5 -22.5t-35 -20.5t-40 -22q-36 -20 -36 -52v-23h-171v58q0 47 16 72.5t49 43.5l85 46q35 19 35 39v45q0 42 -48 42h-43 q-57 0 -57 -45v-27h-170v43z"/>
<glyph glyph-name="at" horiz-adv-x="1000" unicode="@" d="M594 342q-12 81 -85 81q-27 0 -52 -16t-44 -44t-30.5 -65.5t-11.5 -80.5q0 -92 77 -92q39 0 73 29.5t47 81.5zM570 133q-27 -42 -62 -61t-83 -19q-78 0 -118 42.5t-40 123.5q0 59 18.5 109.5t50.5 87t75 57.5t92 21q78 0 115 -64l26 48h87l-72 -292q-3 -12 -3 -20 q0 -34 46 -34q18 0 38.5 9t40.5 28q85 79 85 206q0 57 -23 106t-65.5 85t-102.5 56.5t-133 20.5q-139 0 -236 -66q-83 -56 -127.5 -139t-44.5 -183q0 -75 26.5 -136t75 -103.5t117 -66t152.5 -23.5q80 0 155 24t140 69l40 -57q-151 -113 -333 -113q-96 0 -174 24t-138 70 q-151 117 -151 311q0 82 25.5 155.5t75.5 134.5q72 88 173 133.5t227 45.5q85 0 157 -22.5t124 -62.5q131 -101 131 -265q0 -81 -32 -149t-92 -116q-70 -56 -158 -56q-104 0 -105 81z"/>
<glyph glyph-name="A" horiz-adv-x="750" unicode="A" d="M228 727h300l204 -727h-209l-33 127h-229l-33 -127h-209zM456 275l-72 301h-13l-74 -301h159z"/>
<glyph glyph-name="B" horiz-adv-x="725" unicode="B" d="M268 162h145q32 0 47 12t15 41v30q0 29 -15 41t-47 12h-145v-136zM268 437h138q31 0 44.5 11.5t13.5 38.5v29q0 27 -13.5 38.5t-44.5 11.5h-138v-129zM416 727q64 0 110.5 -8.5t76 -28t43.5 -52t14 -80.5v-47q0 -62 -29.5 -94.5t-92.5 -40.5q66 -13 101 -51.5t35 -95.5 v-43q0 -56 -15 -92t-47 -57t-82 -29t-119 -8h-337v727h342z"/>
<glyph glyph-name="C" horiz-adv-x="706" unicode="C" d="M662 259q0 -72 -15.5 -122.5t-47.5 -83t-83 -47.5t-121 -15h-66q-78 0 -131.5 16t-86 51t-46.5 92t-14 138v151q0 81 14 138t46.5 92t86 51t131.5 16h54q76 0 128.5 -13.5t85 -44.5t46.5 -80.5t14 -122.5v-14h-194v13q0 51 -23.5 71t-79.5 20q-36 0 -57 -7t-31.5 -23.5 t-13.5 -44t-3 -67.5v-120q0 -41 3 -68t13.5 -43t31.5 -23t57 -7q58 0 81 21.5t23 79.5v17h198v-21z"/>
<glyph glyph-name="D" horiz-adv-x="773" unicode="D" d="M414 162q37 0 58.5 6.5t33 22.5t14.5 43t3 69v120q0 42 -3 69t-14.5 43.5t-33 23t-58.5 6.5h-145v-403h145zM74 727h370q78 0 131 -15.5t86 -50t47 -90t14 -134.5v-147q0 -80 -14 -135t-47 -89.5t-86 -50t-131 -15.5h-370v727z"/>
<glyph glyph-name="E" horiz-adv-x="687" unicode="E" d="M74 727h546v-162h-351v-126h341v-140h-341v-137h359v-162h-554v727z"/>
<glyph glyph-name="F" horiz-adv-x="613" unicode="F" d="M74 727h489v-162h-294v-141h277v-160h-277v-264h-195v727z"/>
<glyph glyph-name="G" horiz-adv-x="752" unicode="G" d="M507 500q-1 35 -25.5 50t-77.5 15h-49q-38 0 -59.5 -6.5t-33 -23t-14.5 -44t-3 -68.5v-120q0 -42 3.5 -69t14.5 -43t33 -22.5t59 -6.5h54q56 0 79.5 15t23.5 57v28h-111v136h301v-124q0 -146 -64 -214.5t-205 -68.5h-132q-123 0 -186.5 77t-63.5 231v110q0 167 65.5 247 t212.5 80h106q61 0 110 -16t84 -44t54 -65.5t19 -79.5v-31h-195z"/>
<glyph glyph-name="H" horiz-adv-x="792" unicode="H" d="M74 727h195v-272h254v272h195v-727h-195v284h-254v-284h-195v727z"/>
<glyph glyph-name="I" horiz-adv-x="356" unicode="I" d="M80 727h197v-727h-197v727z"/>
<glyph glyph-name="J" horiz-adv-x="622" unicode="J" d="M549 223q0 -232 -206 -232h-90q-58 0 -99.5 11.5t-68.5 37.5t-39.5 67.5t-12.5 101.5v103h190v-83q0 -36 9 -51.5t38 -15.5h35q29 0 38 15.5t9 51.5v498h197v-504z"/>
<glyph glyph-name="K" horiz-adv-x="715" unicode="K" d="M74 727h195v-273h15l175 273h232l-240 -352l264 -375h-241l-191 290h-14v-290h-195v727z"/>
<glyph glyph-name="L" horiz-adv-x="612" unicode="L" d="M76 727h197v-558h325v-169h-522v727z"/>
<glyph glyph-name="M" horiz-adv-x="1016" unicode="M" d="M942 727v-727h-190v534l-146 -534h-195l-147 540v-540h-190v727h285l149 -526l149 526h285z"/>
<glyph glyph-name="N" horiz-adv-x="850" unicode="N" d="M74 727h290l226 -540v540h186v-727h-290l-226 545v-545h-186v727z"/>
<glyph glyph-name="O" horiz-adv-x="755" unicode="O" d="M51 439q0 81 14 138t46.5 92t86 51t131.5 16h96q78 0 131.5 -16t86.5 -51t47 -92t14 -138v-151q0 -81 -14 -138t-47 -92t-86.5 -51t-131.5 -16h-96q-78 0 -131.5 16t-86 51t-46.5 92t-14 138v151zM250 303q0 -42 3 -69t14.5 -43t33 -22.5t58.5 -6.5h36q37 0 59 6.5 t33 22.5t14.5 43t3.5 69v120q0 42 -3.5 69t-14.5 43.5t-33 23t-59 6.5h-36q-37 0 -58.5 -6.5t-33 -23t-14.5 -43.5t-3 -69v-120z"/>
<glyph glyph-name="P" horiz-adv-x="719" unicode="P" d="M405 356q24 0 39.5 3.5t24 13.5t12 26.5t3.5 42.5v42q0 44 -19.5 62t-67.5 18h-128v-208h136zM74 727h341q70 0 120.5 -13t83.5 -41.5t48.5 -74.5t15.5 -113v-48q0 -67 -15.5 -113t-48.5 -75t-83.5 -42t-120.5 -13h-146v-194h-195v727z"/>
<glyph glyph-name="Q" horiz-adv-x="762" unicode="Q" d="M51 439q0 81 14 138t46.5 92t86 51t131.5 16h96q78 0 131.5 -16t86.5 -51t47 -92t14 -138v-151q0 -63 -8 -106t-32 -69l56 -48l-74 -91l-63 52q-29 -20 -70.5 -27.5t-96.5 -7.5h-87q-78 0 -131.5 16t-86 51t-46.5 92t-14 138v151zM250 303q0 -42 3 -69t14.5 -43t33 -22.5 t58.5 -6.5h63l-58 50l77 89l64 -55v177q0 42 -3.5 69t-14.5 43.5t-33 23t-59 6.5h-36q-37 0 -58.5 -6.5t-33 -23t-14.5 -43.5t-3 -69v-120z"/>
<glyph glyph-name="R" horiz-adv-x="718" unicode="R" d="M74 727h293q76 0 131.5 -8.5t91.5 -30.5t53 -61t17 -99v-59q0 -148 -141 -166q74 -12 107.5 -48t33.5 -105v-150h-199v131q0 47 -18.5 64t-65.5 17h-108v-212h-195v727zM378 376q47 0 65.5 16.5t18.5 63.5v28q0 47 -18.5 64t-65.5 17h-109v-189h109z"/>
<glyph glyph-name="S" horiz-adv-x="693" unicode="S" d="M229 225v-7q0 -40 20.5 -55.5t74.5 -15.5h49q44 0 62 11.5t18 42.5v32q0 32 -19 40.5t-59 13.5l-158 17q-89 10 -129.5 55t-40.5 136v45q0 104 63 156q32 26 74 33t102 7h117q111 0 167.5 -44.5t56.5 -126.5v-50h-187v8q0 33 -15.5 45.5t-55.5 12.5h-45q-43 0 -62 -10 t-19 -39v-30q0 -30 20 -37.5t59 -11.5l144 -16q185 -21 185 -177v-70q0 -45 -14.5 -81.5t-41 -62.5t-65 -40.5t-86.5 -14.5h-159q-126 0 -184.5 43t-58.5 141v50h187z"/>
<glyph glyph-name="T" horiz-adv-x="630" unicode="T" d="M217 565h-187v162h570v-162h-186v-565h-197v565z"/>
<glyph glyph-name="U" horiz-adv-x="775" unicode="U" d="M257 727v-424q0 -42 4 -69.5t16.5 -43t34.5 -22t58 -6.5h36q36 0 58 6.5t34 22.5t16 43t4 69v424h194v-439q0 -36 -1.5 -67.5t-6.5 -59t-16 -51.5t-29 -45q-19 -22 -41.5 -36t-50 -22.5t-60 -12t-71.5 -3.5h-96q-78 0 -132 15t-91 59q-18 21 -29 45t-16.5 51.5t-7 59 t-1.5 67.5v439h194z"/>
<glyph glyph-name="V" horiz-adv-x="739" unicode="V" d="M226 727l141 -568l148 568h206l-207 -727h-295l-200 727h207z"/>
<glyph glyph-name="W" horiz-adv-x="1038" unicode="W" d="M229 727l69 -557l113 557h218l104 -557l76 557h196l-121 -727h-278l-89 493l-92 -493h-281l-112 727h197z"/>
<glyph glyph-name="X" horiz-adv-x="735" unicode="X" d="M215 377l-165 350h219l103 -252l104 252h220l-171 -350l187 -377h-223l-120 277l-125 -277h-221z"/>
<glyph glyph-name="Y" horiz-adv-x="689" unicode="Y" d="M218 727l129 -280l127 280h218l-249 -472v-255h-195v255l-250 472h220z"/>
<glyph glyph-name="Z" d="M46 170l348 388h-326v169h573v-174l-339 -384h339v-169h-595v170z" unicode="Z"/>
<glyph glyph-name="bracketleft" horiz-adv-x="402" unicode="[" d="M91 727h236v-113h-69v-500h63v-114h-230v727z"/>
<glyph glyph-name="backslash" horiz-adv-x="273" unicode="\" d="M224 -93l-248 829h84l248 -829h-84z"/>
<glyph glyph-name="bracketright" horiz-adv-x="402" unicode="]" d="M81 0v114h62v500h-69v113h236v-727h-229z"/>
<glyph glyph-name="asciicircum" horiz-adv-x="1000" unicode="^" d="M561 713l235 -274h-115l-181 181l-182 -181h-115l235 274h123z"/>
<glyph glyph-name="underscore" horiz-adv-x="500" unicode="_" d="M500 -136v-100h-500v100h500z"/>
<glyph glyph-name="grave" horiz-adv-x="500" unicode="`" d="M233 756l96 -181h-69l-153 181h126z"/>
<glyph glyph-name="a" horiz-adv-x="585" unicode="a" d="M70 383q1 77 42 107.5t132 30.5h78q54 0 92 -9.5t62 -29.5t34.5 -52t10.5 -78v-352h-164v47q-41 -54 -115 -54h-59q-66 0 -101.5 37t-35.5 106v48q0 66 39.5 102t116.5 36h45q36 0 64 -12t46 -35v100q0 23 -10 34t-35 11h-28q-27 0 -39 -7t-12 -30h-163zM307 105 q49 0 49 45v27q0 45 -49 45h-45q-50 0 -50 -45v-27q0 -45 50 -45h45z"/>
<glyph glyph-name="b" horiz-adv-x="587" unicode="b" d="M235 727v-277q34 71 134 71q90 0 130.5 -51.5t40.5 -159.5v-106q0 -108 -40 -159.5t-130 -51.5q-52 0 -86 19t-56 61l2 -73h-158v727h163zM295 392q-20 0 -32 -5.5t-18 -17.5t-8 -30t-2 -43v-79q0 -25 2 -43t8 -30t18 -17.5t32 -5.5h19q20 0 32 5.5t18 17.5t8 30t2 43v79 q0 25 -2 43t-8 30t-18 17.5t-32 5.5h-19z"/>
<glyph glyph-name="c" horiz-adv-x="566" unicode="c" d="M523 203q0 -6 0.5 -12t0.5 -12q0 -51 -11.5 -86.5t-36.5 -57.5t-64 -32t-93 -10h-69q-57 0 -96 11.5t-63 36.5t-34.5 65t-10.5 98v106q0 58 10.5 98t34.5 65t63 36.5t96 11.5h69q54 0 93 -10t63.5 -32t36 -57t11.5 -85v-14h-164v5q0 40 -13.5 55t-48.5 15h-22 q-22 0 -34.5 -5t-18.5 -17t-7.5 -31t-1.5 -47v-82q0 -29 1.5 -48t7.5 -30.5t18.5 -16.5t34.5 -5h22q36 0 49 16t13 59v12h164z"/>
<glyph glyph-name="d" horiz-adv-x="587" unicode="d" d="M515 0h-159l2 73q-22 -42 -55.5 -61t-85.5 -19q-90 0 -130.5 51.5t-40.5 159.5v106q0 108 40.5 159.5t130.5 51.5q100 0 134 -71v277h164v-727zM273 392q-20 0 -32 -5.5t-18 -17.5t-8 -30t-2 -43v-79q0 -25 2 -43t8 -30t18 -17.5t32 -5.5h19q20 0 32 5.5t18 17.5t7.5 30 t1.5 43v79q0 25 -1.5 43t-7.5 30t-18 17.5t-32 5.5h-19z"/>
<glyph glyph-name="e" horiz-adv-x="568" unicode="e" d="M363 315v18q0 49 -13 67t-53 18h-21q-40 0 -53 -17t-13 -63v-23h153zM521 157q-6 -89 -54 -126.5t-148 -37.5h-69q-57 0 -96 11.5t-63 36.5t-34.5 65t-10.5 98v106q0 58 10.5 98t34.5 65t63 36.5t96 11.5h69q57 0 96 -11.5t63 -36.5t34.5 -65t10.5 -98v-81h-313v-63 q0 -36 15 -49.5t50 -13.5h21q32 0 46.5 11t17.5 43h161z"/>
<glyph glyph-name="f" horiz-adv-x="363" unicode="f" d="M81 389h-56v125h56q-1 10 -1 19.5v18.5q0 91 36.5 133t117.5 42h120v-120h-38q-35 0 -52 -9.5t-17 -34.5v-49h107v-125h-107v-389h-166v389z"/>
<glyph glyph-name="g" horiz-adv-x="584" unicode="g" d="M517 33q0 -62 -8 -105t-41 -75q-22 -21 -61.5 -35.5t-87.5 -14.5h-56q-191 0 -191 133v29h157q0 -26 11 -35.5t38 -9.5h24q38 0 48.5 20t10.5 68v75q-18 -38 -53 -54.5t-93 -16.5q-87 0 -126.5 47.5t-39.5 147.5v103q0 108 40 159.5t130 51.5q101 0 135 -71v64h163v-481z M215 217q0 -25 2 -43t8.5 -30t19 -17.5t33.5 -5.5h20q21 0 33.5 6t19 18t8.5 30t2 42v79q0 24 -2 42t-8.5 30t-19 18t-33.5 6h-20q-21 0 -33.5 -5.5t-19 -17.5t-8.5 -30t-2 -43v-79z"/>
<glyph glyph-name="h" horiz-adv-x="600" unicode="h" d="M72 727h163v-286q22 80 139 80q49 0 80.5 -10t50 -32t25.5 -58t7 -87v-334h-163v298q0 29 -3 46.5t-11 27t-22 12.5t-37 3t-36 -6t-19.5 -18t-8.5 -30.5t-2 -44.5v-288h-163v727z"/>
<glyph glyph-name="i" horiz-adv-x="304" unicode="i" d="M69 514h166v-514h-166v514zM69 727h166v-128h-166v128z"/>
<glyph glyph-name="j" horiz-adv-x="309" unicode="j" d="M74 727h166v-128h-166v128zM27 -29q27 0 37 10.5t10 34.5v498h166v-466q0 -51 -6.5 -88t-23.5 -61t-46.5 -36t-75.5 -12h-61v120z"/>
<glyph glyph-name="k" horiz-adv-x="565" unicode="k" d="M72 727h163v-406h12l100 193h185l-140 -247l168 -267h-191l-122 206h-12v-206h-163v727z"/>
<glyph glyph-name="l" horiz-adv-x="304" unicode="l" d="M74 727h166v-727h-166v727z"/>
<glyph glyph-name="m" horiz-adv-x="851" unicode="m" d="M72 514h156l-2 -73q18 43 50.5 61.5t86.5 18.5q57 0 89.5 -18.5t49.5 -64.5q17 45 50.5 64t87.5 19q45 0 73.5 -10.5t45 -33t23 -58t6.5 -85.5v-334h-161v298q0 27 -2 44.5t-8.5 27.5t-18.5 13.5t-32 3.5q-19 0 -30 -6t-17 -18t-7.5 -30.5t-1.5 -44.5v-288h-160v298 q0 27 -2 44.5t-8.5 27.5t-18.5 13.5t-32 3.5q-19 0 -30 -6t-17 -18t-7.5 -30.5t-1.5 -44.5v-288h-161v514z"/>
<glyph glyph-name="n" horiz-adv-x="600" unicode="n" d="M72 514h158l-2 -73q23 44 57.5 62t88.5 18q49 0 80.5 -10t50 -32t25.5 -58t7 -87v-334h-163v298q0 29 -3 46.5t-11 27t-22 12.5t-37 3t-36 -6t-19.5 -18t-8.5 -30.5t-2 -44.5v-288h-163v514z"/>
<glyph glyph-name="o" horiz-adv-x="569" unicode="o" d="M46 310q0 58 10.5 98t34.5 65t63 36.5t96 11.5h69q57 0 96 -11.5t63 -36.5t34.5 -65t10.5 -98v-106q0 -58 -10.5 -98t-34.5 -65t-63 -36.5t-96 -11.5h-69q-57 0 -96 11.5t-63 36.5t-34.5 65t-10.5 98v106zM213 216q0 -29 1.5 -48t7.5 -30.5t18.5 -16.5t34.5 -5h20 q22 0 34 5t18 17t7.5 31t1.5 47v82q0 28 -1.5 47.5t-7.5 31t-18 16.5t-34 5h-20q-22 0 -34.5 -5t-18.5 -17t-7.5 -31t-1.5 -47v-82z"/>
<glyph glyph-name="p" horiz-adv-x="587" unicode="p" d="M72 514h158l-2 -73q22 42 56 61t86 19q90 0 130 -51.5t40 -159.5v-106q0 -108 -40.5 -159.5t-130.5 -51.5q-101 0 -134 70v-260h-163v711zM314 122q20 0 32 5.5t18 17.5t8 30t2 43v79q0 25 -2 43t-8 30t-18 17.5t-32 5.5h-19q-20 0 -32 -5.5t-18 -17.5t-8 -30t-2 -43v-79 q0 -25 2 -43t8 -30t18 -17.5t32 -5.5h19z"/>
<glyph glyph-name="q" horiz-adv-x="587" unicode="q" d="M351 -197v260q-33 -70 -134 -70q-90 0 -130.5 51.5t-40.5 159.5v106q0 108 40.5 159.5t130.5 51.5q52 0 85.5 -19t55.5 -61l-2 73h159v-711h-164zM292 122q20 0 32 5.5t18 17.5t7.5 30t1.5 43v79q0 25 -1.5 43t-7.5 30t-18 17.5t-32 5.5h-19q-20 0 -32 -5.5t-18 -17.5 t-8 -30t-2 -43v-79q0 -25 2 -43t8 -30t18 -17.5t32 -5.5h19z"/>
<glyph glyph-name="r" horiz-adv-x="506" unicode="r" d="M72 514h158l-2 -73q20 43 49 61.5t76 18.5q42 0 68.5 -10.5t42 -33t21.5 -58t6 -85.5v-46h-153v33q0 38 -11.5 52t-39.5 14q-18 0 -28.5 -5.5t-16 -17.5t-6.5 -31t-1 -45v-288h-163v514z"/>
<glyph glyph-name="s" horiz-adv-x="571" unicode="s" d="M210 147q5 -31 20 -40.5t48 -9.5h22q37 0 52 10.5t15 39.5t-14.5 38.5t-54.5 13.5l-105 10q-69 7 -107.5 43.5t-38.5 89.5v41q0 67 48 102.5t144 35.5h101q175 0 175 -134v-11h-162q-1 42 -62 42h-21q-34 0 -48 -11.5t-14 -37.5q0 -23 11 -32t37 -11l116 -11 q80 -8 119 -38t39 -87v-44q0 -71 -48 -112t-136 -41h-109q-100 0 -148 36t-48 111v7h169z"/>
<glyph glyph-name="t" horiz-adv-x="513" unicode="t" d="M235 -7q-91 0 -131 52q-19 25 -23 53t-4 62v235h-59v119h59v99h163v-99h218v-119h-218v-210q0 -41 8.5 -56.5t44.5 -15.5q32 0 41.5 12t9.5 43v43h136v-58q0 -82 -38 -121t-120 -39h-87z"/>
<glyph glyph-name="u" horiz-adv-x="604" unicode="u" d="M537 0h-158l2 73q-23 -44 -57.5 -62t-88.5 -18q-49 0 -80.5 10t-50 32t-25.5 57.5t-7 86.5v335h163v-298q0 -29 3 -46.5t11 -27t22 -12.5t37 -3q22 0 35.5 5.5t20 17.5t8.5 30.5t2 44.5v289h163v-514z"/>
<glyph glyph-name="v" horiz-adv-x="551" unicode="v" d="M180 514l91 -387l95 387h176l-151 -514h-243l-144 514h176z"/>
<glyph glyph-name="w" horiz-adv-x="797" unicode="w" d="M24 514h164l44 -384l71 384h194l72 -382l42 382h163l-85 -514h-224l-65 356l-64 -356h-228z"/>
<glyph glyph-name="x" horiz-adv-x="569" unicode="x" d="M169 269l-127 245h184l62 -175l67 175h179l-128 -247l145 -267h-186l-78 190l-82 -190h-182z"/>
<glyph glyph-name="y" horiz-adv-x="546" unicode="y" d="M6 514h170l99 -382l86 382h175l-161 -581q-9 -33 -21.5 -58t-31.5 -41t-46.5 -24t-67.5 -8q-19 0 -41 2t-48 4v115h36q25 0 43.5 13.5t23.5 30.5l10 39h-83z"/>
<glyph glyph-name="z" horiz-adv-x="541" unicode="z" d="M48 138l245 254h-230v122h425v-138l-240 -252h247v-124h-447v138z"/>
<glyph glyph-name="braceleft" horiz-adv-x="500" unicode="{" d="M431 619q-6 0 -12 0.5t-11 0.5q-27 0 -43.5 -5t-25.5 -16.5t-12 -30.5t-3 -46v-117q0 -33 -4 -57.5t-15.5 -41.5t-31 -28.5t-50.5 -18.5q31 -7 50.5 -18t31 -28.5t15.5 -41.5t4 -57v-118q0 -27 3 -46t12 -30t25.5 -16t43.5 -5q5 0 11 0.5t12 0.5v-102q-10 0 -19 -0.5 t-18 -0.5q-45 0 -78.5 5t-58.5 19q-35 20 -43 54.5t-8 87.5v123q0 66 -24.5 94.5t-84.5 28.5q-5 0 -10 -0.5t-10 -0.5v102q5 0 10 -0.5t10 -0.5q60 0 84.5 29t24.5 95v122q0 53 8 88t43 55q25 14 58.5 19t78.5 5q9 0 18 -0.5t19 -0.5v-102z"/>
<glyph glyph-name="bar" horiz-adv-x="500" unicode="|" d="M301 764v-1000h-101v1000h101z"/>
<glyph glyph-name="braceright" horiz-adv-x="500" unicode="}" d="M103 721q47 0 81.5 -5t59.5 -19q34 -20 42.5 -54.5t8.5 -87.5v-123q0 -66 24.5 -94.5t84.5 -28.5q5 0 10 0.5t10 0.5v-102h-18q-62 0 -86.5 -27.5t-24.5 -94.5v-123q0 -53 -8 -88t-43 -54q-25 -14 -58.5 -19t-78.5 -5q-9 0 -18 0.5t-19 0.5v102q6 0 12 -0.5t11 -0.5 q27 0 43.5 5t25.5 16t12 30t3 46v117q0 33 4 57.5t15 41.5t30.5 28.5t51.5 18.5q-31 7 -50.5 18.5t-31 28.5t-15.5 41.5t-4 57.5v118q0 27 -3 46t-12 30t-25.5 16t-43.5 5q-5 0 -11 -0.5t-12 -0.5v102h33z"/>
<glyph glyph-name="asciitilde" horiz-adv-x="833" unicode="~" d="M747 284q-49 -33 -94 -50t-91 -17q-45 0 -90 15q-52 17 -99 33t-98 16q-45 0 -90 -19.5t-98 -57.5v108q104 70 189 70q44 0 78 -9t66 -20q36 -12 71 -24t73 -12q45 0 88.5 19t94.5 56v-108z"/>
<glyph glyph-name="exclamdown" horiz-adv-x="350" unicode="¡" d="M255 437v-437h-160v437h160zM255 727v-174h-160v174h160z"/>
<glyph glyph-name="cent" d="M361 123q38 0 52.5 16t14.5 60v11h162v-11q0 -56 -12 -94t-37.5 -61.5t-65.5 -33.5t-97 -10h-81l-36 -133h-57l39 138q-37 7 -62 23t-40 41t-21.5 60t-6.5 82v106q0 58 10.5 98t34 65t62.5 36.5t96 11.5h73l33 120h57l-33 -123q74 -8 109 -55t35 -136v-4h-164 q0 25 -3.5 40.5t-14.5 23.5l-77 -271h30zM354 405h-28q-34 0 -42 -24.5t-8 -75.5v-83q0 -22 1 -39t6 -30z" unicode="¢"/>
<glyph glyph-name="sterling" d="M79 161q30 0 47 17t17 44v65h-82v130h82v110q0 98 59 153.5t166 55.5h52q110 0 171 -46.5t61 -122.5v-53h-175v26q0 23 -16 36.5t-42 13.5h-34q-58 0 -58 -52v-121h187v-130h-187q-1 -47 -13.5 -76t-47.5 -50h401v-161h-588v161z" unicode="£"/>
<glyph glyph-name="currency" horiz-adv-x="606" unicode="¤" d="M184 603q25 18 54 28t65 10q68 0 121 -38l99 99l51 -52l-99 -100q37 -52 37 -118q0 -65 -37 -118l99 -100l-51 -51l-99 99q-25 -18 -54.5 -28t-65.5 -10q-69 0 -120 38l-100 -99l-51 51l99 100q-37 52 -37 118t37 118l-99 100l51 52zM304 567q-28 0 -52.5 -11t-43 -29.5 t-29 -43t-10.5 -51.5q0 -28 10.5 -52.5t29 -42.5t43 -28.5t52.5 -10.5t52.5 10.5t43 28.5t29 42.5t10.5 52.5q0 27 -10.5 51.5t-29 43t-43 29.5t-52.5 11z"/>
<glyph glyph-name="yen" horiz-adv-x="689" unicode="¥" d="M352 436l136 291h197l-134 -254h122v-58h-153l-54 -103h207v-57h-237v-255h-181v255h-239v57h209l-54 103h-155v58h123l-134 254h213z"/>
<glyph glyph-name="brokenbar" horiz-adv-x="500" unicode="¦" d="M301 699v-370h-101v370h101zM301 199v-370h-101v370h101z"/>
<glyph glyph-name="section" horiz-adv-x="512" unicode="§" d="M417 279q33 -14 49 -39.5t16 -67.5v-42q0 -74 -43 -106t-135 -32h-119q-80 0 -121.5 35t-41.5 103v7h151q1 -42 57 -42h45q31 0 42.5 10t11.5 37q0 26 -9 34.5t-36 14.5l-192 44q-83 19 -83 91v32q0 40 20 60t65 33q-32 13 -44.5 38t-12.5 67v41q0 72 44 105.5t135 33.5 h93q163 0 163 -140v-5h-151q-1 41 -57 41h-23q-31 0 -42.5 -9.5t-11.5 -38.5q0 -26 9 -35.5t36 -15.5l185 -40q46 -10 65.5 -31.5t19.5 -59.5v-31q0 -38 -20 -59.5t-65 -32.5zM344 303q23 9 23 28v26q0 22 -32 29l-168 37q-22 -9 -22 -28v-26q0 -22 32 -29z"/>
<glyph glyph-name="dieresis" horiz-adv-x="500" unicode="¨" d="M110 724h110v-120h-110v120zM280 724h110v-120h-110v120z"/>
<glyph glyph-name="copyright" horiz-adv-x="833" unicode="©" d="M416 722q75 0 140.5 -27t118.5 -80q51 -51 78 -117t27 -140q0 -75 -27 -139t-78 -115q-54 -53 -120.5 -81t-138.5 -28t-137 27.5t-118 80.5q-52 52 -79.5 117.5t-27.5 137.5t27 138t80 120q51 52 115.5 79t139.5 27zM417 662q-63 0 -117 -22t-97 -66q-44 -45 -66.5 -100 t-22.5 -115q0 -61 22.5 -115.5t66.5 -98.5t99 -66.5t115 -22.5t115.5 22.5t100.5 67.5q43 42 65 96t22 117q0 62 -22.5 116.5t-65.5 97.5q-89 89 -215 89zM500 438q-4 35 -26 53.5t-58 18.5q-43 0 -69 -38.5t-26 -112.5q0 -72 25.5 -109.5t73.5 -37.5q35 0 56.5 20.5 t26.5 58.5h94q-2 -34 -15.5 -61.5t-37 -47t-56 -30.5t-71.5 -11q-91 0 -143.5 57t-52.5 158q0 51 14 91.5t40 69t62.5 44t80.5 15.5q37 0 68.5 -10t54 -28t36 -43.5t15.5 -56.5h-92z"/>
<glyph glyph-name="ordfeminine" horiz-adv-x="439" unicode="ª" d="M53 635q0 54 31 75.5t99 21.5h59q81 0 115 -27t34 -92v-246h-123v33q-30 -38 -86 -38h-45q-50 0 -76 26t-26 74v34q0 46 29.5 71t87.5 25h33q55 0 83 -33v70q0 17 -7.5 24.5t-26.5 7.5h-21q-20 0 -29 -5t-9 -21h-122zM230 440q37 0 37 32v19q0 31 -37 31h-33 q-38 0 -38 -31v-19q0 -32 38 -32h33z"/>
<glyph glyph-name="guillemotleft" horiz-adv-x="482" unicode="«" d="M150 412h105l-100 -148l100 -148h-105l-102 148zM328 412h106l-100 -148l100 -148h-106l-101 148z"/>
<glyph glyph-name="logicalnot" horiz-adv-x="833" unicode="¬" d="M709 422v-245h-97v149h-488v96h585z"/>
<glyph glyph-name="registered" horiz-adv-x="833" unicode="®" d="M416 722q75 0 141.5 -27.5t119.5 -81.5q51 -51 77 -116.5t26 -138.5q0 -75 -27.5 -140.5t-79.5 -116.5q-54 -52 -120 -79t-137 -27q-73 0 -139 28t-119 82q-51 52 -77.5 117t-26.5 136q0 99 53 189q49 83 129.5 129t179.5 46zM417 662q-125 0 -211 -86 q-45 -45 -68.5 -101t-23.5 -116t22 -114.5t65 -97.5q44 -45 99.5 -68.5t115.5 -23.5t115 23t100 66q43 42 66 96t23 113q0 130 -86 218q-89 91 -217 91zM424 567q172 0 172 -116q0 -40 -23 -68t-65 -39l90 -180h-109l-77 165h-48v-165h-98v403h158zM364 388h48 q42 0 62.5 13.5t20.5 43.5q0 32 -21.5 46t-66.5 14h-43v-117z"/>
<glyph glyph-name="degree" horiz-adv-x="329" unicode="°" d="M165 715q31 0 58 -12t47 -32t31.5 -47t11.5 -58q0 -30 -11.5 -57t-32 -47.5t-47.5 -32t-58 -11.5t-57.5 11.5t-46.5 31.5t-31.5 47t-11.5 58t11.5 58t31.5 47.5t47 32t58 11.5zM165 652q-18 0 -33.5 -6.5t-27 -18t-18.5 -27t-7 -33.5q0 -36 25 -61t61 -25q18 0 33.5 7 t27 19t18 27.5t6.5 32.5q0 35 -25 60t-60 25z"/>
<glyph glyph-name="plusminus" horiz-adv-x="833" unicode="±" d="M466 597v-159h243v-97h-243v-159h-99v159h-243v97h243v159h99zM709 96v-97h-585v97h585z"/>
<glyph glyph-name="twosuperior" horiz-adv-x="461" unicode="²" d="M43 395q0 93 78 114l140 38q20 5 28.5 12.5t8.5 24.5v18q0 24 -12 33t-44 9h-21q-30 0 -42.5 -9t-12.5 -33v-25h-118v39q0 57 38 87t111 30h70q73 0 113 -31t40 -83v-36q0 -96 -88 -117l-136 -33q-16 -5 -22 -10.5t-6 -17.5v-17h248v-97h-373v104z"/>
<glyph glyph-name="threesuperior" horiz-adv-x="461" unicode="³" d="M159 438v-21q0 -23 13.5 -33t43.5 -10h22q56 0 56 40v16q0 40 -56 40h-39v88h38q51 0 51 38v12q0 37 -50 37h-21q-27 0 -39 -10t-12 -33v-15h-120v30q0 56 39.5 86t117.5 30h52q78 0 117.5 -28t39.5 -82v-28q0 -63 -72 -78q42 -11 60.5 -32t18.5 -57v-32 q0 -53 -40.5 -81.5t-114.5 -28.5h-73q-72 0 -112.5 30t-40.5 82v40h121z"/>
<glyph glyph-name="acute" horiz-adv-x="500" unicode="´" d="M240 575h-69l96 181h126z"/>
<glyph glyph-name="mu" horiz-adv-x="610" unicode="µ" d="M241 533l-37 -212q-9 -50 -12 -83t-3 -48q0 -90 83 -90q26 0 45 11t33.5 33.5t24.5 56.5t18 81l44 251h141l-94 -533h-131l9 57q-20 -38 -45 -55.5t-60 -17.5q-64 0 -104 59l-44 -257h-140l131 747h141z"/>
<glyph glyph-name="mu" horiz-adv-x="610" unicode="μ" d="M241 533l-37 -212q-9 -50 -12 -83t-3 -48q0 -90 83 -90q26 0 45 11t33.5 33.5t24.5 56.5t18 81l44 251h141l-94 -533h-131l9 57q-20 -38 -45 -55.5t-60 -17.5q-64 0 -104 59l-44 -257h-140l131 747h141z"/>
<glyph glyph-name="paragraph" horiz-adv-x="500" unicode="¶" d="M480 668h-55v-668h-74v668h-78v-668h-74v383q-42 1 -75 14.5t-56 35.5t-35.5 52.5t-12.5 66.5q0 37 13 68.5t38 54t60.5 35t79.5 12.5h269v-54z"/>
<glyph glyph-name="cedilla" horiz-adv-x="500" unicode="¸" d="M154 -172h117q24 0 32.5 8t8.5 28q0 17 -8.5 25t-28.5 8h-50v103h50v-48h48q74 0 74 -89q0 -30 -6.5 -49t-21.5 -30t-40 -15t-61 -4h-114v63z"/>
<glyph glyph-name="onesuperior" horiz-adv-x="461" unicode="¹" d="M219 727h142v-436h-121v325l-113 -92l-73 74z"/>
<glyph glyph-name="ordmasculine" horiz-adv-x="427" unicode="º" d="M35 584q0 40 8 68.5t26 46t47 25.5t72 8h51q43 0 72 -8t47 -25.5t26 -46t8 -68.5v-74q0 -41 -8 -69t-26 -45.5t-47 -25.5t-72 -8h-51q-43 0 -72 8t-47 25.5t-26 45.5t-8 69v74zM160 518q0 -20 1 -33.5t5.5 -21.5t14 -11.5t25.5 -3.5h15q33 0 39.5 15.5t6.5 54.5v58 q0 20 -1 33.5t-5.5 21.5t-14 11.5t-25.5 3.5h-15q-32 0 -39 -15.5t-7 -54.5v-58z"/>
<glyph glyph-name="guillemotright" horiz-adv-x="482" unicode="»" d="M332 116h-105l100 148l-100 148h105l102 -148zM153 116h-105l100 148l-100 148h105l102 -148z"/>
<glyph glyph-name="onequarter" horiz-adv-x="1048" unicode="¼" d="M209 727h135v-407h-115v303l-108 -85l-69 69zM691 736h82l-418 -745h-82zM629 185l180 222h165v-247h54v-82h-54v-78h-115v78h-230v107zM859 160v162l-129 -162h129z"/>
<glyph glyph-name="onehalf" horiz-adv-x="1048" unicode="½" d="M209 727h135v-407h-115v303l-108 -85l-69 69zM691 736h82l-418 -745h-82zM648 97q0 86 74 106l134 36q20 5 27.5 12t7.5 23v16q0 23 -11.5 31.5t-41.5 8.5h-20q-29 0 -40.5 -8.5t-11.5 -31.5v-23h-114v37q0 53 37 80.5t106 27.5h67q69 0 107.5 -28.5t38.5 -77.5v-33 q0 -91 -84 -110l-130 -31q-15 -4 -20.5 -9t-5.5 -17v-16h237v-90h-357v97z"/>
<glyph glyph-name="threequarters" horiz-adv-x="1048" unicode="¾" d="M152 457v-19q0 -22 12.5 -31t41.5 -9h21q54 0 54 37v15q0 20 -12.5 28.5t-41.5 8.5h-37v82h36q49 0 49 36v11q0 34 -48 34h-20q-26 0 -37.5 -9t-11.5 -30v-14h-115v27q0 52 38.5 80t111.5 28h50q75 0 112.5 -26t37.5 -76v-27q0 -59 -69 -72q40 -10 58 -29.5t18 -53.5v-30 q0 -49 -38.5 -76t-109.5 -27h-69q-69 0 -108 28t-39 77v37h116zM691 736h82l-418 -745h-82zM629 185l180 222h165v-247h54v-82h-54v-78h-115v78h-230v107zM859 160v162l-129 -162h129z"/>
<glyph glyph-name="questiondown" horiz-adv-x="575" unicode="¿" d="M397 555h-172v174h172v-174zM529 152q0 -75 -48 -117t-140 -42h-116q-91 0 -139 42t-48 110v71q0 21 6.5 43.5t17.5 41.5q19 31 52.5 50.5t75.5 42.5q35 19 35 53v22h172v-58q0 -47 -16 -72.5t-49 -43.5l-85 -45q-36 -20 -36 -40v-45q0 -42 49 -42h43q56 0 56 45v27h170 v-43z"/>
<glyph glyph-name="Agrave" horiz-adv-x="750" unicode="À" d="M228 727h300l204 -727h-209l-33 127h-229l-33 -127h-209zM456 275l-72 301h-13l-74 -301h159zM358 969l96 -181h-69l-153 181h126z"/>
<glyph glyph-name="Aacute" horiz-adv-x="750" unicode="Á" d="M228 727h300l204 -727h-209l-33 127h-229l-33 -127h-209zM456 275l-72 301h-13l-74 -301h159zM365 788h-69l96 181h126z"/>
<glyph glyph-name="Acircumflex" horiz-adv-x="750" unicode="Â" d="M228 727h300l204 -727h-209l-33 127h-229l-33 -127h-209zM456 275l-72 301h-13l-74 -301h159zM317 969h116l96 -181h-69l-85 106l-86 -106h-68z"/>
<glyph glyph-name="Atilde" horiz-adv-x="750" unicode="Ã" d="M228 727h300l204 -727h-209l-33 127h-229l-33 -127h-209zM456 275l-72 301h-13l-74 -301h159zM530 945q-25 -119 -102 -119q-17 0 -36 6l-43 12l-16 4t-16 2q-31 0 -43 -39h-54q12 59 36 87t64 28q9 0 19.5 -1t22.5 -5l45 -13q7 -2 13.5 -2.5t13.5 -0.5q32 0 42 41h54z "/>
<glyph glyph-name="Adieresis" horiz-adv-x="750" unicode="Ä" d="M228 727h300l204 -727h-209l-33 127h-229l-33 -127h-209zM456 275l-72 301h-13l-74 -301h159zM235 937h110v-120h-110v120zM405 937h110v-120h-110v120z"/>
<glyph glyph-name="Aring" horiz-adv-x="750" unicode="Å" d="M228 727h75q-56 40 -56 106q0 27 10 50.5t28 41.5t41.5 28t50.5 10t51 -10t41.5 -28t27.5 -41.5t10 -50.5q0 -68 -56 -106h77l204 -727h-209l-33 127h-229l-33 -127h-209zM456 275l-72 301h-13l-74 -301h159zM318 833q0 -26 16.5 -42.5t42.5 -16.5t43 17t17 42 t-17.5 42.5t-42.5 17.5q-26 0 -42.5 -17t-16.5 -43z"/>
<glyph glyph-name="AE" horiz-adv-x="984" unicode="Æ" d="M272 727h640v-153h-279v-134h271v-136h-271v-150h286v-154h-473v154h-203l-55 -154h-207zM446 292v296h-47l-106 -296h153z"/>
<glyph glyph-name="Ccedilla" horiz-adv-x="706" unicode="Ç" d="M662 259q0 -72 -15.5 -122.5t-47.5 -83t-83 -47.5t-121 -15h-66q-78 0 -131.5 16t-86 51t-46.5 92t-14 138v151q0 81 14 138t46.5 92t86 51t131.5 16h54q76 0 128.5 -13.5t85 -44.5t46.5 -80.5t14 -122.5v-14h-194v13q0 51 -23.5 71t-79.5 20q-36 0 -57 -7t-31.5 -23.5 t-13.5 -44t-3 -67.5v-120q0 -41 3 -68t13.5 -43t31.5 -23t57 -7q58 0 81 21.5t23 79.5v17h198v-21zM257 -172h117q24 0 32.5 8t8.5 28q0 17 -8.5 25t-28.5 8h-50v103h50v-48h48q74 0 74 -89q0 -30 -6.5 -49t-21.5 -30t-40 -15t-61 -4h-114v63z"/>
<glyph glyph-name="Egrave" horiz-adv-x="687" unicode="È" d="M74 727h546v-162h-351v-126h341v-140h-341v-137h359v-162h-554v727zM334 969l96 -181h-69l-153 181h126z"/>
<glyph glyph-name="Eacute" horiz-adv-x="687" unicode="É" d="M74 727h546v-162h-351v-126h341v-140h-341v-137h359v-162h-554v727zM341 788h-69l96 181h126z"/>
<glyph glyph-name="Ecircumflex" horiz-adv-x="687" unicode="Ê" d="M74 727h546v-162h-351v-126h341v-140h-341v-137h359v-162h-554v727zM293 969h116l96 -181h-69l-85 106l-86 -106h-68z"/>
<glyph glyph-name="Edieresis" horiz-adv-x="687" unicode="Ë" d="M74 727h546v-162h-351v-126h341v-140h-341v-137h359v-162h-554v727zM211 937h110v-120h-110v120zM381 937h110v-120h-110v120z"/>
<glyph glyph-name="Igrave" horiz-adv-x="356" unicode="Ì" d="M80 727h197v-727h-197v727zM162 969l96 -181h-69l-153 181h126z"/>
<glyph glyph-name="Iacute" horiz-adv-x="356" unicode="Í" d="M80 727h197v-727h-197v727zM169 788h-69l96 181h126z"/>
<glyph glyph-name="Icircumflex" horiz-adv-x="356" unicode="Î" d="M80 727h197v-727h-197v727zM121 969h116l96 -181h-69l-85 106l-86 -106h-68z"/>
<glyph glyph-name="Idieresis" horiz-adv-x="356" unicode="Ï" d="M80 727h197v-727h-197v727zM39 937h110v-120h-110v120zM209 937h110v-120h-110v120z"/>
<glyph glyph-name="Eth" horiz-adv-x="778" unicode="Ð" d="M419 162q37 0 58.5 6.5t33 22.5t14.5 43t3 69v120q0 42 -3 69t-14.5 43.5t-33 23t-58.5 6.5h-146v-144h127v-105h-127v-154h146zM79 316h-74v105h74v306h369q78 0 131.5 -15.5t86 -50t47 -90t14.5 -134.5v-147q0 -80 -14.5 -135t-47 -89.5t-86 -50t-131.5 -15.5h-369v316 z"/>
<glyph glyph-name="Ntilde" horiz-adv-x="850" unicode="Ñ" d="M74 727h290l226 -540v540h186v-727h-290l-226 545v-545h-186v727zM580 945q-25 -119 -102 -119q-17 0 -36 6l-43 12l-16 4t-16 2q-31 0 -43 -39h-54q12 59 36 87t64 28q9 0 19.5 -1t22.5 -5l45 -13q7 -2 13.5 -2.5t13.5 -0.5q32 0 42 41h54z"/>
<glyph glyph-name="Ograve" horiz-adv-x="755" unicode="Ò" d="M51 439q0 81 14 138t46.5 92t86 51t131.5 16h96q78 0 131.5 -16t86.5 -51t47 -92t14 -138v-151q0 -81 -14 -138t-47 -92t-86.5 -51t-131.5 -16h-96q-78 0 -131.5 16t-86 51t-46.5 92t-14 138v151zM250 303q0 -42 3 -69t14.5 -43t33 -22.5t58.5 -6.5h36q37 0 59 6.5 t33 22.5t14.5 43t3.5 69v120q0 42 -3.5 69t-14.5 43.5t-33 23t-59 6.5h-36q-37 0 -58.5 -6.5t-33 -23t-14.5 -43.5t-3 -69v-120zM361 969l96 -181h-69l-153 181h126z"/>
<glyph glyph-name="Oacute" horiz-adv-x="755" unicode="Ó" d="M51 439q0 81 14 138t46.5 92t86 51t131.5 16h96q78 0 131.5 -16t86.5 -51t47 -92t14 -138v-151q0 -81 -14 -138t-47 -92t-86.5 -51t-131.5 -16h-96q-78 0 -131.5 16t-86 51t-46.5 92t-14 138v151zM250 303q0 -42 3 -69t14.5 -43t33 -22.5t58.5 -6.5h36q37 0 59 6.5 t33 22.5t14.5 43t3.5 69v120q0 42 -3.5 69t-14.5 43.5t-33 23t-59 6.5h-36q-37 0 -58.5 -6.5t-33 -23t-14.5 -43.5t-3 -69v-120zM368 788h-69l96 181h126z"/>
<glyph glyph-name="Ocircumflex" horiz-adv-x="755" unicode="Ô" d="M51 439q0 81 14 138t46.5 92t86 51t131.5 16h96q78 0 131.5 -16t86.5 -51t47 -92t14 -138v-151q0 -81 -14 -138t-47 -92t-86.5 -51t-131.5 -16h-96q-78 0 -131.5 16t-86 51t-46.5 92t-14 138v151zM250 303q0 -42 3 -69t14.5 -43t33 -22.5t58.5 -6.5h36q37 0 59 6.5 t33 22.5t14.5 43t3.5 69v120q0 42 -3.5 69t-14.5 43.5t-33 23t-59 6.5h-36q-37 0 -58.5 -6.5t-33 -23t-14.5 -43.5t-3 -69v-120zM320 969h116l96 -181h-69l-85 106l-86 -106h-68z"/>
<glyph glyph-name="Otilde" horiz-adv-x="755" unicode="Õ" d="M51 439q0 81 14 138t46.5 92t86 51t131.5 16h96q78 0 131.5 -16t86.5 -51t47 -92t14 -138v-151q0 -81 -14 -138t-47 -92t-86.5 -51t-131.5 -16h-96q-78 0 -131.5 16t-86 51t-46.5 92t-14 138v151zM250 303q0 -42 3 -69t14.5 -43t33 -22.5t58.5 -6.5h36q37 0 59 6.5 t33 22.5t14.5 43t3.5 69v120q0 42 -3.5 69t-14.5 43.5t-33 23t-59 6.5h-36q-37 0 -58.5 -6.5t-33 -23t-14.5 -43.5t-3 -69v-120zM533 945q-25 -119 -102 -119q-17 0 -36 6l-43 12l-16 4t-16 2q-31 0 -43 -39h-54q12 59 36 87t64 28q9 0 19.5 -1t22.5 -5l45 -13 q7 -2 13.5 -2.5t13.5 -0.5q32 0 42 41h54z"/>
<glyph glyph-name="Odieresis" horiz-adv-x="755" unicode="Ö" d="M51 439q0 81 14 138t46.5 92t86 51t131.5 16h96q78 0 131.5 -16t86.5 -51t47 -92t14 -138v-151q0 -81 -14 -138t-47 -92t-86.5 -51t-131.5 -16h-96q-78 0 -131.5 16t-86 51t-46.5 92t-14 138v151zM250 303q0 -42 3 -69t14.5 -43t33 -22.5t58.5 -6.5h36q37 0 59 6.5 t33 22.5t14.5 43t3.5 69v120q0 42 -3.5 69t-14.5 43.5t-33 23t-59 6.5h-36q-37 0 -58.5 -6.5t-33 -23t-14.5 -43.5t-3 -69v-120zM238 937h110v-120h-110v120zM408 937h110v-120h-110v120z"/>
<glyph glyph-name="multiply" horiz-adv-x="833" unicode="×" d="M423 367l220 220l69 -68l-220 -221l220 -220l-69 -68l-220 220l-220 -220l-68 68l220 220l-220 221l68 68z"/>
<glyph glyph-name="Oslash" horiz-adv-x="755" unicode="Ø" d="M51 439q0 81 14 138t46.5 92t86 51t131.5 16h96q66 0 114.5 -10.5t83.5 -39.5l58 58l70 -67l-69 -71q14 -35 18 -76.5t4 -90.5v-151q0 -81 -14 -138t-47 -92t-86.5 -51t-131.5 -16h-96q-67 0 -114.5 10t-79.5 38l-58 -61l-71 69l68 70q-15 32 -19 74t-4 97v151zM275 184 q9 -12 29.5 -17t54.5 -5h36q37 0 59 6.5t33 22.5t14.5 43t3.5 69v118zM483 541q-14 15 -35 19.5t-53 4.5h-36q-37 0 -58.5 -6.5t-33 -23t-14.5 -43.5t-3 -69v-124z"/>
<glyph glyph-name="Ugrave" horiz-adv-x="775" unicode="Ù" d="M257 727v-424q0 -42 4 -69.5t16.5 -43t34.5 -22t58 -6.5h36q36 0 58 6.5t34 22.5t16 43t4 69v424h194v-439q0 -36 -1.5 -67.5t-6.5 -59t-16 -51.5t-29 -45q-19 -22 -41.5 -36t-50 -22.5t-60 -12t-71.5 -3.5h-96q-78 0 -132 15t-91 59q-18 21 -29 45t-16.5 51.5t-7 59 t-1.5 67.5v439h194zM371 969l96 -181h-69l-153 181h126z"/>
<glyph glyph-name="Uacute" horiz-adv-x="775" unicode="Ú" d="M257 727v-424q0 -42 4 -69.5t16.5 -43t34.5 -22t58 -6.5h36q36 0 58 6.5t34 22.5t16 43t4 69v424h194v-439q0 -36 -1.5 -67.5t-6.5 -59t-16 -51.5t-29 -45q-19 -22 -41.5 -36t-50 -22.5t-60 -12t-71.5 -3.5h-96q-78 0 -132 15t-91 59q-18 21 -29 45t-16.5 51.5t-7 59 t-1.5 67.5v439h194zM378 788h-69l96 181h126z"/>
<glyph glyph-name="Ucircumflex" horiz-adv-x="775" unicode="Û" d="M257 727v-424q0 -42 4 -69.5t16.5 -43t34.5 -22t58 -6.5h36q36 0 58 6.5t34 22.5t16 43t4 69v424h194v-439q0 -36 -1.5 -67.5t-6.5 -59t-16 -51.5t-29 -45q-19 -22 -41.5 -36t-50 -22.5t-60 -12t-71.5 -3.5h-96q-78 0 -132 15t-91 59q-18 21 -29 45t-16.5 51.5t-7 59 t-1.5 67.5v439h194zM330 969h116l96 -181h-69l-85 106l-86 -106h-68z"/>
<glyph glyph-name="Udieresis" horiz-adv-x="775" unicode="Ü" d="M257 727v-424q0 -42 4 -69.5t16.5 -43t34.5 -22t58 -6.5h36q36 0 58 6.5t34 22.5t16 43t4 69v424h194v-439q0 -36 -1.5 -67.5t-6.5 -59t-16 -51.5t-29 -45q-19 -22 -41.5 -36t-50 -22.5t-60 -12t-71.5 -3.5h-96q-78 0 -132 15t-91 59q-18 21 -29 45t-16.5 51.5t-7 59 t-1.5 67.5v439h194zM248 937h110v-120h-110v120zM418 937h110v-120h-110v120z"/>
<glyph glyph-name="Yacute" horiz-adv-x="689" unicode="Ý" d="M218 727l129 -280l127 280h218l-249 -472v-255h-195v255l-250 472h220zM335 788h-69l96 181h126z"/>
<glyph glyph-name="Thorn" horiz-adv-x="719" unicode="Þ" d="M269 727v-97h146q70 0 120.5 -13t83.5 -42t48.5 -75t15.5 -113v-48q0 -67 -15.5 -113t-48.5 -74.5t-83.5 -41.5t-120.5 -13h-146v-97h-195v727h195zM269 258h136q24 0 39.5 4t24 13.5t12 26.5t3.5 43v41q0 43 -19.5 62t-67.5 19h-128v-209z"/>
<glyph glyph-name="germandbls" horiz-adv-x="578" unicode="ß" d="M70 541q0 186 185 186h61q86 0 131.5 -40t45.5 -112v-55q0 -44 -14 -68t-52 -38q57 -10 83 -46t26 -105v-89q0 -49 -10 -83.5t-32 -56t-56.5 -31.5t-83.5 -10q-16 0 -31 1.5t-31 3.5v120q5 -1 9.5 -1h9.5q32 0 44.5 17t12.5 55v93q0 36 -16.5 49.5t-57.5 13.5v105 q26 2 35 13t9 36v54q0 28 -12 40t-39 12q-30 0 -40 -15.5t-10 -53.5v-536h-167v541z"/>
<glyph glyph-name="agrave" horiz-adv-x="585" unicode="à" d="M70 383q1 77 42 107.5t132 30.5h78q54 0 92 -9.5t62 -29.5t34.5 -52t10.5 -78v-352h-164v47q-41 -54 -115 -54h-59q-66 0 -101.5 37t-35.5 106v48q0 66 39.5 102t116.5 36h45q36 0 64 -12t46 -35v100q0 23 -10 34t-35 11h-28q-27 0 -39 -7t-12 -30h-163zM307 105 q49 0 49 45v27q0 45 -49 45h-45q-50 0 -50 -45v-27q0 -45 50 -45h45zM284 756l96 -181h-69l-153 181h126z"/>
<glyph glyph-name="aacute" horiz-adv-x="585" unicode="á" d="M70 383q1 77 42 107.5t132 30.5h78q54 0 92 -9.5t62 -29.5t34.5 -52t10.5 -78v-352h-164v47q-41 -54 -115 -54h-59q-66 0 -101.5 37t-35.5 106v48q0 66 39.5 102t116.5 36h45q36 0 64 -12t46 -35v100q0 23 -10 34t-35 11h-28q-27 0 -39 -7t-12 -30h-163zM307 105 q49 0 49 45v27q0 45 -49 45h-45q-50 0 -50 -45v-27q0 -45 50 -45h45zM291 575h-69l96 181h126z"/>
<glyph glyph-name="acircumflex" horiz-adv-x="585" unicode="â" d="M70 383q1 77 42 107.5t132 30.5h78q54 0 92 -9.5t62 -29.5t34.5 -52t10.5 -78v-352h-164v47q-41 -54 -115 -54h-59q-66 0 -101.5 37t-35.5 106v48q0 66 39.5 102t116.5 36h45q36 0 64 -12t46 -35v100q0 23 -10 34t-35 11h-28q-27 0 -39 -7t-12 -30h-163zM307 105 q49 0 49 45v27q0 45 -49 45h-45q-50 0 -50 -45v-27q0 -45 50 -45h45zM243 756h116l96 -181h-69l-85 106l-86 -106h-68z"/>
<glyph glyph-name="atilde" horiz-adv-x="585" unicode="ã" d="M70 383q1 77 42 107.5t132 30.5h78q54 0 92 -9.5t62 -29.5t34.5 -52t10.5 -78v-352h-164v47q-41 -54 -115 -54h-59q-66 0 -101.5 37t-35.5 106v48q0 66 39.5 102t116.5 36h45q36 0 64 -12t46 -35v100q0 23 -10 34t-35 11h-28q-27 0 -39 -7t-12 -30h-163zM307 105 q49 0 49 45v27q0 45 -49 45h-45q-50 0 -50 -45v-27q0 -45 50 -45h45zM456 732q-25 -119 -102 -119q-17 0 -36 6l-43 12l-16 4t-16 2q-31 0 -43 -39h-54q12 59 36 87t64 28q9 0 19.5 -1t22.5 -5l45 -13q7 -2 13.5 -2.5t13.5 -0.5q32 0 42 41h54z"/>
<glyph glyph-name="adieresis" horiz-adv-x="585" unicode="ä" d="M70 383q1 77 42 107.5t132 30.5h78q54 0 92 -9.5t62 -29.5t34.5 -52t10.5 -78v-352h-164v47q-41 -54 -115 -54h-59q-66 0 -101.5 37t-35.5 106v48q0 66 39.5 102t116.5 36h45q36 0 64 -12t46 -35v100q0 23 -10 34t-35 11h-28q-27 0 -39 -7t-12 -30h-163zM307 105 q49 0 49 45v27q0 45 -49 45h-45q-50 0 -50 -45v-27q0 -45 50 -45h45zM161 724h110v-120h-110v120zM331 724h110v-120h-110v120z"/>
<glyph glyph-name="aring" horiz-adv-x="585" unicode="å" d="M70 383q1 77 42 107.5t132 30.5h78q54 0 92 -9.5t62 -29.5t34.5 -52t10.5 -78v-352h-164v47q-41 -54 -115 -54h-59q-66 0 -101.5 37t-35.5 106v48q0 66 39.5 102t116.5 36h45q36 0 64 -12t46 -35v100q0 23 -10 34t-35 11h-28q-27 0 -39 -7t-12 -30h-163zM307 105 q49 0 49 45v27q0 45 -49 45h-45q-50 0 -50 -45v-27q0 -45 50 -45h45zM177 683q0 27 10 50.5t27 41.5t41 28t51 10t51 -10t41.5 -28t27.5 -41.5t10 -50.5t-10 -51t-27.5 -41.5t-41.5 -27.5t-51 -10t-51 10t-41 27.5t-27 41.5t-10 51zM247 683q0 -26 16.5 -42.5t42.5 -16.5 t43 17t17 42t-17.5 42.5t-42.5 17.5q-26 0 -42.5 -17t-16.5 -43z"/>
<glyph glyph-name="ae" horiz-adv-x="872" unicode="æ" d="M307 105q49 0 49 45v27q0 45 -49 45h-45q-50 0 -50 -45v-27q0 -45 50 -45h45zM70 383q1 77 42 107.5t132 30.5h78q40 0 68.5 -8t51.5 -35q18 26 44 34.5t66 8.5h69q57 0 96 -11.5t63 -36.5t34.5 -65t10.5 -98v-81h-313v-63q0 -36 15 -49.5t50 -13.5h20q32 0 47 11t18 43 h161q-6 -89 -54 -126.5t-148 -37.5h-69q-66 0 -109 15.5t-68 54.5q-26 -36 -57.5 -53t-75.5 -17h-59q-66 0 -101.5 37t-35.5 106v48q0 66 39.5 102t116.5 36h45q36 0 64 -12t46 -35v100q0 23 -10 34t-35 11h-28q-27 0 -39 -7t-12 -30h-163zM665 315v18q0 49 -13 67t-53 18 h-21q-40 0 -53 -17t-13 -63v-23h153z"/>
<glyph glyph-name="ccedilla" horiz-adv-x="566" unicode="ç" d="M523 203q0 -6 0.5 -12t0.5 -12q0 -51 -11.5 -86.5t-36.5 -57.5t-64 -32t-93 -10h-69q-57 0 -96 11.5t-63 36.5t-34.5 65t-10.5 98v106q0 58 10.5 98t34.5 65t63 36.5t96 11.5h69q54 0 93 -10t63.5 -32t36 -57t11.5 -85v-14h-164v5q0 40 -13.5 55t-48.5 15h-22 q-22 0 -34.5 -5t-18.5 -17t-7.5 -31t-1.5 -47v-82q0 -29 1.5 -48t7.5 -30.5t18.5 -16.5t34.5 -5h22q36 0 49 16t13 59v12h164zM187 -172h117q24 0 32.5 8t8.5 28q0 17 -8.5 25t-28.5 8h-50v103h50v-48h48q74 0 74 -89q0 -30 -6.5 -49t-21.5 -30t-40 -15t-61 -4h-114v63z"/>
<glyph glyph-name="egrave" horiz-adv-x="568" unicode="è" d="M363 315v18q0 49 -13 67t-53 18h-21q-40 0 -53 -17t-13 -63v-23h153zM521 157q-6 -89 -54 -126.5t-148 -37.5h-69q-57 0 -96 11.5t-63 36.5t-34.5 65t-10.5 98v106q0 58 10.5 98t34.5 65t63 36.5t96 11.5h69q57 0 96 -11.5t63 -36.5t34.5 -65t10.5 -98v-81h-313v-63 q0 -36 15 -49.5t50 -13.5h21q32 0 46.5 11t17.5 43h161zM267 756l96 -181h-69l-153 181h126z"/>
<glyph glyph-name="eacute" horiz-adv-x="568" unicode="é" d="M363 315v18q0 49 -13 67t-53 18h-21q-40 0 -53 -17t-13 -63v-23h153zM521 157q-6 -89 -54 -126.5t-148 -37.5h-69q-57 0 -96 11.5t-63 36.5t-34.5 65t-10.5 98v106q0 58 10.5 98t34.5 65t63 36.5t96 11.5h69q57 0 96 -11.5t63 -36.5t34.5 -65t10.5 -98v-81h-313v-63 q0 -36 15 -49.5t50 -13.5h21q32 0 46.5 11t17.5 43h161zM274 575h-69l96 181h126z"/>
<glyph glyph-name="ecircumflex" horiz-adv-x="568" unicode="ê" d="M363 315v18q0 49 -13 67t-53 18h-21q-40 0 -53 -17t-13 -63v-23h153zM521 157q-6 -89 -54 -126.5t-148 -37.5h-69q-57 0 -96 11.5t-63 36.5t-34.5 65t-10.5 98v106q0 58 10.5 98t34.5 65t63 36.5t96 11.5h69q57 0 96 -11.5t63 -36.5t34.5 -65t10.5 -98v-81h-313v-63 q0 -36 15 -49.5t50 -13.5h21q32 0 46.5 11t17.5 43h161zM226 756h116l96 -181h-69l-85 106l-86 -106h-68z"/>
<glyph glyph-name="edieresis" horiz-adv-x="568" unicode="ë" d="M363 315v18q0 49 -13 67t-53 18h-21q-40 0 -53 -17t-13 -63v-23h153zM521 157q-6 -89 -54 -126.5t-148 -37.5h-69q-57 0 -96 11.5t-63 36.5t-34.5 65t-10.5 98v106q0 58 10.5 98t34.5 65t63 36.5t96 11.5h69q57 0 96 -11.5t63 -36.5t34.5 -65t10.5 -98v-81h-313v-63 q0 -36 15 -49.5t50 -13.5h21q32 0 46.5 11t17.5 43h161zM144 724h110v-120h-110v120zM314 724h110v-120h-110v120z"/>
<glyph glyph-name="igrave" horiz-adv-x="304" unicode="ì" d="M69 514h166v-514h-166v514zM136 756l96 -181h-69l-153 181h126z"/>
<glyph glyph-name="iacute" horiz-adv-x="304" unicode="í" d="M69 514h166v-514h-166v514zM143 575h-69l96 181h126z"/>
<glyph glyph-name="icircumflex" horiz-adv-x="304" unicode="î" d="M69 514h166v-514h-166v514zM95 756h116l96 -181h-69l-85 106l-86 -106h-68z"/>
<glyph glyph-name="idieresis" horiz-adv-x="304" unicode="ï" d="M69 514h166v-514h-166v514zM13 724h110v-120h-110v120zM183 724h110v-120h-110v120z"/>
<glyph glyph-name="eth" horiz-adv-x="569" unicode="ð" d="M213 216q0 -29 1.5 -48t7.5 -30.5t18.5 -16.5t34.5 -5h20q22 0 34 5t18 17t7.5 31t1.5 47v82q0 28 -1.5 47t-7.5 31t-18.5 17t-33.5 5h-20q-22 0 -34.5 -5t-18.5 -17t-7.5 -31t-1.5 -47v-82zM370 692l91 28l20 -66l-69 -22l20 -29q49 -69 70.5 -137t21.5 -148v-114 q0 -58 -11 -98t-35 -65t-63 -36.5t-96 -11.5h-69q-57 0 -96 11.5t-63 36.5t-34.5 65t-10.5 98v106q0 107 40.5 158.5t131.5 51.5q46 0 77.5 -13.5t60.5 -52.5q-35 71 -80 139l-149 -47l-20 66l130 40l-47 75h155z"/>
<glyph glyph-name="ntilde" horiz-adv-x="600" unicode="ñ" d="M72 514h158l-2 -73q23 44 57.5 62t88.5 18q49 0 80.5 -10t50 -32t25.5 -58t7 -87v-334h-163v298q0 29 -3 46.5t-11 27t-22 12.5t-37 3t-36 -6t-19.5 -18t-8.5 -30.5t-2 -44.5v-288h-163v514zM463 732q-25 -119 -102 -119q-17 0 -36 6l-43 12l-16 4t-16 2q-31 0 -43 -39 h-54q12 59 36 87t64 28q9 0 19.5 -1t22.5 -5l45 -13q7 -2 13.5 -2.5t13.5 -0.5q32 0 42 41h54z"/>
<glyph glyph-name="ograve" horiz-adv-x="569" unicode="ò" d="M46 310q0 58 10.5 98t34.5 65t63 36.5t96 11.5h69q57 0 96 -11.5t63 -36.5t34.5 -65t10.5 -98v-106q0 -58 -10.5 -98t-34.5 -65t-63 -36.5t-96 -11.5h-69q-57 0 -96 11.5t-63 36.5t-34.5 65t-10.5 98v106zM213 216q0 -29 1.5 -48t7.5 -30.5t18.5 -16.5t34.5 -5h20 q22 0 34 5t18 17t7.5 31t1.5 47v82q0 28 -1.5 47.5t-7.5 31t-18 16.5t-34 5h-20q-22 0 -34.5 -5t-18.5 -17t-7.5 -31t-1.5 -47v-82zM268 756l96 -181h-69l-153 181h126z"/>
<glyph glyph-name="oacute" horiz-adv-x="569" unicode="ó" d="M46 310q0 58 10.5 98t34.5 65t63 36.5t96 11.5h69q57 0 96 -11.5t63 -36.5t34.5 -65t10.5 -98v-106q0 -58 -10.5 -98t-34.5 -65t-63 -36.5t-96 -11.5h-69q-57 0 -96 11.5t-63 36.5t-34.5 65t-10.5 98v106zM213 216q0 -29 1.5 -48t7.5 -30.5t18.5 -16.5t34.5 -5h20 q22 0 34 5t18 17t7.5 31t1.5 47v82q0 28 -1.5 47.5t-7.5 31t-18 16.5t-34 5h-20q-22 0 -34.5 -5t-18.5 -17t-7.5 -31t-1.5 -47v-82zM275 575h-69l96 181h126z"/>
<glyph glyph-name="ocircumflex" horiz-adv-x="569" unicode="ô" d="M46 310q0 58 10.5 98t34.5 65t63 36.5t96 11.5h69q57 0 96 -11.5t63 -36.5t34.5 -65t10.5 -98v-106q0 -58 -10.5 -98t-34.5 -65t-63 -36.5t-96 -11.5h-69q-57 0 -96 11.5t-63 36.5t-34.5 65t-10.5 98v106zM213 216q0 -29 1.5 -48t7.5 -30.5t18.5 -16.5t34.5 -5h20 q22 0 34 5t18 17t7.5 31t1.5 47v82q0 28 -1.5 47.5t-7.5 31t-18 16.5t-34 5h-20q-22 0 -34.5 -5t-18.5 -17t-7.5 -31t-1.5 -47v-82zM227 756h116l96 -181h-69l-85 106l-86 -106h-68z"/>
<glyph glyph-name="otilde" horiz-adv-x="569" unicode="õ" d="M46 310q0 58 10.5 98t34.5 65t63 36.5t96 11.5h69q57 0 96 -11.5t63 -36.5t34.5 -65t10.5 -98v-106q0 -58 -10.5 -98t-34.5 -65t-63 -36.5t-96 -11.5h-69q-57 0 -96 11.5t-63 36.5t-34.5 65t-10.5 98v106zM213 216q0 -29 1.5 -48t7.5 -30.5t18.5 -16.5t34.5 -5h20 q22 0 34 5t18 17t7.5 31t1.5 47v82q0 28 -1.5 47.5t-7.5 31t-18 16.5t-34 5h-20q-22 0 -34.5 -5t-18.5 -17t-7.5 -31t-1.5 -47v-82zM440 732q-25 -119 -102 -119q-17 0 -36 6l-43 12l-16 4t-16 2q-31 0 -43 -39h-54q12 59 36 87t64 28q9 0 19.5 -1t22.5 -5l45 -13 q7 -2 13.5 -2.5t13.5 -0.5q32 0 42 41h54z"/>
<glyph glyph-name="odieresis" horiz-adv-x="569" unicode="ö" d="M46 310q0 58 10.5 98t34.5 65t63 36.5t96 11.5h69q57 0 96 -11.5t63 -36.5t34.5 -65t10.5 -98v-106q0 -58 -10.5 -98t-34.5 -65t-63 -36.5t-96 -11.5h-69q-57 0 -96 11.5t-63 36.5t-34.5 65t-10.5 98v106zM213 216q0 -29 1.5 -48t7.5 -30.5t18.5 -16.5t34.5 -5h20 q22 0 34 5t18 17t7.5 31t1.5 47v82q0 28 -1.5 47.5t-7.5 31t-18 16.5t-34 5h-20q-22 0 -34.5 -5t-18.5 -17t-7.5 -31t-1.5 -47v-82zM145 724h110v-120h-110v120zM315 724h110v-120h-110v120z"/>
<glyph glyph-name="divide" horiz-adv-x="833" unicode="÷" d="M417 564q30 0 52 -21.5t22 -52.5q0 -30 -21 -52t-53 -22q-31 0 -52.5 21.5t-21.5 52.5q0 32 22 53t52 21zM709 347v-97h-585v97h585zM417 180q30 0 52 -21.5t22 -52.5q0 -29 -21.5 -51t-52.5 -22t-52.5 21t-21.5 52q0 32 22 53t52 21z"/>
<glyph glyph-name="oslash" horiz-adv-x="569" unicode="ø" d="M46 310q0 58 10.5 98t34.5 65t63 36.5t96 11.5h69q48 0 84 -7.5t63 -28.5l47 46l48 -50l-54 -53q9 -23 12.5 -52t3.5 -66v-106q0 -58 -10.5 -98t-34.5 -65t-63 -36.5t-96 -11.5h-69q-54 0 -91 9t-60 33l-42 -42l-49 50l51 49q-13 39 -13 112v106zM218 148 q5 -19 18.5 -25.5t38.5 -6.5h20q22 0 34 5t18 17t7.5 31t1.5 47v65zM349 372q-6 15 -18.5 20.5t-35.5 5.5h-20q-22 0 -34.5 -5t-18.5 -17t-7.5 -31t-1.5 -47v-58z"/>
<glyph glyph-name="ugrave" horiz-adv-x="604" unicode="ù" d="M537 0h-158l2 73q-23 -44 -57.5 -62t-88.5 -18q-49 0 -80.5 10t-50 32t-25.5 57.5t-7 86.5v335h163v-298q0 -29 3 -46.5t11 -27t22 -12.5t37 -3q22 0 35.5 5.5t20 17.5t8.5 30.5t2 44.5v289h163v-514zM295 756l96 -181h-69l-153 181h126z"/>
<glyph glyph-name="uacute" horiz-adv-x="604" unicode="ú" d="M537 0h-158l2 73q-23 -44 -57.5 -62t-88.5 -18q-49 0 -80.5 10t-50 32t-25.5 57.5t-7 86.5v335h163v-298q0 -29 3 -46.5t11 -27t22 -12.5t37 -3q22 0 35.5 5.5t20 17.5t8.5 30.5t2 44.5v289h163v-514zM302 575h-69l96 181h126z"/>
<glyph glyph-name="ucircumflex" horiz-adv-x="604" unicode="û" d="M537 0h-158l2 73q-23 -44 -57.5 -62t-88.5 -18q-49 0 -80.5 10t-50 32t-25.5 57.5t-7 86.5v335h163v-298q0 -29 3 -46.5t11 -27t22 -12.5t37 -3q22 0 35.5 5.5t20 17.5t8.5 30.5t2 44.5v289h163v-514zM254 756h116l96 -181h-69l-85 106l-86 -106h-68z"/>
<glyph glyph-name="udieresis" horiz-adv-x="604" unicode="ü" d="M537 0h-158l2 73q-23 -44 -57.5 -62t-88.5 -18q-49 0 -80.5 10t-50 32t-25.5 57.5t-7 86.5v335h163v-298q0 -29 3 -46.5t11 -27t22 -12.5t37 -3q22 0 35.5 5.5t20 17.5t8.5 30.5t2 44.5v289h163v-514zM172 724h110v-120h-110v120zM342 724h110v-120h-110v120z"/>
<glyph glyph-name="yacute" horiz-adv-x="546" unicode="ý" d="M6 514h170l99 -382l86 382h175l-161 -581q-9 -33 -21.5 -58t-31.5 -41t-46.5 -24t-67.5 -8q-19 0 -41 2t-48 4v115h36q25 0 43.5 13.5t23.5 30.5l10 39h-83zM263 575h-69l96 181h126z"/>
<glyph glyph-name="thorn" horiz-adv-x="587" unicode="þ" d="M235 727v-277q34 71 139 71q86 0 126 -52t40 -159v-106q0 -107 -40 -159t-126 -52q-105 0 -139 70v-260h-163v924h163zM235 218q0 -24 2 -42t8 -30t18 -18t32 -6h19q20 0 32 5.5t18 17.5t8 30t2 43v79q0 24 -2 42t-8 30t-18 18t-32 6h-19q-20 0 -32 -6t-18 -18t-8 -30 t-2 -42v-79z"/>
<glyph glyph-name="dotlessi" horiz-adv-x="304" unicode="ı" d="M69 514h166v-514h-166v514z"/>
<glyph glyph-name="OE" horiz-adv-x="1011" unicode="Œ" d="M250 301q0 -44 3 -72t14 -45t32.5 -23.5t59.5 -6.5h36q37 0 59 6.5t33.5 23.5t14.5 45t3 72v125q0 43 -3 71.5t-14.5 45.5t-33.5 23.5t-59 6.5h-36q-35 0 -56 -6t-33 -22.5t-16 -45t-4 -73.5v-125zM521 84q-32 -54 -80.5 -73.5t-122.5 -19.5q-75 0 -126 16.5t-82.5 52.5 t-45 92.5t-13.5 135.5v151q0 78 14 134t44.5 92t80.5 53.5t122 17.5q73 0 122.5 -18.5t86.5 -65.5v75h433v-158h-263v-132h251v-136h-251v-144h271v-157h-441v84z"/>
<glyph glyph-name="oe" horiz-adv-x="894" unicode="œ" d="M213 216q0 -29 1.5 -48t8.5 -30.5t20.5 -16.5t36.5 -5h21q23 0 36.5 5t20 16.5t8.5 30.5t2 48v82q0 29 -2 48t-8.5 30.5t-20 16.5t-36.5 5h-22q-23 0 -36.5 -5t-20 -16.5t-8 -31t-1.5 -47.5v-82zM621 103q32 0 47 11t18 43h160q-4 -87 -52.5 -125.5t-148.5 -38.5h-82 q-51 0 -78.5 17t-38.5 59q-29 -76 -134 -76h-62q-57 0 -96 11.5t-63 36.5t-34.5 65t-10.5 98v106q0 58 10.5 98t34.5 65t63 36.5t96 11.5h62q53 0 85 -14.5t49 -52.5q30 67 134 67h65q57 0 96 -11.5t62.5 -36.5t34 -65t10.5 -98v-81h-318v-63q0 -36 15.5 -49.5t50.5 -13.5 h25zM597 418q-40 0 -53.5 -17.5t-13.5 -64.5v-21h158v18q0 49 -13 67t-53 18h-25z"/>
<glyph glyph-name="Scaron" horiz-adv-x="693" unicode="Š" d="M229 225v-7q0 -40 20.5 -55.5t74.5 -15.5h49q44 0 62 11.5t18 42.5v32q0 32 -19 40.5t-59 13.5l-158 17q-89 10 -129.5 55t-40.5 136v45q0 104 63 156q32 26 74 33t102 7h117q111 0 167.5 -44.5t56.5 -126.5v-50h-187v8q0 33 -15.5 45.5t-55.5 12.5h-45q-43 0 -62 -10 t-19 -39v-30q0 -30 20 -37.5t59 -11.5l144 -16q185 -21 185 -177v-70q0 -45 -14.5 -81.5t-41 -62.5t-65 -40.5t-86.5 -14.5h-159q-126 0 -184.5 43t-58.5 141v50h187zM261 969l86 -107l85 107h69l-96 -181h-116l-96 181h68z"/>
<glyph glyph-name="scaron" horiz-adv-x="571" unicode="š" d="M210 147q5 -31 20 -40.5t48 -9.5h22q37 0 52 10.5t15 39.5t-14.5 38.5t-54.5 13.5l-105 10q-69 7 -107.5 43.5t-38.5 89.5v41q0 67 48 102.5t144 35.5h101q175 0 175 -134v-11h-162q-1 42 -62 42h-21q-34 0 -48 -11.5t-14 -37.5q0 -23 11 -32t37 -11l116 -11 q80 -8 119 -38t39 -87v-44q0 -71 -48 -112t-136 -41h-109q-100 0 -148 36t-48 111v7h169zM200 756l86 -107l85 107h69l-96 -181h-116l-96 181h68z"/>
<glyph glyph-name="Ydieresis" horiz-adv-x="689" unicode="Ÿ" d="M218 727l129 -280l127 280h218l-249 -472v-255h-195v255l-250 472h220zM205 937h110v-120h-110v120zM375 937h110v-120h-110v120z"/>
<glyph glyph-name="circumflex" horiz-adv-x="500" unicode="ˆ" d="M192 756h116l96 -181h-69l-85 106l-86 -106h-68z"/>
<glyph glyph-name="caron" horiz-adv-x="500" unicode="ˇ" d="M164 756l86 -107l85 107h69l-96 -181h-116l-96 181h68z"/>
<glyph glyph-name="tilde" horiz-adv-x="500" unicode="˜" d="M405 732q-25 -119 -102 -119q-17 0 -36 6l-43 12l-16 4t-16 2q-31 0 -43 -39h-54q12 59 36 87t64 28q9 0 19.5 -1t22.5 -5l45 -13q7 -2 13.5 -2.5t13.5 -0.5q32 0 42 41h54z"/>
<glyph glyph-name="endash" horiz-adv-x="500" unicode="–" d="M0 317h500v-106h-500v106z"/>
<glyph glyph-name="emdash" horiz-adv-x="1000" unicode="—" d="M1000 317v-106h-1000v106h1000z"/>
<glyph glyph-name="quoteleft" horiz-adv-x="336" unicode="‘" d="M236 437h-150v178q0 112 139 112h11v-71h-6q-47 0 -47 -42q0 -10 1 -15h52v-162z"/>
<glyph glyph-name="quotesinglbase" horiz-adv-x="336" unicode="‚" d="M86 162h150v-179q0 -111 -139 -111h-11v70h6q46 0 46 43v6.5t-1 8.5h-51v162z"/>
<glyph glyph-name="quotedblleft" horiz-adv-x="565" unicode="“" d="M236 437h-150v178q0 112 139 112h11v-71h-6q-47 0 -47 -42q0 -10 1 -15h52v-162zM478 437h-149v178q0 112 138 112h11v-71h-6q-46 0 -46 -42v-6.5t1 -8.5h51v-162z"/>
<glyph glyph-name="quotedblright" horiz-adv-x="565" unicode="”" d="M86 727h150v-178q0 -112 -139 -112h-11v70h6q46 0 46 43v6.5t-1 8.5h-51v162zM328 727h150v-178q0 -112 -139 -112h-11v70h6q47 0 47 43q0 10 -1 15h-52v162z"/>
<glyph glyph-name="dagger" horiz-adv-x="512" unicode="†" d="M171 405h-146v151h146v171h169v-171h146v-151h-146v-405h-169v405z"/>
<glyph glyph-name="daggerdbl" horiz-adv-x="512" unicode="‡" d="M172 139h-127v139h127v176h-127v137h127v136h167v-136h127v-137h-127v-176h127v-139h-127v-139h-167v139z"/>
<glyph glyph-name="ellipsis" horiz-adv-x="1000" unicode="…" d="M87 174h160v-174h-160v174zM420 174h160v-174h-160v174zM754 174h160v-174h-160v174z"/>
<glyph glyph-name="perthousand" horiz-adv-x="1569" unicode="‰" d="M716 736h81l-418 -745h-82zM206 243q-46 0 -77.5 8.5t-50.5 28t-27 51t-8 77.5v163q0 46 8.5 77.5t27.5 51t50 28t77 8.5h47q46 0 77.5 -9t50.5 -28.5t27 -51t8 -76.5v-163q0 -46 -8 -77.5t-27 -51t-50.5 -28t-77.5 -8.5h-47zM238 355q16 0 25 4.5t13.5 14.5t5.5 26.5 t1 40.5v98q0 47 -7 66.5t-38 19.5h-16q-16 0 -25 -4.5t-13.5 -14.5t-5.5 -26.5t-1 -40.5v-98q0 -24 1 -40.5t5.5 -26.5t13.5 -14.5t25 -4.5h16zM840 -9q-46 0 -77.5 8.5t-50.5 28t-27 51t-8 77.5v163q0 46 8.5 77.5t27.5 51t50 28t77 8.5h47q46 0 77.5 -9t50.5 -28.5t27 -51 t8 -76.5v-163q0 -46 -8 -77.5t-27 -51t-50.5 -28t-77.5 -8.5h-47zM872 103q16 0 25 4.5t13.5 14t5.5 26t1 40.5v99q0 47 -7 66.5t-38 19.5h-16q-16 0 -25 -4.5t-13.5 -14.5t-5.5 -26.5t-1 -40.5v-99q0 -24 1 -40.5t5.5 -26.5t13.5 -14t25 -4h16zM1312 -9q-46 0 -77.5 8.5 t-50.5 28t-27 51t-8 77.5v163q0 46 8.5 77.5t27.5 51t50 28t77 8.5h47q46 0 77.5 -9t50.5 -28.5t27 -51t8 -76.5v-163q0 -46 -8 -77.5t-27 -51t-50.5 -28t-77.5 -8.5h-47zM1344 103q32 0 39 18.5t7 66.5v99q0 47 -7.5 66.5t-38.5 19.5h-16q-16 0 -25 -4.5t-13.5 -14.5 t-5.5 -26.5t-1 -40.5v-99q0 -24 1 -40.5t5.5 -26.5t13.5 -14t25 -4h16z"/>
<glyph glyph-name="guilsinglleft" horiz-adv-x="303" unicode="‹" d="M48 264l102 148h106l-100 -148l100 -148h-106z"/>
<glyph glyph-name="guilsinglright" horiz-adv-x="303" unicode="›" d="M256 264l-102 -148h-106l100 148l-100 148h106z"/>
<glyph glyph-name="trademark" horiz-adv-x="833" unicode="™" d="M338 714v-55h-82v-212h-73v212h-82v55h237zM488 714l62 -162l60 162h96v-267h-66v200l-75 -200h-30l-77 200v-200h-66v267h96z"/>
<glyph glyph-name="minus" horiz-adv-x="833" unicode="−" d="M709 348v-99h-585v99h585z"/>
</font>
</defs>
</svg>
