<?xml version="1.0" encoding="UTF-8" standalone="no"?>
<!DOCTYPE svg  PUBLIC '-//W3C//DTD SVG 1.1//EN'  'http://www.w3.org/Graphics/SVG/1.1/DTD/svg11.dtd'>
<svg xmlns="http://www.w3.org/2000/svg">
<defs>
<font id="Square721BT-RomanExtended" horiz-adv-x="782">
<font-face underline-position="-35" font-weight="400" descent="-200" panose-1="2 0 5 7 3 0 0 2 0 4" units-per-em="1000" unicode-range="U+0020-2212" bbox="-75 -236 1702 958" x-height="514" underline-thickness="52" font-family="Square721BT" ascent="800" cap-height="727"/>
<missing-glyph horiz-adv-x="1000"/>
<glyph glyph-name=".notdef" horiz-adv-x="1000"/>
<glyph glyph-name=".null" horiz-adv-x="0"/>
<glyph glyph-name="nonmarkingreturn" horiz-adv-x="1000"/>
<glyph glyph-name="space" horiz-adv-x="475" unicode=" "/>
<glyph glyph-name="space" horiz-adv-x="475" unicode=" "/>
<glyph glyph-name="exclam" horiz-adv-x="475" unicode="!" d="M181 132h113v-132h-113v132zM197 727h78l2 -514h-79z"/>
<glyph glyph-name="quotedbl" horiz-adv-x="288" unicode='&quot;' d="M103 430h-57v270h57v-270zM242 430h-58v270h58v-270z"/>
<glyph glyph-name="numbersign" horiz-adv-x="769" unicode="#" d="M369 481h127l82 230h70l-80 -230h150l-21 -60h-152l-46 -133h161l-21 -60h-162l-81 -229h-71l82 229h-129l-82 -229h-70l81 229h-156l21 60h156l47 133h-167l21 60h168l82 230h71zM346 421l-46 -133h128l47 133h-129z"/>
<glyph glyph-name="dollar" horiz-adv-x="949" unicode="$" d="M784 532q0 43 -11.5 67.5t-37.5 36.5t-68.5 14.5t-104.5 2.5h-59v-240h118q69 0 117 -4.5t82 -24.5q41 -24 55.5 -65t14.5 -107q0 -60 -16 -100.5t-52 -65t-93.5 -34.5t-140.5 -10h-85v-84h-70v84h-95q-144 0 -209 42.5t-65 143.5q0 11 0.5 23.5t1.5 29.5h87 q-1 -14 -1 -23.5v-16.5q0 -38 12 -61.5t38.5 -36.5t67 -18t97.5 -5h66v252h-105q-72 0 -122.5 9.5t-82.5 32t-46.5 59.5t-14.5 92q0 60 18 98.5t56 61t98 31.5t144 9h55v69h70v-69h41q101 0 170 -7t108 -38q50 -41 50 -137q0 -5 -0.5 -11t-0.5 -12h-87v12zM503 335v-255h58 q69 0 116.5 5t77.5 20t43 41.5t13 69.5q0 39 -9.5 62t-29.5 36t-52 17t-77 4h-140zM400 653q-71 0 -119.5 -3.5t-78 -15.5t-42.5 -36.5t-13 -66.5q0 -40 11.5 -64t36.5 -37t64.5 -17t94.5 -4h79v244h-33z"/>
<glyph glyph-name="percent" horiz-adv-x="1233" unicode="%" d="M233 269q-48 0 -80.5 7t-52.5 25.5t-28.5 51.5t-8.5 84v123q0 54 8 88t27 53.5t51.5 27t82.5 7.5h122q47 0 79.5 -6.5t52.5 -25.5t29 -52t9 -86v-127q0 -53 -9 -86.5t-29 -52t-52.5 -25t-79.5 -6.5h-121zM222 672q-29 0 -46.5 -6t-26.5 -20.5t-11.5 -37.5t-2.5 -56v-94 q0 -32 2.5 -55t11.5 -37.5t26.5 -21.5t46.5 -7h145q30 0 47 6.5t26 21t11.5 37.5t2.5 56v94q0 34 -2.5 57t-11.5 37t-26 20t-47 6h-145zM878 -10q-48 0 -80.5 7t-52 25.5t-28 51.5t-8.5 84v124q0 54 8 88t27 53.5t51.5 27t82.5 7.5h122q47 0 79.5 -7t52.5 -25.5t28.5 -52 t8.5 -86.5v-126q0 -53 -8.5 -86.5t-28.5 -52.5t-52.5 -25.5t-79.5 -6.5h-122zM867 393q-29 0 -46 -6t-26 -20.5t-11.5 -37.5t-2.5 -56v-94q0 -32 2.5 -55t11.5 -37.5t26 -21.5t46 -7h146q30 0 47 6.5t26 21t11.5 37.5t2.5 56v94q0 34 -2.5 57t-11.5 37t-26 20t-47 6h-146z M774 736l-251 -745h-67l252 745h66z"/>
<glyph glyph-name="ampersand" horiz-adv-x="1069" unicode="&amp;" d="M388 -9q-86 0 -147 8.5t-102 42.5q-70 58 -70 199q0 94 42 143t127 49h5q-45 29 -62 59.5t-17 79.5q0 51 14 83t43 50t74.5 24.5t108.5 6.5h279q179 0 179 -189v-16.5t-1 -16.5h-95q1 9 1 17v16q0 36 -6.5 57.5t-23 33t-43.5 15t-67 3.5h-252q-63 0 -91.5 -17.5 t-28.5 -66.5q0 -20 4 -33t11.5 -22t19 -16.5t26.5 -15.5l531 -289v166h88v-100q0 -38 -1 -65.5t-6 -44.5l145 -77l-30 -75l-145 75q-14 -27 -38 -43.5t-58.5 -25.5t-80 -12t-103.5 -3h-230zM309 388q-78 -1 -112 -36t-34 -113q0 -45 5 -74.5t24 -49.5q25 -26 63.5 -33 t95.5 -7h307q65 0 103.5 6.5t55.5 34.5z"/>
<glyph glyph-name="quotesingle" horiz-adv-x="149" unicode="&apos;" d="M103 430h-57v270h57v-270z"/>
<glyph glyph-name="parenleft" horiz-adv-x="363" unicode="(" d="M162 200q0 -42 4.5 -67.5t18.5 -39.5t39 -19t66 -5h37v-78h-41q-57 0 -97.5 10.5t-66 34t-37 61t-11.5 90.5v350q0 106 50.5 151.5t161.5 45.5h41v-79h-37q-41 0 -66 -5t-39 -19t-18.5 -39.5t-4.5 -67.5v-324z"/>
<glyph glyph-name="parenright" horiz-adv-x="363" unicode=")" d="M201 524q0 42 -4.5 67.5t-18.5 39.5t-39 19t-66 5h-37v79h41q111 0 161.5 -45.5t50.5 -151.5v-350q0 -53 -12 -90.5t-37.5 -61t-65.5 -34t-97 -10.5h-41v78h37q41 0 66 5t39 19t18.5 39.5t4.5 67.5v324z"/>
<glyph glyph-name="asterisk" horiz-adv-x="657" unicode="*" d="M550 498h-156v65h156v-65zM108 563h156v-65h-156v65zM247 737l77 -134l-56 -32l-77 134zM390 490l77 -134l-56 -33l-77 134zM389 571l-55 32l77 134l56 -32zM247 323l-56 33l77 134l56 -33z"/>
<glyph glyph-name="plus" horiz-adv-x="833" unicode="+" d="M446 327h263v-57h-263v-270h-58v270h-264v57h264v269h58v-269z"/>
<glyph glyph-name="comma" horiz-adv-x="475" unicode="," d="M181 132h113v-150q0 -94 -87 -94h-34v61h20q28 0 28 33v18h-40v132z"/>
<glyph glyph-name="hyphen" horiz-adv-x="440" unicode="-" d="M81 298h278v-73h-278v73z"/>
<glyph glyph-name="hyphen" horiz-adv-x="440" unicode="­" d="M81 298h278v-73h-278v73z"/>
<glyph glyph-name="period" horiz-adv-x="475" unicode="." d="M181 132h113v-132h-113v132z"/>
<glyph glyph-name="slash" horiz-adv-x="363" unicode="/" d="M411 736l-414 -829h-72l414 829h72z"/>
<glyph glyph-name="zero" horiz-adv-x="949" unicode="0" d="M366 -9q-83 0 -140.5 8.5t-96.5 42.5q-38 32 -52.5 84t-14.5 130v198q0 84 14 139.5t52 88.5q38 34 95.5 42.5t141.5 8.5h219q84 0 141.5 -8.5t95.5 -42.5q35 -31 50.5 -84.5t15.5 -134.5v-202q0 -81 -15.5 -134t-50.5 -85q-20 -17 -44.5 -27.5t-54.5 -15.5t-66.5 -6.5 t-79.5 -1.5h-210zM326 655q-57 0 -93.5 -11.5t-57.5 -42.5q-18 -26 -21.5 -61t-3.5 -81v-195q0 -46 3.5 -81t21.5 -61q21 -31 57.5 -42t93.5 -11h296q57 0 93.5 11t57.5 42q18 26 21.5 60.5t3.5 81.5v181q0 52 -3 89.5t-22 66.5q-20 31 -57 42.5t-94 11.5h-296z"/>
<glyph glyph-name="one" horiz-adv-x="949" unicode="1" d="M521 634l-269 -215l-50 58l301 250h103v-727h-85v634z"/>
<glyph glyph-name="two" horiz-adv-x="949" unicode="2" d="M79 0v147q0 55 15 92t46.5 60.5t78.5 34.5t112 16l316 22q39 3 65.5 10.5t42 22.5t22.5 38t7 56q0 48 -5 77.5t-25 45.5q-30 25 -84 33.5t-135 8.5h-146q-61 0 -103 -6.5t-67.5 -24t-36.5 -47.5t-11 -77v-47h-87v87q0 54 16 90t50 57.5t86 30.5t124 9h216q86 0 144 -10 t93 -36.5t50 -72t15 -116.5q0 -57 -13 -95.5t-40.5 -63.5t-72 -37.5t-107.5 -16.5l-310 -23q-29 -2 -52 -4.5t-41 -7.5t-32 -13.5t-23 -22.5q-17 -27 -17 -102q0 -8 0.5 -16.5t0.5 -17.5h715v-81h-807z"/>
<glyph glyph-name="three" horiz-adv-x="949" unicode="3" d="M381 331v81h245q48 0 78.5 4.5t47.5 17.5t23 36.5t6 61.5q0 45 -7.5 68t-34.5 37q-11 5 -54.5 11.5t-118.5 6.5h-241q-46 0 -77 -6t-49.5 -20t-26.5 -38.5t-8 -60.5q0 -5 0.5 -11t0.5 -12h-90v50q0 52 16.5 86t50 53.5t85.5 27t123 7.5h243q79 0 132.5 -8t86.5 -28.5 t47 -56t14 -91.5q0 -45 -5 -77t-18.5 -52t-38.5 -29.5t-65 -10.5v-6h6q72 0 101.5 -37t29.5 -121q0 -61 -6 -101.5t-30 -66.5q-51 -55 -227 -55h-300q-69 0 -117 10t-79 33.5t-45 60.5t-14 91q0 11 0.5 22t1.5 23h92v-19q0 -76 22 -102q23 -26 59 -31t88 -5h297q52 0 86 3 t54 20q19 17 23 45t4 73q0 33 -5 55.5t-18 36t-35 19t-55 5.5h-298z"/>
<glyph glyph-name="four" horiz-adv-x="949" unicode="4" d="M685 151h-634v111l596 465h119v-497h121v-79h-121v-151h-81v151zM685 657l-545 -427h545v427z"/>
<glyph glyph-name="five" horiz-adv-x="949" unicode="5" d="M164 226v-18q0 -41 9 -67.5t29.5 -41.5t53 -20.5t79.5 -5.5h283q52 0 84.5 7.5t51.5 26.5t26 49.5t7 77.5q0 27 -0.5 49.5t-4 40.5t-11.5 32.5t-22 26.5q-27 23 -69.5 28t-105.5 5h-215q-86 0 -129 -14.5t-50 -55.5h-84v381h733v-81h-649v-234q22 46 60 64.5t101 18.5 h268q76 0 127 -10.5t81.5 -34.5t43.5 -63t13 -96v-102q0 -62 -16.5 -101t-51.5 -60.5t-90 -29t-133 -7.5h-314q-101 0 -155 59q-14 15 -22 31t-12 32.5t-4.5 35t-0.5 38.5v39h89z"/>
<glyph glyph-name="six" horiz-adv-x="949" unicode="6" d="M571 76q71 0 115.5 5.5t64.5 21.5q23 18 28.5 49.5t5.5 81.5q0 24 -2.5 42t-9 31t-18 21.5t-30.5 14.5q-12 4 -55 9t-114 5h-160q-71 0 -115.5 -5.5t-64.5 -21.5q-23 -18 -28.5 -50t-5.5 -81q0 -24 2.5 -42t9 -30.5t18 -21.5t30.5 -15q12 -4 55 -9t114 -5h160zM180 345 q10 29 24.5 47t36 27.5t50.5 13t67 3.5h289q67 0 111.5 -11t71 -36t37 -65t10.5 -97q0 -36 -2 -65t-9.5 -52t-21.5 -42t-38 -35q-34 -23 -89 -32.5t-133 -9.5h-191q-80 0 -139.5 7.5t-105.5 41.5q-23 17 -36 38.5t-19 48.5t-7 59t-1 71v280q0 105 65 152t200 47h198 q83 0 141.5 -4.5t94.5 -21.5q41 -19 62 -52t21 -76v-61h-88q1 7 1 13v12q0 36 -11 58t-35.5 33.5t-63.5 15t-96 3.5h-221q-53 0 -86.5 -7.5t-52.5 -25t-26.5 -45t-7.5 -66.5v-167z"/>
<glyph glyph-name="seven" horiz-adv-x="949" unicode="7" d="M800 646h-728v81h817v-113l-530 -614h-123z"/>
<glyph glyph-name="eight" horiz-adv-x="949" unicode="8" d="M331 339q-49 0 -81 -5t-51.5 -19.5t-27.5 -40.5t-8 -67q0 -42 7.5 -68.5t28 -41.5t56 -20.5t91.5 -5.5h257q56 0 91.5 5.5t56 20.5t28 41.5t7.5 68.5q0 41 -8 67t-27.5 40.5t-51.5 19.5t-81 5h-287zM325 656q-45 0 -75 -5.5t-47.5 -20t-25 -40t-7.5 -64.5q0 -62 33 -86.5 t111 -24.5h320q78 0 111.5 24.5t33.5 86.5q0 39 -7.5 64.5t-25.5 40t-48 20t-75 5.5h-298zM644 736q61 0 103.5 -10.5t69 -33.5t38.5 -60.5t12 -91.5q0 -79 -30 -117t-100 -42q42 -5 69 -17t42.5 -34t22 -54.5t6.5 -78.5q0 -61 -12.5 -100.5t-41 -63t-74 -33t-112.5 -9.5 h-325q-67 0 -112.5 9.5t-74 33t-41 63t-12.5 100.5q0 46 6.5 78.5t22 54.5t42.5 34t69 17q-70 4 -100 42t-30 117q0 54 12 91.5t38.5 60.5t69 33.5t103.5 10.5h339z"/>
<glyph glyph-name="nine" horiz-adv-x="949" unicode="9" d="M384 651q-71 0 -115.5 -5.5t-64.5 -21.5q-23 -18 -28.5 -49.5t-5.5 -81.5q0 -24 2.5 -42t9 -31t18 -21.5t30.5 -14.5q12 -4 55 -9t114 -5h160q71 0 115.5 5.5t64.5 21.5q23 18 28.5 50t5.5 81q0 48 -11.5 72.5t-48.5 36.5q-12 4 -55 9t-114 5h-160zM775 381 q-10 -29 -24.5 -46.5t-36 -27.5t-50.5 -13t-67 -3h-288q-68 0 -112.5 11t-70.5 36t-37 65t-11 97q0 36 2 65t9.5 52t21.5 42t38 35q34 23 89 32.5t133 9.5h191q80 0 139.5 -7.5t105.5 -41.5q23 -17 36 -38.5t19 -48.5t7 -59t1 -71v-280q0 -105 -65 -152t-200 -47h-198 q-83 0 -141.5 4.5t-94.5 21.5q-41 19 -62 52t-21 76v61h88q-1 -7 -1 -13v-12q0 -36 11 -58t35.5 -33.5t63.5 -15t96 -3.5h221q52 0 86 7.5t53 25t26.5 45t7.5 66.5v166z"/>
<glyph glyph-name="colon" horiz-adv-x="475" unicode=":" d="M181 132h113v-132h-113v132zM181 514h113v-132h-113v132z"/>
<glyph glyph-name="less" horiz-adv-x="833" unicode="&lt;" d="M216 298l488 -198v-63l-575 236v50l575 236v-62z"/>
<glyph glyph-name="equal" horiz-adv-x="833" unicode="=" d="M709 363h-585v57h585v-57zM709 176h-585v57h585v-57z"/>
<glyph glyph-name="greater" horiz-adv-x="833" unicode="&gt;" d="M704 273l-575 -236v63l488 198l-488 199v62l575 -236v-50z"/>
<glyph glyph-name="question" horiz-adv-x="779" unicode="?" d="M400 0h-113v132h113v-132zM306 272q0 53 33.5 80t110.5 39l111 18q48 8 66 36.5t18 92.5q0 43 -10.5 67.5t-35 36.5t-64.5 15t-99 3h-144q-46 0 -76.5 -6t-48.5 -19.5t-25 -36.5t-7 -57v-45h-83v99q0 67 51 104t149 37h226q70 0 118 -10.5t77 -34.5t42 -64t13 -99 q0 -92 -35.5 -139.5t-125.5 -61.5l-99 -15q-44 -7 -63 -21t-19 -52v-10h-80v43z"/>
<glyph glyph-name="at" horiz-adv-x="1000" unicode="@" d="M616 349q-8 45 -35 69t-66 24q-36 0 -66.5 -17.5t-53 -47.5t-35 -71t-12.5 -88q0 -54 25 -83t71 -29q24 0 47 9t42 25t33 39t21 52zM659 471h54l-69 -277q-6 -24 -6 -39q0 -44 54 -44q20 0 46.5 10.5t52.5 32.5q42 36 67.5 94t25.5 126q0 64 -24.5 117t-70 91t-110 59 t-144.5 21q-165 0 -279 -100q-69 -60 -103.5 -138.5t-34.5 -172.5q0 -85 29 -148.5t92 -112.5q48 -38 115.5 -60t145.5 -22q84 0 163 23.5t145 68.5l22 -32q-144 -108 -322 -108q-188 0 -305 90q-148 114 -148 305q0 81 25 151.5t73 130.5q71 86 169.5 130.5t222.5 44.5 q83 0 153.5 -22t119.5 -60q63 -49 95.5 -112.5t32.5 -137.5q0 -85 -31 -152t-89 -114q-69 -55 -152 -55q-97 0 -97 76q0 2 0.5 5t0.5 6q-25 -43 -62 -65t-83 -22q-75 0 -114 41.5t-39 120.5q0 57 18 106t49.5 85t73 56.5t88.5 20.5q89 0 122 -77z"/>
<glyph glyph-name="A" horiz-adv-x="963" unicode="A" d="M421 727h120l423 -727h-96l-95 160h-578l-93 -160h-103zM729 237l-247 418l-243 -418h490z"/>
<glyph glyph-name="B" horiz-adv-x="965" unicode="B" d="M179 337v-254h476q52 0 85 4.5t52 17.5t26.5 36.5t7.5 60.5q0 42 -6.5 68.5t-25 41.5t-52 20t-87.5 5h-476zM769 388q78 -5 111 -38t33 -104v-77q0 -55 -18.5 -88.5t-57.5 -51.5t-100 -23.5t-146 -5.5h-502v727h519q77 0 131 -5.5t88 -26.5q38 -24 50 -60t12 -92 q0 -35 -5 -60.5t-18.5 -44t-36.5 -30.5t-60 -20zM179 422h414q60 0 100 2t64 12.5t34 33t10 63.5q0 38 -6.5 61t-24.5 34q-23 14 -63.5 17t-99.5 3h-428v-226z"/>
<glyph glyph-name="C" horiz-adv-x="993" unicode="C" d="M390 -9q-43 0 -79 1.5t-67 6.5t-56 15.5t-45 27.5q-39 33 -54 85.5t-15 130.5v198q0 85 15 140.5t54 88.5t99 42t147 9h229q82 0 140 -8.5t94 -31.5t52.5 -62.5t16.5 -102.5v-18.5t-1 -20.5h-82v11q0 43 -9 72.5t-29.5 47.5t-53 25.5t-78.5 7.5h-315q-59 0 -96.5 -11 t-59.5 -42q-19 -26 -22.5 -60.5t-3.5 -80.5v-193q0 -46 3.5 -80.5t22.5 -60.5q22 -31 59.5 -42t96.5 -11h314q49 0 83 7t55 24.5t30.5 47.5t9.5 75v20h83q0 -10 0.5 -19t0.5 -17q0 -63 -12.5 -105.5t-45.5 -70.5q-36 -31 -98 -38.5t-155 -7.5h-228z"/>
<glyph glyph-name="D" horiz-adv-x="1038" unicode="D" d="M636 727q85 0 146.5 -8t104.5 -39q48 -34 66.5 -86.5t18.5 -131.5v-197q0 -79 -18.5 -131.5t-66.5 -86.5q-43 -31 -104.5 -39t-146.5 -8h-547v727h547zM179 646v-565h515q51 0 86 9t56.5 30t31.5 54.5t10 82.5v212q0 51 -8.5 85t-29.5 54.5t-56.5 29t-89.5 8.5h-515z"/>
<glyph glyph-name="E" horiz-adv-x="850" unicode="E" d="M90 727h716v-81h-628v-228h602v-81h-602v-256h628v-81h-716v727z"/>
<glyph glyph-name="F" horiz-adv-x="818" unicode="F" d="M89 727h687v-81h-596v-232h573v-79h-573v-335h-91v727z"/>
<glyph glyph-name="G" horiz-adv-x="1032" unicode="G" d="M697 75q55 0 89 8t52.5 27.5t25 53.5t6.5 85v37h-373v81h464v-118q0 -36 -1 -66.5t-6.5 -57t-17 -48.5t-33.5 -40q-36 -31 -98 -38.5t-155 -7.5h-260q-43 0 -79 1.5t-67 7t-56 16t-45 27.5q-39 33 -54 85t-15 130v198q0 85 15 140.5t54 88.5t99 42t147 9h261 q82 0 140 -8.5t94.5 -31.5t53 -62.5t16.5 -102.5v-18.5t-1 -20.5h-83v11q0 43 -9 72.5t-29.5 47.5t-53 25.5t-78.5 7.5h-347q-59 0 -96 -10.5t-60 -42.5q-19 -26 -22.5 -60.5t-3.5 -80.5v-193q0 -46 3.5 -80.5t22.5 -60.5q22 -31 59.5 -42t96.5 -11h344z"/>
<glyph glyph-name="H" horiz-adv-x="1017" unicode="H" d="M89 0v727h90v-313h659v313h90v-727h-90v335h-659v-335h-90z"/>
<glyph glyph-name="I" horiz-adv-x="277" unicode="I" d="M91 0v727h90v-727h-90z"/>
<glyph glyph-name="J" horiz-adv-x="773" unicode="J" d="M116 265v-64q0 -36 5.5 -60.5t20 -39.5t40.5 -21.5t67 -6.5h156q66 0 106.5 6.5t58.5 23.5q20 19 24 52t4 83v489h90v-541q0 -55 -12 -92.5t-38.5 -60t-68 -32.5t-100.5 -10h-211q-32 0 -58.5 1t-49 6t-42 15t-36.5 27t-26 35t-13.5 38t-5.5 42t-1 46v64h90z"/>
<glyph glyph-name="K" horiz-adv-x="919" unicode="K" d="M89 0v727h92v-309h126l453 309h156l-515 -349l550 -378h-160l-484 339h-126v-339h-92z"/>
<glyph glyph-name="L" horiz-adv-x="767" unicode="L" d="M89 727h90v-647h565v-80h-655v727z"/>
<glyph glyph-name="M" horiz-adv-x="1316" unicode="M" d="M89 0v727h130l437 -632l437 632h134v-727h-88v640l-447 -640h-68l-447 640v-640h-88z"/>
<glyph glyph-name="N" horiz-adv-x="1067" unicode="N" d="M89 0v727h142l657 -644v644h90v-727h-132l-667 654v-654h-90z"/>
<glyph glyph-name="O" horiz-adv-x="1062" unicode="O" d="M367 656q-63 0 -103.5 -10.5t-64.5 -42.5q-20 -27 -24 -61.5t-4 -80.5v-191q0 -46 4 -80.5t24 -61.5q24 -32 64.5 -42.5t103.5 -10.5h329q63 0 103.5 10.5t64.5 42.5q19 25 23 57t4 74v213q0 42 -4 74t-23 57q-24 32 -64.5 42.5t-103.5 10.5h-329zM411 -9q-92 0 -156 8.5 t-107 42.5q-42 33 -58 85.5t-16 130.5v198q0 85 15.5 140.5t57.5 88.5t106 42t157 9h243q93 0 157 -9t106 -42q39 -31 56 -85t17 -135v-203q0 -81 -16.5 -134.5t-56.5 -85.5q-42 -34 -106 -42.5t-157 -8.5h-242z"/>
<glyph glyph-name="P" horiz-adv-x="926" unicode="P" d="M620 369q50 0 81.5 5.5t49.5 19t24.5 37t6.5 60.5v35q0 37 -6.5 60.5t-24.5 37t-49.5 19t-81.5 5.5h-441v-279h441zM89 0v727h505q76 0 130 -6t88.5 -24.5t50.5 -52.5t16 -90v-95q0 -56 -16 -90t-50.5 -52t-88.5 -24t-130 -6h-415v-287h-90z"/>
<glyph glyph-name="Q" horiz-adv-x="1062" unicode="Q" d="M410 -9q-91 0 -155 8.5t-107 42.5q-42 32 -58 84t-16 130v198q0 85 15.5 140t57.5 88t105.5 42t156.5 9h244q93 0 156.5 -9t105.5 -42q39 -31 56 -84.5t17 -134.5v-197q0 -62 -13 -118l80 -50l-40 -69l-70 47q-19 -28 -46 -45t-63 -26t-81.5 -11.5t-101.5 -2.5h-243z M366 653q-63 0 -103.5 -10.5t-64.5 -42.5q-19 -25 -23 -56.5t-4 -73.5v-213q0 -42 4 -73.5t23 -56.5q26 -35 71 -44t114 -9h313q66 0 107 11t63 42l-285 185l42 69l266 -179q1 23 1.5 42.5t0.5 36.5v178q0 45 -4 79.5t-24 61.5q-24 32 -64 42.5t-103 10.5h-330z"/>
<glyph glyph-name="R" horiz-adv-x="964" unicode="R" d="M89 0v727h519q77 0 131 -6t88.5 -25t50.5 -53t16 -89v-87q0 -32 -6 -56t-20.5 -41t-39.5 -28.5t-62 -19.5q120 -14 120 -142v-180h-90v162q0 43 -10 67.5t-31 37t-54.5 15.5t-80.5 3h-441v-285h-90zM179 648v-279h458q48 0 79.5 5t50 18.5t25.5 37.5t7 61v35q0 37 -7 61 t-25.5 37.5t-50 18.5t-79.5 5h-458z"/>
<glyph glyph-name="S" horiz-adv-x="954" unicode="S" d="M162 237q-1 -14 -1.5 -24.5t-0.5 -18.5q0 -37 12 -61t38 -37.5t66.5 -18.5t96.5 -5h190q66 0 111.5 5t73.5 20t40.5 42.5t12.5 73.5q0 39 -9 62.5t-28.5 36t-49.5 17t-73 4.5h-307q-71 0 -121 10t-81.5 33.5t-46 62t-14.5 94.5q0 61 18 100t56 62t97 32t142 9h165 q101 0 168 -7t106 -39q26 -23 37.5 -58t11.5 -86v-21h-87v11q0 39 -9 63t-30 37t-55.5 17.5t-85.5 4.5h-248q-54 0 -90.5 -5t-59 -18.5t-32.5 -37t-10 -60.5q0 -40 11 -64.5t35 -37.5t61.5 -17t90.5 -4h261q69 0 117.5 -5t80.5 -24q41 -25 55 -67.5t14 -109.5 q0 -63 -16 -104.5t-52 -66.5t-93 -35.5t-139 -10.5h-247q-71 0 -122.5 10t-84.5 33t-48.5 59t-15.5 89q0 12 0.5 25.5t1.5 29.5h87z"/>
<glyph glyph-name="T" horiz-adv-x="859" unicode="T" d="M384 0v646h-360v81h810v-81h-360v-646h-90z"/>
<glyph glyph-name="U" horiz-adv-x="1009" unicode="U" d="M394 -9q-84 0 -143 8.5t-99 42.5q-38 32 -53 84t-15 130v471h93v-471q0 -41 3.5 -72t21.5 -57q21 -31 58.5 -42t94.5 -11h299q57 0 94.5 11t58.5 42q18 26 21.5 57t3.5 72v471h93v-466q0 -81 -15.5 -134t-51.5 -85q-38 -34 -97 -42.5t-145 -8.5h-222z"/>
<glyph glyph-name="V" horiz-adv-x="921" unicode="V" d="M-1 727h102l358 -650l360 650h103l-404 -727h-115z"/>
<glyph glyph-name="W" horiz-adv-x="1296" unicode="W" d="M0 727h94l252 -651l242 651h120l240 -651l254 651h95l-283 -727h-129l-237 634l-237 -634h-129z"/>
<glyph glyph-name="X" horiz-adv-x="943" unicode="X" d="M388 388l-348 339h127l302 -297l309 297h123l-347 -339l394 -388h-128l-348 347l-347 -347h-130z"/>
<glyph glyph-name="Y" horiz-adv-x="921" unicode="Y" d="M413 304l-413 423h129l332 -341l332 341h129l-413 -423v-304h-96v304z"/>
<glyph glyph-name="Z" horiz-adv-x="914" unicode="Z" d="M44 81l672 567h-647v79h779v-79l-672 -567h682v-81h-814v81z"/>
<glyph glyph-name="bracketleft" horiz-adv-x="363" unicode="[" d="M327 646h-164v-567h164v-79h-250v725h250v-79z"/>
<glyph glyph-name="backslash" horiz-adv-x="363" unicode="\" d="M438 -93h-72l-413 829h72z"/>
<glyph glyph-name="bracketright" horiz-adv-x="363" unicode="]" d="M37 79h164v567h-164v79h250v-725h-250v79z"/>
<glyph glyph-name="asciicircum" horiz-adv-x="1000" unicode="^" d="M793 440h-77l-216 214l-216 -214h-78l254 272h79z"/>
<glyph glyph-name="underscore" horiz-adv-x="500" unicode="_" d="M500 -236h-500v58h500v-58z"/>
<glyph glyph-name="grave" horiz-adv-x="500" unicode="`" d="M264 574l-168 133h121l114 -133h-67z"/>
<glyph glyph-name="a" horiz-adv-x="757" unicode="a" d="M453 521q119 0 175 -45t56 -144v-332h-78v68q-23 -46 -66.5 -60.5t-114.5 -14.5h-137q-66 0 -111.5 9t-73.5 28.5t-40.5 51.5t-12.5 78q0 44 12.5 74.5t41 49t73 27t109.5 8.5h144q62 0 105 -14t71 -47v70q0 35 -9 57.5t-29 35.5t-51.5 18t-76.5 5h-122q-41 0 -69.5 -2 t-45.5 -9.5t-24.5 -21t-7.5 -37.5v-15h-86v14q0 80 52.5 114t167.5 34h148zM601 181q0 43 -41 55.5t-128 12.5h-123q-48 0 -80.5 -2.5t-52.5 -11.5t-28.5 -26t-8.5 -45q0 -32 7.5 -51t26.5 -28.5t52 -12.5t84 -3h123q87 0 128 12t41 55v45z"/>
<glyph glyph-name="b" d="M457 69q54 0 89.5 6.5t57 24.5t30 49t8.5 80v61q0 48 -9 78t-30 47.5t-56.5 24t-89.5 6.5h-114q-54 0 -89.5 -6.5t-56.5 -24t-30 -47.5t-9 -78v-61q0 -49 8.5 -80t30 -49t57 -24.5t89.5 -6.5h114zM340 -7q-38 0 -67.5 4t-53 14t-40.5 27.5t-29 45.5v-84h-70v727h79v-278 q27 38 65.5 55t95.5 17h158q66 0 112.5 -12.5t76.5 -39t43.5 -68.5t13.5 -100v-81q0 -60 -13 -103t-42.5 -70.5t-76.5 -40.5t-114 -13h-138z" unicode="b"/>
<glyph glyph-name="c" horiz-adv-x="735" unicode="c" d="M600 336q0 37 -9 58.5t-29 33t-51.5 15t-76.5 3.5h-120q-84 0 -125.5 -24.5t-41.5 -91.5v-119q0 -43 9 -70.5t29 -43.5t52 -22t79 -6h122q45 0 77 5t52.5 18.5t29.5 36.5t9 59v6h77v-14q0 -99 -54 -143t-172 -44h-147q-125 0 -185 48t-60 151v130q0 103 60 151t185 48 h122q63 0 109 -9t76 -29.5t44.5 -53t14.5 -80.5v-13h-76z"/>
<glyph glyph-name="d" d="M306 -7q-68 0 -114.5 13t-76 40.5t-42.5 70.5t-13 103v81q0 58 13.5 100t43.5 68.5t76.5 39t112.5 12.5h158q57 0 95.5 -17t65.5 -55v278h79v-727h-71v84q-12 -28 -29 -45.5t-40.5 -27.5t-53.5 -14t-67 -4h-137zM441 69q54 0 89.5 6.5t57 24.5t30 49t8.5 80v61 q0 48 -9 78t-30 47.5t-56.5 24t-89.5 6.5h-115q-54 0 -89.5 -6.5t-56.5 -24t-30 -47.5t-9 -78v-61q0 -49 8.5 -80t30 -49t57 -24.5t89.5 -6.5h115z" unicode="d"/>
<glyph glyph-name="e" horiz-adv-x="766" unicode="e" d="M624 313v12q0 38 -10 62t-31 37t-54 17.5t-80 4.5h-127q-46 0 -79 -6.5t-54.5 -21.5t-31.5 -40.5t-10 -64.5h477zM451 521q71 0 120.5 -12t80 -40.5t44.5 -74.5t14 -115v-19.5t-1 -20.5h-562v-28q0 -40 9 -67.5t29.5 -45t54.5 -25.5t84 -8h134q85 0 126 21t41 66v5h85 v-13q0 -74 -58.5 -112.5t-174.5 -38.5h-154q-70 0 -119 12.5t-80 39.5t-45 69t-14 101v82q0 60 14 102.5t45 69.5t80 39.5t119 12.5h128z"/>
<glyph glyph-name="f" horiz-adv-x="429" unicode="f" d="M123 441h-108v73h108v37q0 93 45 134.5t143 41.5h131v-74h-128q-58 0 -84 -19t-26 -68v-52h238v-73h-238v-441h-81v441z"/>
<glyph glyph-name="g" horiz-adv-x="775" unicode="g" d="M703 9q0 -191 -244 -191h-151q-119 0 -177 41.5t-61 130.5h81q1 -55 41.5 -74t129.5 -19h128q48 0 81 5t54 18.5t30 36.5t9 59v81q-16 -23 -32 -37t-34.5 -21.5t-40.5 -10.5t-49 -3h-160q-65 0 -111 12.5t-75.5 38.5t-43 67.5t-13.5 98.5v62q0 57 14 98.5t44 67.5 t76.5 38.5t111.5 12.5h113q39 0 71 -2t57 -10.5t43.5 -24.5t32.5 -43v73h75v-505zM450 100q47 0 80.5 5.5t54.5 20t31 39.5t10 65v86q0 40 -10 65t-31.5 39.5t-55 20t-79.5 5.5h-128q-47 0 -80.5 -5.5t-54.5 -20t-31 -39.5t-10 -65v-86q0 -40 10 -65t31 -39.5t54.5 -20 t80.5 -5.5h128z"/>
<glyph glyph-name="h" d="M80 727h81v-308q31 58 93.5 80t167.5 22q76 0 130 -9t88 -30.5t50 -57t16 -89.5v-335h-81v313q0 37 -6 60.5t-28 39.5q-20 15 -68 23.5t-124 8.5q-62 0 -107 -7t-74 -23.5t-43 -42.5t-14 -65v-307h-81v727z" unicode="h"/>
<glyph glyph-name="i" horiz-adv-x="250" unicode="i" d="M84 514h82v-514h-82v514zM84 727h82v-97h-82v97z"/>
<glyph glyph-name="j" horiz-adv-x="259" unicode="j" d="M176 -43q0 -39 -6 -64.5t-21.5 -40.5t-42 -21t-68.5 -6q-8 0 -15.5 0.5t-15.5 0.5v75h9q24 0 39.5 2.5t24 9.5t12 19.5t3.5 32.5v549h81v-557zM95 727h81v-97h-81v97z"/>
<glyph glyph-name="k" horiz-adv-x="685" unicode="k" d="M175 326h53l285 188h127l-343 -225l406 -289h-125l-352 248h-51v-248h-81v727h81v-401z"/>
<glyph glyph-name="l" horiz-adv-x="269" unicode="l" d="M175 0h-81v727h81v-727z"/>
<glyph glyph-name="m" horiz-adv-x="1213" unicode="m" d="M80 0v514h79v-65q25 44 81 58t150 14q50 0 89.5 -4t69 -14.5t50 -28.5t32.5 -47q26 50 81.5 72.5t143.5 22.5q75 0 128.5 -9.5t87 -31.5t49.5 -58t16 -88v-335h-75v313q0 36 -5 60.5t-28 40.5q-20 14 -62 22t-107 8q-106 0 -155 -28t-49 -97v-319h-78v320q0 37 -8 61.5 t-29.5 38.5t-59.5 20t-98 6q-117 0 -170 -30.5t-53 -103.5v-312h-80z"/>
<glyph glyph-name="n" d="M80 514h81v-95q31 58 93.5 80t167.5 22q76 0 130 -9t88 -30.5t50 -57t16 -89.5v-335h-81v313q0 35 -5.5 59t-28.5 41q-21 15 -69 23.5t-123 8.5q-62 0 -107 -7t-74 -23.5t-43 -42.5t-14 -65v-307h-81v514z" unicode="n"/>
<glyph glyph-name="o" horiz-adv-x="799" unicode="o" d="M466 69q54 0 90 6.5t57 24.5t30 49t9 80v61q0 48 -9 78t-30.5 47.5t-57 24t-89.5 6.5h-134q-54 0 -89.5 -6.5t-56.5 -24t-30 -47.5t-9 -78v-61q0 -49 8.5 -80t30 -49t57 -24.5t89.5 -6.5h134zM311 -7q-68 0 -114.5 13t-76 40.5t-42.5 70.5t-13 103v81q0 58 13.5 100 t43.5 68.5t76.5 39t112.5 12.5h177q66 0 112.5 -12.5t76.5 -39t43.5 -68.5t13.5 -100v-81q0 -60 -13 -103t-42.5 -70.5t-76.5 -40.5t-114 -13h-177z"/>
<glyph glyph-name="p" d="M478 520q67 0 114 -13t76.5 -40.5t42.5 -70.5t13 -103v-81q0 -59 -13.5 -100.5t-43.5 -68t-76.5 -39t-112.5 -12.5h-158q-57 0 -95.5 17t-65.5 55v-238h-79v687h70v-84q12 28 29 45.5t40.5 27.5t53 14t67.5 4h138zM343 444q-54 0 -89.5 -6.5t-57 -24.5t-30 -49t-8.5 -80 v-61q0 -48 9 -78t30 -47.5t56.5 -24t89.5 -6.5h114q54 0 89.5 6.5t56.5 24t30 47.5t9 78v61q0 49 -8.5 80t-30 49t-57 24.5t-89.5 6.5h-114z" unicode="p"/>
<glyph glyph-name="q" d="M326 444q-54 0 -89.5 -6.5t-57 -24.5t-30 -49t-8.5 -80v-61q0 -48 9 -78t30 -47.5t56.5 -24t89.5 -6.5h114q54 0 89.5 6.5t56.5 24t30 47.5t9 78v61q0 49 -8.5 80t-30 49t-57 24.5t-89.5 6.5h-114zM443 520q37 0 67 -4t53 -14t40 -27.5t29 -45.5v84h71v-687h-79v238 q-27 -38 -65.5 -55t-95.5 -17h-158q-66 0 -112.5 12.5t-76.5 39t-43.5 68t-13.5 100.5v81q0 60 13 103t42.5 70.5t76 40.5t114.5 13h138z" unicode="q"/>
<glyph glyph-name="r" horiz-adv-x="641" unicode="r" d="M80 509h79v-76q14 27 33.5 44.5t45.5 27t59.5 13t75.5 3.5q63 0 107.5 -8.5t73 -28.5t42 -53t13.5 -81v-68h-76v48q0 35 -8 57.5t-28.5 35t-55 17.5t-88.5 5q-98 0 -144 -29t-46 -97v-319h-83v509z"/>
<glyph glyph-name="s" d="M295 228q-64 0 -106.5 5t-68.5 20t-37 43.5t-11 75.5q0 41 12 69.5t38.5 46t69 25t103.5 7.5h146q118 0 175.5 -28.5t57.5 -95.5v-34h-78v21q0 20 -10.5 32.5t-33 19t-57.5 8.5t-83 2h-80q-53 0 -87.5 -2t-54.5 -9t-28.5 -22t-8.5 -40q0 -26 8.5 -41t29 -22.5t55 -9.5 t86.5 -2l140 1q69 0 114.5 -5.5t72.5 -33.5q26 -26 30.5 -57.5t4.5 -74.5q0 -41 -14 -67t-42.5 -41t-72 -21t-101.5 -6h-207q-50 0 -85 9t-57.5 31t-33 57t-11.5 88h74v-9q0 -34 6.5 -53.5t22 -29.5t40.5 -13t62 -3h230q33 0 53.5 3t32 12t15.5 25.5t4 43.5q0 42 -21.5 58.5 t-82.5 16.5h-211z" unicode="s"/>
<glyph glyph-name="t" horiz-adv-x="584" unicode="t" d="M534 514v-69h-339v-270q0 -38 8.5 -60t27 -33t47.5 -14t69 -3q43 0 69 5t40 17t19 32t5 50v66h71v-66q0 -50 -12 -83.5t-38 -54t-69 -29.5t-104 -9q-60 0 -102.5 11t-71.5 40q-27 26 -32 59t-5 77v265h-110v69h110v118h79v-118h338z"/>
<glyph glyph-name="u" d="M702 0h-78v97q-17 -31 -40 -51t-53 -32t-69 -16.5t-87 -4.5q-79 0 -135.5 9.5t-93 31.5t-53.5 57.5t-17 87.5v335h81v-310q0 -38 5.5 -62t28.5 -41q44 -32 198 -32q118 0 174 29t56 96v320h83v-514z" unicode="u"/>
<glyph glyph-name="v" horiz-adv-x="666" unicode="v" d="M0 514h91l240 -437l242 437h92l-285 -514h-101z"/>
<glyph glyph-name="w" horiz-adv-x="1016" unicode="w" d="M0 514h94l193 -442l157 442h124l156 -442l202 442h90l-242 -514h-113l-156 444l-162 -444h-113z"/>
<glyph glyph-name="x" horiz-adv-x="674" unicode="x" d="M274 275l-240 239h111l187 -186l185 186h113l-239 -233l283 -281h-123l-219 228l-216 -228h-116z"/>
<glyph glyph-name="y" horiz-adv-x="653" unicode="y" d="M0 514h91l245 -445l223 445h91l-254 -514q-23 -46 -44 -80t-47.5 -56.5t-63 -34t-90.5 -11.5q-16 0 -30 0.5t-26 0.5v73q13 -1 20.5 -1h9.5q37 0 64.5 4.5t48.5 16.5t37 33t28 55h-24z"/>
<glyph glyph-name="z" horiz-adv-x="653" unicode="z" d="M497 447h-430v67h544v-72l-448 -370h451v-72h-565v77z"/>
<glyph glyph-name="braceleft" horiz-adv-x="500" unicode="{" d="M419 659q-6 0 -11.5 0.5t-10.5 0.5q-32 0 -52 -6t-31 -20t-14.5 -37t-3.5 -56v-118q0 -36 -4 -63t-14.5 -46.5t-29.5 -33t-49 -21.5q30 -8 49 -21.5t29.5 -33t14.5 -46.5t4 -63v-118q0 -34 4 -56.5t15 -36t31.5 -19.5t53.5 -6h19v-61h-17q-42 0 -73.5 5t-54.5 20 q-33 22 -41 59t-8 94v119q0 73 -26 103.5t-93 30.5q-5 0 -10.5 -0.5t-11.5 -0.5v62q6 0 11.5 -0.5t10.5 -0.5q67 0 93 30.5t26 104.5v119q0 28 1.5 51.5t6.5 42.5t14.5 33.5t26.5 25.5q23 15 54 20t74 5h17v-62z"/>
<glyph glyph-name="bar" horiz-adv-x="500" unicode="|" d="M281 -236h-62v1000h62v-1000z"/>
<glyph glyph-name="braceright" horiz-adv-x="500" unicode="}" d="M275 424q0 -74 26.5 -104.5t93.5 -30.5q5 0 10.5 0.5t11.5 0.5v-62q-6 0 -11.5 0.5t-10.5 0.5q-67 0 -93.5 -30.5t-26.5 -104.5v-118q0 -57 -7.5 -94.5t-40.5 -59.5q-23 -15 -53.5 -19.5t-72.5 -4.5h-20v61q6 0 11.5 -0.5t10.5 -0.5q32 0 52 6t31 20.5t14.5 37.5t3.5 56 v117q0 36 4 63t14.5 46.5t29.5 33t49 21.5q-30 8 -49 21.5t-29.5 33t-14.5 46.5t-4 63v118q0 34 -4 56.5t-15 36.5t-31.5 20t-53.5 6h-19v61h17q42 0 74 -5t55 -20q33 -22 40.5 -59t7.5 -94v-119z"/>
<glyph glyph-name="asciitilde" horiz-adv-x="833" unicode="~" d="M747 306q-98 -70 -189 -70q-42 0 -93 17q-52 17 -97.5 33.5t-92.5 16.5q-45 0 -89.5 -20t-98.5 -58v65q103 71 189 71q39 0 73.5 -10t68.5 -22q36 -13 69.5 -24.5t71.5 -11.5q45 0 90 20t98 57v-64z"/>
<glyph glyph-name="exclamdown" horiz-adv-x="475" unicode="¡" d="M294 595h-113v132h113v-132zM277 0h-77l-3 514h79z"/>
<glyph glyph-name="cent" horiz-adv-x="949" unicode="¢" d="M707 336q0 59 -27 84t-90 25h-8l-108 -376h71q45 0 77 5t52 18.5t29.5 36.5t9.5 59v6h78v-14q0 -99 -54.5 -143t-172.5 -44h-111l-37 -127h-71l36 127h-3q-97 0 -151.5 52t-54.5 146v131q0 103 60 150.5t185 47.5h115l30 104h71l-30 -104q88 -2 134 -45.5t46 -123.5v-15 h-76zM421 445q-83 0 -125 -24.5t-42 -91.5v-119q0 -75 31.5 -108t103.5 -33h14l108 376h-90z"/>
<glyph glyph-name="sterling" horiz-adv-x="949" unicode="£" d="M66 82q67 1 96 23t29 79v122h-125v69h125v205q0 82 49.5 119t156.5 37h196q70 0 122 -7.5t86.5 -26t51 -49.5t16.5 -77v-61h-85q1 8 1 16v16q0 35 -9 57t-29.5 34t-54 16.5t-82.5 4.5h-218q-66 0 -89.5 -30t-23.5 -91v-163h363v-69h-363v-81q0 -28 -1 -50t-6 -39 t-16.5 -30.5t-32.5 -23.5h660v-82h-817v82z"/>
<glyph glyph-name="currency" horiz-adv-x="606" unicode="¤" d="M178 592q29 22 59.5 33t65.5 11q69 0 127 -44l100 101l35 -36l-100 -100q42 -56 42 -125q0 -70 -42 -125l100 -100l-35 -36l-100 101q-55 -43 -127 -43q-70 0 -125 43l-101 -101l-35 36l101 100q-43 57 -43 125t43 125l-101 100l35 36zM457 433q0 31 -12 59t-32.5 49 t-48.5 33t-60 12t-60 -12t-48.5 -33t-32.5 -49t-12 -59q0 -32 12 -60t32.5 -49t48.5 -33t60 -12t60 12t48.5 33t32.5 49t12 60z"/>
<glyph glyph-name="yen" horiz-adv-x="949" unicode="¥" d="M434 300h-391v60h337l-98 100h-239v60h180l-202 207h112l344 -358l346 358h105l-201 -207h180v-60h-239l-98 -100h337v-60h-392v-300h-81v300z"/>
<glyph glyph-name="brokenbar" horiz-adv-x="500" unicode="¦" d="M281 329h-62v370h62v-370zM281 -171h-62v370h62v-370z"/>
<glyph glyph-name="section" horiz-adv-x="759" unicode="§" d="M239 -9q-38 0 -64.5 6t-43.5 20.5t-24.5 39t-7.5 62.5v15.5t1 15.5h75q0 -5 -0.5 -9.5t-0.5 -8.5q0 -24 4.5 -38t14.5 -21.5t26.5 -9.5t40.5 -2h243q43 0 62.5 14t19.5 53q0 35 -19.5 50.5t-58.5 23.5l-324 62q-116 22 -116 125q0 43 26 72.5t73 38.5q-32 17 -49 46 t-17 67q0 57 35 90t101 33h247q46 0 79 -4.5t54 -17.5t31 -37.5t10 -64.5v-15h-70v8q0 43 -19 56.5t-67 13.5h-255q-32 0 -49 -15.5t-17 -41.5t16.5 -40.5t51.5 -21.5l337 -66q118 -24 118 -118q0 -50 -26 -81t-77 -39q66 -38 66 -121q0 -62 -39 -104q-25 -26 -53 -31 t-65 -5h-270zM515 278q15 -3 29 -3q36 0 59 22.5t23 54.5q0 29 -18.5 42.5t-55.5 21.5l-294 64q-17 3 -30 3q-35 0 -60 -24t-25 -56q0 -48 55 -60z"/>
<glyph glyph-name="dieresis" horiz-adv-x="500" unicode="¨" d="M98 681h101v-95h-101v95zM301 681h101v-95h-101v95z"/>
<glyph glyph-name="copyright" horiz-adv-x="833" unicode="©" d="M416 713q73 0 138.5 -26.5t117.5 -78.5q51 -51 77 -116t26 -138q0 -74 -26 -138t-77 -114q-54 -52 -119.5 -79.5t-136.5 -27.5q-72 0 -136 27t-116 79t-79 116.5t-27 136.5t27.5 137t79.5 118q50 51 114 77.5t137 26.5zM733 354q0 64 -23.5 121.5t-68.5 102.5 t-102.5 68.5t-122.5 23.5t-121 -23t-100 -68q-46 -47 -70 -104.5t-24 -120.5t24 -119.5t69 -102.5q45 -45 102 -69t120 -24t121 24t105 70q45 44 68 100t23 121zM520 445q-8 38 -35 59t-67 21q-57 0 -89 -44t-32 -128q0 -81 33 -124.5t88 -43.5q42 0 70.5 23.5t36.5 65.5h63 q-3 -31 -16.5 -57t-36.5 -44.5t-53.5 -28.5t-66.5 -10q-42 0 -77 15t-59.5 43.5t-38 68.5t-13.5 91q0 52 14 93t39.5 70t61 44.5t78.5 15.5q34 0 62.5 -9.5t50 -27t34.5 -41.5t16 -52h-63z"/>
<glyph glyph-name="ordfeminine" horiz-adv-x="568" unicode="ª" d="M340 732q89 0 131 -32t42 -101v-232h-58v48q-17 -32 -50 -42.5t-86 -10.5h-103q-50 0 -84 6t-55 20t-30 36.5t-9 54.5q0 31 9.5 52.5t30.5 34.5t55 18.5t82 5.5h108q46 0 78.5 -9.5t53.5 -32.5v49q0 49 -28.5 65t-96.5 16h-91q-62 0 -86.5 -8t-24.5 -41v-11h-64v10 q0 56 39 80t126 24h111zM451 494q0 30 -31 38.5t-96 8.5h-92q-36 0 -60.5 -2t-39.5 -8t-21.5 -18t-6.5 -31q0 -23 5.5 -36t20 -20t39.5 -9t63 -2h92q65 0 96 8.5t31 38.5v32z"/>
<glyph glyph-name="guillemotleft" horiz-adv-x="502" unicode="«" d="M154 106l-108 158l108 155h91l-107 -155l107 -158h-91zM364 106l-108 158l108 155h92l-108 -155l108 -158h-92z"/>
<glyph glyph-name="logicalnot" horiz-adv-x="833" unicode="¬" d="M709 174h-56v188h-529v57h585v-245z"/>
<glyph glyph-name="registered" horiz-adv-x="833" unicode="®" d="M416 713q74 0 139 -27t117 -79q51 -51 77 -116t26 -137q0 -74 -26.5 -138t-77.5 -114q-54 -52 -119 -79.5t-136 -27.5q-72 0 -136.5 27.5t-116.5 79.5q-51 51 -78 115.5t-27 136.5t27.5 137.5t80.5 118.5q50 51 113.5 77t136.5 26zM733 352q0 65 -23 122.5t-68 102.5 q-93 93 -226 93q-64 0 -120 -22.5t-100 -67.5q-47 -47 -71 -105t-24 -121t24 -119.5t69 -102.5t102 -69.5t119 -23.5q64 0 121.5 23.5t104.5 69.5q45 44 68.5 100t23.5 120zM426 565q171 0 171 -113q0 -43 -25.5 -72t-70.5 -37l92 -188h-77l-86 178h-87v-178h-69v410h152z M343 520v-142h72q57 0 84 15t27 54q0 40 -27.5 56.5t-85.5 16.5h-70z"/>
<glyph glyph-name="degree" horiz-adv-x="329" unicode="°" d="M165 710q28 0 53.5 -11t44 -29.5t29.5 -44t11 -53.5t-11 -53t-29.5 -44t-44 -30t-54.5 -11t-54 10.5t-43.5 29.5t-29 44t-10.5 54t11 54.5t29.5 44t43.5 29t54 10.5zM263 572q0 41 -28 69.5t-70 28.5q-41 0 -70 -28t-29 -70q0 -21 8 -39t21.5 -31.5t31.5 -21t38 -7.5 q21 0 39 8t31 21.5t20.5 31.5t7.5 38z"/>
<glyph glyph-name="plusminus" horiz-adv-x="833" unicode="±" d="M446 408h263v-57h-263v-168h-58v168h-264v57h264v168h58v-168zM709 20h-585v57h585v-57z"/>
<glyph glyph-name="twosuperior" horiz-adv-x="626" unicode="²" d="M52 289v88q0 33 10 55.5t30.5 36.5t52 20.5t73.5 9.5l209 13q52 3 71 19.5t19 56.5q0 29 -3 47t-16 27q-20 15 -55.5 20t-89.5 5h-96q-41 0 -68.5 -4t-44 -14.5t-24 -28.5t-7.5 -46v-28h-58v52q0 65 44 89t139 24h142q57 0 95 -6t61 -22t33 -43t10 -70q0 -35 -8.5 -58 t-26.5 -38t-47 -22t-71 -10l-205 -14q-38 -3 -61.5 -7.5t-36.5 -21.5q-11 -17 -11 -61q0 -5 0.5 -10t0.5 -10h472v-49h-533z"/>
<glyph glyph-name="threesuperior" horiz-adv-x="626" unicode="³" d="M251 488v48h162q32 0 52 2.5t31 10.5t15 22t4 37q0 27 -4.5 41t-22.5 22q-7 3 -36 7t-78 4h-159q-61 0 -84 -15.5t-23 -59.5q0 -3 0.5 -6.5t0.5 -7.5h-59v30q0 31 10.5 51.5t33 32.5t56.5 16.5t81 4.5h160q52 0 87.5 -4.5t57 -17t31 -34t9.5 -55.5q0 -27 -3 -46t-12 -31 t-25.5 -18t-43.5 -6v-4h4q48 0 67.5 -22t19.5 -73q0 -36 -4 -60.5t-20 -39.5q-33 -33 -150 -33h-198q-91 0 -129.5 26t-38.5 91q0 6 0.5 12.5t0.5 14.5h61v-12q0 -44 14 -61q15 -15 39 -18.5t58 -3.5h197q34 0 56.5 2t35.5 12q12 10 15 27.5t3 43.5q0 40 -15.5 55t-59.5 15 h-197z"/>
<glyph glyph-name="acute" horiz-adv-x="500" unicode="´" d="M283 707h121l-168 -133h-67z"/>
<glyph glyph-name="mu" horiz-adv-x="551" unicode="µ" d="M115 231q-7 -31 -7 -67q0 -53 27.5 -82t78.5 -29q121 0 164 200l59 269h76l-79 -368q-11 -49 -11 -66q0 -32 35 -32h6t11 1l-13 -61q-13 -3 -24.5 -4t-20.5 -1q-35 0 -51.5 17t-19.5 55q-20 -34 -56.5 -53t-84.5 -19q-85 0 -128 67l-55 -266h-76l154 730h77z"/>
<glyph glyph-name="mu" horiz-adv-x="551" unicode="μ" d="M115 231q-7 -31 -7 -67q0 -53 27.5 -82t78.5 -29q121 0 164 200l59 269h76l-79 -368q-11 -49 -11 -66q0 -32 35 -32h6t11 1l-13 -61q-13 -3 -24.5 -4t-20.5 -1q-35 0 -51.5 17t-19.5 55q-20 -34 -56.5 -53t-84.5 -19q-85 0 -128 67l-55 -266h-76l154 730h77z"/>
<glyph glyph-name="paragraph" horiz-adv-x="500" unicode="¶" d="M402 684v-684h-46v684h-90v-684h-46v382q-86 4 -134.5 50.5t-48.5 119.5q0 37 13.5 68.5t38.5 54t60.5 35t79.5 12.5h234v-38h-61z"/>
<glyph glyph-name="cedilla" horiz-adv-x="500" unicode="¸" d="M250 0v-65h99q53 0 53 -59v-34q0 -34 -11.5 -48.5t-40.5 -14.5h-221v53h175q17 0 23.5 5t6.5 20t-6.5 20t-23.5 5h-81q-17 0 -21 8.5t-4 28.5v81h52z"/>
<glyph glyph-name="onesuperior" horiz-adv-x="626" unicode="¹" d="M344 669l-178 -129l-33 35l199 150h68v-436h-56v380z"/>
<glyph glyph-name="ordmasculine" horiz-adv-x="599" unicode="º" d="M350 415q40 0 67 4.5t43 17t22.5 34.5t6.5 56v43q0 33 -6.5 54.5t-22.5 33.5t-43 16.5t-67 4.5h-101q-40 0 -67 -4.5t-43 -16.5t-22.5 -33.5t-6.5 -54.5v-43q0 -34 6.5 -56t22.5 -34.5t42.5 -17t67.5 -4.5h101zM233 362q-51 0 -86 9t-56.5 28t-31.5 49.5t-10 72.5v57 q0 82 42.5 118t141.5 36h133q99 0 142 -36t43 -118v-57q0 -42 -10 -72.5t-32 -49.5t-57 -28t-86 -9h-133z"/>
<glyph glyph-name="guillemotright" horiz-adv-x="502" unicode="»" d="M153 264l-108 155h92l108 -155l-108 -158h-92zM363 264l-107 155h91l108 -155l-108 -158h-91z"/>
<glyph glyph-name="onequarter" horiz-adv-x="1363" unicode="¼" d="M328 673l-170 -120l-31 32l189 140h65v-407h-53v355zM431 -9l430 745h70l-429 -745h-71zM1197 85h-400v62l376 260h75v-278h76v-44h-76v-85h-51v85zM1197 368l-344 -239h344v239z"/>
<glyph glyph-name="onehalf" horiz-adv-x="1363" unicode="½" d="M328 673l-170 -120l-31 32l189 140h65v-407h-53v355zM431 -9l430 745h70l-429 -745h-71zM815 0v82q0 62 38.5 85.5t120.5 28.5l199 12q49 3 67.5 18.5t18.5 52.5q0 27 -3.5 44t-15.5 25q-19 14 -53 19t-85 5h-92q-39 0 -65 -4t-42 -13.5t-23 -26.5t-7 -43v-26h-55v48 q0 61 41.5 83t132.5 22h136q54 0 90.5 -5.5t58.5 -20t31.5 -40t9.5 -65.5q0 -32 -8 -54t-25.5 -35.5t-45.5 -20.5t-68 -10l-195 -13q-36 -2 -58.5 -6t-34.5 -20q-11 -15 -11 -58q0 -5 0.5 -9.5t0.5 -9.5h450v-45h-508z"/>
<glyph glyph-name="threequarters" horiz-adv-x="1363" unicode="¾" d="M240 503v46h154q31 0 50 2.5t29.5 9.5t14.5 20.5t4 34.5q0 25 -4.5 38t-21.5 21q-7 3 -34.5 6.5t-74.5 3.5h-152q-58 0 -80 -14.5t-22 -55.5q0 -3 0.5 -6.5t0.5 -6.5h-57v28q0 58 42 77.5t131 19.5h154q49 0 83 -4.5t54.5 -15.5t29.5 -31.5t9 -51.5q0 -50 -15 -71.5 t-65 -22.5v-4h4q45 0 63.5 -20.5t18.5 -67.5q0 -35 -3.5 -57.5t-18.5 -36.5q-31 -31 -143 -31h-189q-87 0 -124 24.5t-37 84.5q0 6 0.5 12t0.5 13h58v-10q0 -41 14 -57q14 -14 37 -17.5t56 -3.5h187q32 0 54 2t34 11q12 10 14.5 25.5t2.5 40.5q0 38 -14.5 51.5t-56.5 13.5 h-188zM431 -9l430 745h70l-429 -745h-71zM1197 85h-400v62l376 260h75v-278h76v-44h-76v-85h-51v85zM1197 368l-344 -239h344v239z"/>
<glyph glyph-name="questiondown" horiz-adv-x="779" unicode="¿" d="M379 727h113v-132h-113v132zM473 455q0 -53 -33.5 -80.5t-110.5 -39.5l-111 -17q-48 -8 -66 -37t-18 -93q0 -44 10.5 -68t35 -36t64.5 -14.5t99 -2.5h144q46 0 76.5 6t48.5 19.5t25 36.5t7 57v45h84v-99q0 -67 -51.5 -104t-149.5 -37h-225q-70 0 -118 10.5t-77.5 34.5 t-42.5 64t-13 99q0 92 35.5 139.5t125.5 61.5l99 15q44 7 63 21t19 52v10h80v-43z"/>
<glyph glyph-name="Agrave" horiz-adv-x="963" unicode="À" d="M421 727h120l423 -727h-96l-95 160h-578l-93 -160h-103zM729 237l-247 418l-243 -418h490zM496 781l-168 133h121l114 -133h-67z"/>
<glyph glyph-name="Aacute" horiz-adv-x="963" unicode="Á" d="M421 727h120l423 -727h-96l-95 160h-578l-93 -160h-103zM729 237l-247 418l-243 -418h490zM515 914h121l-168 -133h-67z"/>
<glyph glyph-name="Acircumflex" horiz-adv-x="963" unicode="Â" d="M421 727h120l423 -727h-96l-95 160h-578l-93 -160h-103zM729 237l-247 418l-243 -418h490zM426 914h112l116 -133h-66l-106 81l-106 -81h-66z"/>
<glyph glyph-name="Atilde" horiz-adv-x="963" unicode="Ã" d="M421 727h120l423 -727h-96l-95 160h-578l-93 -160h-103zM729 237l-247 418l-243 -418h490zM648 899q-9 -48 -38 -72.5t-74 -24.5q-11 0 -20.5 1.5t-19.5 3.5l-58 14q-11 3 -24 3q-32 0 -48 -33h-50q29 95 118 95q14 0 28 -3l71 -16q5 -1 9.5 -1.5t9.5 -0.5q38 0 46 34h50 z"/>
<glyph glyph-name="Adieresis" horiz-adv-x="963" unicode="Ä" d="M421 727h120l423 -727h-96l-95 160h-578l-93 -160h-103zM729 237l-247 418l-243 -418h490zM330 888h101v-95h-101v95zM533 888h101v-95h-101v95z"/>
<glyph glyph-name="Aring" horiz-adv-x="963" unicode="Å" d="M421 727h120l423 -727h-96l-95 160h-578l-93 -160h-103zM729 237l-247 418l-243 -418h490zM616 858q0 -48 -34.5 -73.5t-100.5 -25.5t-101 25.5t-35 73.5t35 74t101 26t100.5 -26t34.5 -74zM546 856q0 30 -15.5 43.5t-49.5 13.5q-65 0 -65 -57q0 -58 65 -58t65 58z"/>
<glyph glyph-name="AE" horiz-adv-x="1242" unicode="Æ" d="M433 727h763v-79h-543v-228h486v-79h-486v-262h543v-79h-631v172h-374l-107 -172h-103zM565 250v398h-79l-246 -398h325z"/>
<glyph glyph-name="Ccedilla" horiz-adv-x="993" unicode="Ç" d="M390 -9q-43 0 -79 1.5t-67 6.5t-56 15.5t-45 27.5q-39 33 -54 85.5t-15 130.5v198q0 85 15 140.5t54 88.5t99 42t147 9h229q82 0 140 -8.5t94 -31.5t52.5 -62.5t16.5 -102.5v-18.5t-1 -20.5h-82v11q0 43 -9 72.5t-29.5 47.5t-53 25.5t-78.5 7.5h-315q-59 0 -96.5 -11 t-59.5 -42q-19 -26 -22.5 -60.5t-3.5 -80.5v-193q0 -46 3.5 -80.5t22.5 -60.5q22 -31 59.5 -42t96.5 -11h314q49 0 83 7t55 24.5t30.5 47.5t9.5 75v20h83q0 -10 0.5 -19t0.5 -17q0 -63 -12.5 -105.5t-45.5 -70.5q-36 -31 -98 -38.5t-155 -7.5h-228zM502 0v-65h99 q53 0 53 -59v-34q0 -34 -11.5 -48.5t-40.5 -14.5h-221v53h175q17 0 23.5 5t6.5 20t-6.5 20t-23.5 5h-81q-17 0 -21 8.5t-4 28.5v81h52z"/>
<glyph glyph-name="Egrave" horiz-adv-x="850" unicode="È" d="M90 727h716v-81h-628v-228h602v-81h-602v-256h628v-81h-716v727zM465 781l-168 133h121l114 -133h-67z"/>
<glyph glyph-name="Eacute" horiz-adv-x="850" unicode="É" d="M90 727h716v-81h-628v-228h602v-81h-602v-256h628v-81h-716v727zM484 914h121l-168 -133h-67z"/>
<glyph glyph-name="Ecircumflex" horiz-adv-x="850" unicode="Ê" d="M90 727h716v-81h-628v-228h602v-81h-602v-256h628v-81h-716v727zM395 914h112l116 -133h-66l-106 81l-106 -81h-66z"/>
<glyph glyph-name="Edieresis" horiz-adv-x="850" unicode="Ë" d="M90 727h716v-81h-628v-228h602v-81h-602v-256h628v-81h-716v727zM299 888h101v-95h-101v95zM502 888h101v-95h-101v95z"/>
<glyph glyph-name="Igrave" horiz-adv-x="277" unicode="Ì" d="M91 0v727h90v-727h-90zM154 781l-168 133h121l114 -133h-67z"/>
<glyph glyph-name="Iacute" horiz-adv-x="277" unicode="Í" d="M91 0v727h90v-727h-90zM173 914h121l-168 -133h-67z"/>
<glyph glyph-name="Icircumflex" horiz-adv-x="277" unicode="Î" d="M91 0v727h90v-727h-90zM84 914h112l116 -133h-66l-106 81l-106 -81h-66z"/>
<glyph glyph-name="Idieresis" horiz-adv-x="277" unicode="Ï" d="M91 0v727h90v-727h-90zM-12 888h101v-95h-101v95zM191 888h101v-95h-101v95z"/>
<glyph glyph-name="Eth" horiz-adv-x="1043" unicode="Ð" d="M640 727q85 0 147 -8t105 -39q48 -34 66 -86.5t18 -131.5v-197q0 -79 -18 -131.5t-66 -86.5q-43 -31 -105 -39t-147 -8h-546v338h-94v72h94v317h546zM184 646v-236h328v-72h-328v-257h515q51 0 85.5 9t56.5 30t31.5 54.5t9.5 82.5v212q0 51 -8.5 85t-29.5 54.5t-56 29 t-89 8.5h-515z"/>
<glyph glyph-name="Ntilde" horiz-adv-x="1067" unicode="Ñ" d="M89 0v727h142l657 -644v644h90v-727h-132l-667 654v-654h-90zM703 899q-9 -48 -38 -72.5t-74 -24.5q-11 0 -20.5 1.5t-19.5 3.5l-58 14q-11 3 -24 3q-32 0 -48 -33h-50q29 95 118 95q14 0 28 -3l71 -16q5 -1 9.5 -1.5t9.5 -0.5q38 0 46 34h50z"/>
<glyph glyph-name="Ograve" horiz-adv-x="1062" unicode="Ò" d="M367 656q-63 0 -103.5 -10.5t-64.5 -42.5q-20 -27 -24 -61.5t-4 -80.5v-191q0 -46 4 -80.5t24 -61.5q24 -32 64.5 -42.5t103.5 -10.5h329q63 0 103.5 10.5t64.5 42.5q19 25 23 57t4 74v213q0 42 -4 74t-23 57q-24 32 -64.5 42.5t-103.5 10.5h-329zM411 -9q-92 0 -156 8.5 t-107 42.5q-42 33 -58 85.5t-16 130.5v198q0 85 15.5 140.5t57.5 88.5t106 42t157 9h243q93 0 157 -9t106 -42q39 -31 56 -85t17 -135v-203q0 -81 -16.5 -134.5t-56.5 -85.5q-42 -34 -106 -42.5t-157 -8.5h-242zM545 781l-168 133h121l114 -133h-67z"/>
<glyph glyph-name="Oacute" horiz-adv-x="1062" unicode="Ó" d="M367 656q-63 0 -103.5 -10.5t-64.5 -42.5q-20 -27 -24 -61.5t-4 -80.5v-191q0 -46 4 -80.5t24 -61.5q24 -32 64.5 -42.5t103.5 -10.5h329q63 0 103.5 10.5t64.5 42.5q19 25 23 57t4 74v213q0 42 -4 74t-23 57q-24 32 -64.5 42.5t-103.5 10.5h-329zM411 -9q-92 0 -156 8.5 t-107 42.5q-42 33 -58 85.5t-16 130.5v198q0 85 15.5 140.5t57.5 88.5t106 42t157 9h243q93 0 157 -9t106 -42q39 -31 56 -85t17 -135v-203q0 -81 -16.5 -134.5t-56.5 -85.5q-42 -34 -106 -42.5t-157 -8.5h-242zM564 914h121l-168 -133h-67z"/>
<glyph glyph-name="Ocircumflex" horiz-adv-x="1062" unicode="Ô" d="M367 656q-63 0 -103.5 -10.5t-64.5 -42.5q-20 -27 -24 -61.5t-4 -80.5v-191q0 -46 4 -80.5t24 -61.5q24 -32 64.5 -42.5t103.5 -10.5h329q63 0 103.5 10.5t64.5 42.5q19 25 23 57t4 74v213q0 42 -4 74t-23 57q-24 32 -64.5 42.5t-103.5 10.5h-329zM411 -9q-92 0 -156 8.5 t-107 42.5q-42 33 -58 85.5t-16 130.5v198q0 85 15.5 140.5t57.5 88.5t106 42t157 9h243q93 0 157 -9t106 -42q39 -31 56 -85t17 -135v-203q0 -81 -16.5 -134.5t-56.5 -85.5q-42 -34 -106 -42.5t-157 -8.5h-242zM475 914h112l116 -133h-66l-106 81l-106 -81h-66z"/>
<glyph glyph-name="Otilde" horiz-adv-x="1062" unicode="Õ" d="M367 656q-63 0 -103.5 -10.5t-64.5 -42.5q-20 -27 -24 -61.5t-4 -80.5v-191q0 -46 4 -80.5t24 -61.5q24 -32 64.5 -42.5t103.5 -10.5h329q63 0 103.5 10.5t64.5 42.5q19 25 23 57t4 74v213q0 42 -4 74t-23 57q-24 32 -64.5 42.5t-103.5 10.5h-329zM411 -9q-92 0 -156 8.5 t-107 42.5q-42 33 -58 85.5t-16 130.5v198q0 85 15.5 140.5t57.5 88.5t106 42t157 9h243q93 0 157 -9t106 -42q39 -31 56 -85t17 -135v-203q0 -81 -16.5 -134.5t-56.5 -85.5q-42 -34 -106 -42.5t-157 -8.5h-242zM697 899q-9 -48 -38 -72.5t-74 -24.5q-11 0 -20.5 1.5 t-19.5 3.5l-58 14q-11 3 -24 3q-32 0 -48 -33h-50q29 95 118 95q14 0 28 -3l71 -16q5 -1 9.5 -1.5t9.5 -0.5q38 0 46 34h50z"/>
<glyph glyph-name="Odieresis" horiz-adv-x="1062" unicode="Ö" d="M367 656q-63 0 -103.5 -10.5t-64.5 -42.5q-20 -27 -24 -61.5t-4 -80.5v-191q0 -46 4 -80.5t24 -61.5q24 -32 64.5 -42.5t103.5 -10.5h329q63 0 103.5 10.5t64.5 42.5q19 25 23 57t4 74v213q0 42 -4 74t-23 57q-24 32 -64.5 42.5t-103.5 10.5h-329zM411 -9q-92 0 -156 8.5 t-107 42.5q-42 33 -58 85.5t-16 130.5v198q0 85 15.5 140.5t57.5 88.5t106 42t157 9h243q93 0 157 -9t106 -42q39 -31 56 -85t17 -135v-203q0 -81 -16.5 -134.5t-56.5 -85.5q-42 -34 -106 -42.5t-157 -8.5h-242zM379 888h101v-95h-101v95zM582 888h101v-95h-101v95z"/>
<glyph glyph-name="multiply" horiz-adv-x="833" unicode="×" d="M651 571l40 -40l-232 -233l232 -232l-40 -40l-232 232l-233 -232l-39 40l232 232l-232 233l39 40l233 -233z"/>
<glyph glyph-name="Oslash" horiz-adv-x="1062" unicode="Ø" d="M812 641q-26 11 -54.5 13.5t-61.5 2.5h-330q-63 0 -103.5 -11t-64.5 -43q-19 -26 -23 -57t-4 -73v-208q0 -42 2.5 -72t14.5 -50zM242 95q26 -11 56 -14.5t68 -3.5h330q63 0 103.5 10.5t63.5 42.5q20 27 24 61t4 80v211q0 34 -3.5 62.5t-19.5 52.5zM410 -7q-95 0 -156 7.5 t-92 33.5l-82 -67l-46 58l77 58q-37 46 -37 177v197q0 85 15.5 139.5t57.5 88.5t105.5 43t156.5 9h244q91 0 149.5 -7.5t86.5 -27.5l80 64l44 -51l-70 -58q24 -32 34.5 -78t10.5 -109v-206q0 -81 -16.5 -134.5t-56.5 -85.5q-42 -34 -105.5 -42.5t-156.5 -8.5h-243z"/>
<glyph glyph-name="Ugrave" horiz-adv-x="1009" unicode="Ù" d="M394 -9q-84 0 -143 8.5t-99 42.5q-38 32 -53 84t-15 130v471h93v-471q0 -41 3.5 -72t21.5 -57q21 -31 58.5 -42t94.5 -11h299q57 0 94.5 11t58.5 42q18 26 21.5 57t3.5 72v471h93v-466q0 -81 -15.5 -134t-51.5 -85q-38 -34 -97 -42.5t-145 -8.5h-222zM519 781l-168 133 h121l114 -133h-67z"/>
<glyph glyph-name="Uacute" horiz-adv-x="1009" unicode="Ú" d="M394 -9q-84 0 -143 8.5t-99 42.5q-38 32 -53 84t-15 130v471h93v-471q0 -41 3.5 -72t21.5 -57q21 -31 58.5 -42t94.5 -11h299q57 0 94.5 11t58.5 42q18 26 21.5 57t3.5 72v471h93v-466q0 -81 -15.5 -134t-51.5 -85q-38 -34 -97 -42.5t-145 -8.5h-222zM538 914h121 l-168 -133h-67z"/>
<glyph glyph-name="Ucircumflex" horiz-adv-x="1009" unicode="Û" d="M394 -9q-84 0 -143 8.5t-99 42.5q-38 32 -53 84t-15 130v471h93v-471q0 -41 3.5 -72t21.5 -57q21 -31 58.5 -42t94.5 -11h299q57 0 94.5 11t58.5 42q18 26 21.5 57t3.5 72v471h93v-466q0 -81 -15.5 -134t-51.5 -85q-38 -34 -97 -42.5t-145 -8.5h-222zM449 914h112 l116 -133h-66l-106 81l-106 -81h-66z"/>
<glyph glyph-name="Udieresis" horiz-adv-x="1009" unicode="Ü" d="M394 -9q-84 0 -143 8.5t-99 42.5q-38 32 -53 84t-15 130v471h93v-471q0 -41 3.5 -72t21.5 -57q21 -31 58.5 -42t94.5 -11h299q57 0 94.5 11t58.5 42q18 26 21.5 57t3.5 72v471h93v-466q0 -81 -15.5 -134t-51.5 -85q-38 -34 -97 -42.5t-145 -8.5h-222zM353 888h101v-95 h-101v95zM556 888h101v-95h-101v95z"/>
<glyph glyph-name="Yacute" horiz-adv-x="921" unicode="Ý" d="M413 304l-413 423h129l332 -341l332 341h129l-413 -423v-304h-96v304zM494 914h121l-168 -133h-67z"/>
<glyph glyph-name="Thorn" horiz-adv-x="926" unicode="Þ" d="M620 225q50 0 81.5 5.5t49.5 19.5t24.5 37.5t6.5 60.5v34q0 37 -6.5 60.5t-24.5 37.5t-49.5 19.5t-81.5 5.5h-441v-280h441zM179 583h415q76 0 130 -6t88.5 -24t50.5 -52t16 -90v-95q0 -56 -16 -90t-50.5 -52.5t-88.5 -24.5t-130 -6h-415v-143h-90v727h90v-144z"/>
<glyph glyph-name="germandbls" d="M87 530q0 101 64 149t195 48h128q114 0 167.5 -46t53.5 -144q0 -60 -24 -94t-75 -48q74 -8 102 -55.5t28 -141.5q0 -30 -1 -53.5t-6 -43t-15 -35.5t-28 -30q-30 -24 -81 -34t-126 -10q-54 0 -91.5 2.5t-57.5 5.5v72q32 -8 64.5 -11t66.5 -3q56 0 95 6.5t63 22.5 q23 15 27.5 46.5t4.5 84.5q0 45 -8 73t-28 43.5t-54.5 21.5t-88.5 6h-137v63h148q37 0 64 3.5t43.5 15t24.5 33.5t8 60t-9.5 62t-30.5 37t-54.5 17.5t-81.5 4.5h-94q-49 0 -82.5 -6.5t-54 -23.5t-29.5 -45.5t-9 -71.5v-511h-81v530z" unicode="ß"/>
<glyph glyph-name="agrave" horiz-adv-x="757" unicode="à" d="M453 521q119 0 175 -45t56 -144v-332h-78v68q-23 -46 -66.5 -60.5t-114.5 -14.5h-137q-66 0 -111.5 9t-73.5 28.5t-40.5 51.5t-12.5 78q0 44 12.5 74.5t41 49t73 27t109.5 8.5h144q62 0 105 -14t71 -47v70q0 35 -9 57.5t-29 35.5t-51.5 18t-76.5 5h-122q-41 0 -69.5 -2 t-45.5 -9.5t-24.5 -21t-7.5 -37.5v-15h-86v14q0 80 52.5 114t167.5 34h148zM601 181q0 43 -41 55.5t-128 12.5h-123q-48 0 -80.5 -2.5t-52.5 -11.5t-28.5 -26t-8.5 -45q0 -32 7.5 -51t26.5 -28.5t52 -12.5t84 -3h123q87 0 128 12t41 55v45zM393 574l-168 133h121l114 -133 h-67z"/>
<glyph glyph-name="aacute" horiz-adv-x="757" unicode="á" d="M453 521q119 0 175 -45t56 -144v-332h-78v68q-23 -46 -66.5 -60.5t-114.5 -14.5h-137q-66 0 -111.5 9t-73.5 28.5t-40.5 51.5t-12.5 78q0 44 12.5 74.5t41 49t73 27t109.5 8.5h144q62 0 105 -14t71 -47v70q0 35 -9 57.5t-29 35.5t-51.5 18t-76.5 5h-122q-41 0 -69.5 -2 t-45.5 -9.5t-24.5 -21t-7.5 -37.5v-15h-86v14q0 80 52.5 114t167.5 34h148zM601 181q0 43 -41 55.5t-128 12.5h-123q-48 0 -80.5 -2.5t-52.5 -11.5t-28.5 -26t-8.5 -45q0 -32 7.5 -51t26.5 -28.5t52 -12.5t84 -3h123q87 0 128 12t41 55v45zM412 707h121l-168 -133h-67z"/>
<glyph glyph-name="acircumflex" horiz-adv-x="757" unicode="â" d="M453 521q119 0 175 -45t56 -144v-332h-78v68q-23 -46 -66.5 -60.5t-114.5 -14.5h-137q-66 0 -111.5 9t-73.5 28.5t-40.5 51.5t-12.5 78q0 44 12.5 74.5t41 49t73 27t109.5 8.5h144q62 0 105 -14t71 -47v70q0 35 -9 57.5t-29 35.5t-51.5 18t-76.5 5h-122q-41 0 -69.5 -2 t-45.5 -9.5t-24.5 -21t-7.5 -37.5v-15h-86v14q0 80 52.5 114t167.5 34h148zM601 181q0 43 -41 55.5t-128 12.5h-123q-48 0 -80.5 -2.5t-52.5 -11.5t-28.5 -26t-8.5 -45q0 -32 7.5 -51t26.5 -28.5t52 -12.5t84 -3h123q87 0 128 12t41 55v45zM323 707h112l116 -133h-66 l-106 81l-106 -81h-66z"/>
<glyph glyph-name="atilde" horiz-adv-x="757" unicode="ã" d="M453 521q119 0 175 -45t56 -144v-332h-78v68q-23 -46 -66.5 -60.5t-114.5 -14.5h-137q-66 0 -111.5 9t-73.5 28.5t-40.5 51.5t-12.5 78q0 44 12.5 74.5t41 49t73 27t109.5 8.5h144q62 0 105 -14t71 -47v70q0 35 -9 57.5t-29 35.5t-51.5 18t-76.5 5h-122q-41 0 -69.5 -2 t-45.5 -9.5t-24.5 -21t-7.5 -37.5v-15h-86v14q0 80 52.5 114t167.5 34h148zM601 181q0 43 -41 55.5t-128 12.5h-123q-48 0 -80.5 -2.5t-52.5 -11.5t-28.5 -26t-8.5 -45q0 -32 7.5 -51t26.5 -28.5t52 -12.5t84 -3h123q87 0 128 12t41 55v45zM545 692q-9 -48 -38 -72.5 t-74 -24.5q-11 0 -20.5 1.5t-19.5 3.5l-58 14q-11 3 -24 3q-32 0 -48 -33h-50q29 95 118 95q14 0 28 -3l71 -16q5 -1 9.5 -1.5t9.5 -0.5q38 0 46 34h50z"/>
<glyph glyph-name="adieresis" horiz-adv-x="757" unicode="ä" d="M453 521q119 0 175 -45t56 -144v-332h-78v68q-23 -46 -66.5 -60.5t-114.5 -14.5h-137q-66 0 -111.5 9t-73.5 28.5t-40.5 51.5t-12.5 78q0 44 12.5 74.5t41 49t73 27t109.5 8.5h144q62 0 105 -14t71 -47v70q0 35 -9 57.5t-29 35.5t-51.5 18t-76.5 5h-122q-41 0 -69.5 -2 t-45.5 -9.5t-24.5 -21t-7.5 -37.5v-15h-86v14q0 80 52.5 114t167.5 34h148zM601 181q0 43 -41 55.5t-128 12.5h-123q-48 0 -80.5 -2.5t-52.5 -11.5t-28.5 -26t-8.5 -45q0 -32 7.5 -51t26.5 -28.5t52 -12.5t84 -3h123q87 0 128 12t41 55v45zM227 681h101v-95h-101v95z M430 681h101v-95h-101v95z"/>
<glyph glyph-name="aring" horiz-adv-x="757" unicode="å" d="M453 521q119 0 175 -45t56 -144v-332h-78v68q-23 -46 -66.5 -60.5t-114.5 -14.5h-137q-66 0 -111.5 9t-73.5 28.5t-40.5 51.5t-12.5 78q0 44 12.5 74.5t41 49t73 27t109.5 8.5h144q62 0 105 -14t71 -47v70q0 35 -9 57.5t-29 35.5t-51.5 18t-76.5 5h-122q-41 0 -69.5 -2 t-45.5 -9.5t-24.5 -21t-7.5 -37.5v-15h-86v14q0 80 52.5 114t167.5 34h148zM601 181q0 43 -41 55.5t-128 12.5h-123q-48 0 -80.5 -2.5t-52.5 -11.5t-28.5 -26t-8.5 -45q0 -32 7.5 -51t26.5 -28.5t52 -12.5t84 -3h123q87 0 128 12t41 55v45zM515 655q0 -48 -35 -74t-101 -26 t-100.5 26t-34.5 74t34.5 73.5t100.5 25.5t101 -25.5t35 -73.5zM445 652q0 30 -16 43.5t-50 13.5q-65 0 -65 -57q0 -30 16 -43.5t49 -13.5q34 0 50 13.5t16 43.5z"/>
<glyph glyph-name="ae" horiz-adv-x="1303" unicode="æ" d="M601 181q0 43 -41 55.5t-128 12.5h-123q-48 0 -80.5 -2.5t-52.5 -11.5t-28.5 -26t-8.5 -45q0 -32 7.5 -51t26.5 -28.5t52 -12.5t84 -3h123q87 0 128 12t41 55v45zM1162 312v12q0 38 -10 62t-31 37t-54.5 17.5t-80.5 4.5h-126q-46 0 -79 -6.5t-54.5 -22t-31.5 -41 t-10 -63.5h477zM640 80q-19 -31 -40.5 -48.5t-47.5 -26t-57.5 -10.5t-69.5 -2h-137q-67 0 -112.5 9t-73 29.5t-39.5 52.5t-12 78q0 44 12.5 74t40.5 48.5t72.5 26.5t109.5 8h144q62 0 105 -14t71 -47v70q0 35 -9 57.5t-29 35.5t-51.5 18t-76.5 5h-122q-42 0 -70 -2 t-45.5 -9.5t-24.5 -21t-7 -37.5v-15h-86v14q0 80 52.5 114t167.5 34h148q77 0 123.5 -15.5t69.5 -59.5q30 44 81.5 59t132.5 15h128q72 0 121.5 -12t80 -40t44.5 -74.5t14 -114.5v-19.5t-1 -20.5h-563v-29q0 -41 9 -68.5t29.5 -44.5t54 -24.5t84.5 -7.5h135q86 0 126.5 20.5 t40.5 67.5v3h84v-13q0 -73 -58.5 -111.5t-174.5 -38.5h-154q-102 0 -155.5 17.5t-64.5 69.5z"/>
<glyph glyph-name="ccedilla" horiz-adv-x="735" unicode="ç" d="M600 336q0 37 -9 58.5t-29 33t-51.5 15t-76.5 3.5h-120q-84 0 -125.5 -24.5t-41.5 -91.5v-119q0 -43 9 -70.5t29 -43.5t52 -22t79 -6h122q45 0 77 5t52.5 18.5t29.5 36.5t9 59v6h77v-14q0 -99 -54 -143t-172 -44h-147q-125 0 -185 48t-60 151v130q0 103 60 151t185 48 h122q63 0 109 -9t76 -29.5t44.5 -53t14.5 -80.5v-13h-76zM372 0v-65h99q53 0 53 -59v-34q0 -34 -11.5 -48.5t-40.5 -14.5h-221v53h175q17 0 23.5 5t6.5 20t-6.5 20t-23.5 5h-81q-17 0 -21 8.5t-4 28.5v81h52z"/>
<glyph glyph-name="egrave" horiz-adv-x="766" unicode="è" d="M624 313v12q0 38 -10 62t-31 37t-54 17.5t-80 4.5h-127q-46 0 -79 -6.5t-54.5 -21.5t-31.5 -40.5t-10 -64.5h477zM451 521q71 0 120.5 -12t80 -40.5t44.5 -74.5t14 -115v-19.5t-1 -20.5h-562v-28q0 -40 9 -67.5t29.5 -45t54.5 -25.5t84 -8h134q85 0 126 21t41 66v5h85 v-13q0 -74 -58.5 -112.5t-174.5 -38.5h-154q-70 0 -119 12.5t-80 39.5t-45 69t-14 101v82q0 60 14 102.5t45 69.5t80 39.5t119 12.5h128zM398 574l-168 133h121l114 -133h-67z"/>
<glyph glyph-name="eacute" horiz-adv-x="766" unicode="é" d="M624 313v12q0 38 -10 62t-31 37t-54 17.5t-80 4.5h-127q-46 0 -79 -6.5t-54.5 -21.5t-31.5 -40.5t-10 -64.5h477zM451 521q71 0 120.5 -12t80 -40.5t44.5 -74.5t14 -115v-19.5t-1 -20.5h-562v-28q0 -40 9 -67.5t29.5 -45t54.5 -25.5t84 -8h134q85 0 126 21t41 66v5h85 v-13q0 -74 -58.5 -112.5t-174.5 -38.5h-154q-70 0 -119 12.5t-80 39.5t-45 69t-14 101v82q0 60 14 102.5t45 69.5t80 39.5t119 12.5h128zM417 707h121l-168 -133h-67z"/>
<glyph glyph-name="ecircumflex" horiz-adv-x="766" unicode="ê" d="M624 313v12q0 38 -10 62t-31 37t-54 17.5t-80 4.5h-127q-46 0 -79 -6.5t-54.5 -21.5t-31.5 -40.5t-10 -64.5h477zM451 521q71 0 120.5 -12t80 -40.5t44.5 -74.5t14 -115v-19.5t-1 -20.5h-562v-28q0 -40 9 -67.5t29.5 -45t54.5 -25.5t84 -8h134q85 0 126 21t41 66v5h85 v-13q0 -74 -58.5 -112.5t-174.5 -38.5h-154q-70 0 -119 12.5t-80 39.5t-45 69t-14 101v82q0 60 14 102.5t45 69.5t80 39.5t119 12.5h128zM328 707h112l116 -133h-66l-106 81l-106 -81h-66z"/>
<glyph glyph-name="edieresis" horiz-adv-x="766" unicode="ë" d="M624 313v12q0 38 -10 62t-31 37t-54 17.5t-80 4.5h-127q-46 0 -79 -6.5t-54.5 -21.5t-31.5 -40.5t-10 -64.5h477zM451 521q71 0 120.5 -12t80 -40.5t44.5 -74.5t14 -115v-19.5t-1 -20.5h-562v-28q0 -40 9 -67.5t29.5 -45t54.5 -25.5t84 -8h134q85 0 126 21t41 66v5h85 v-13q0 -74 -58.5 -112.5t-174.5 -38.5h-154q-70 0 -119 12.5t-80 39.5t-45 69t-14 101v82q0 60 14 102.5t45 69.5t80 39.5t119 12.5h128zM232 681h101v-95h-101v95zM435 681h101v-95h-101v95z"/>
<glyph glyph-name="igrave" horiz-adv-x="250" unicode="ì" d="M84 514h82v-514h-82v514zM140 574l-168 133h121l114 -133h-67z"/>
<glyph glyph-name="iacute" horiz-adv-x="250" unicode="í" d="M84 514h82v-514h-82v514zM159 707h121l-168 -133h-67z"/>
<glyph glyph-name="icircumflex" horiz-adv-x="250" unicode="î" d="M84 514h82v-514h-82v514zM70 707h112l116 -133h-66l-106 81l-106 -81h-66z"/>
<glyph glyph-name="idieresis" horiz-adv-x="250" unicode="ï" d="M84 514h82v-514h-82v514zM-26 681h101v-95h-101v95zM177 681h101v-95h-101v95z"/>
<glyph glyph-name="eth" horiz-adv-x="799" unicode="ð" d="M466 69q54 0 89.5 6.5t57 24.5t30.5 49t9 80v61q0 48 -9 78t-30.5 47.5t-57.5 24t-89 6.5h-134q-54 0 -89.5 -6.5t-56.5 -24t-30 -47.5t-9 -78v-61q0 -49 8.5 -80t30 -49t57 -24.5t89.5 -6.5h134zM311 -7q-68 0 -114.5 13t-76 40.5t-42.5 70.5t-13 103v81q0 58 13.5 100 t43.5 68.5t76.5 39t112.5 12.5h92q39 0 72.5 -2.5t62.5 -9.5t55 -20t49 -35q-10 30 -37.5 67.5t-73.5 81.5l-24 24l-235 -54l-12 54l197 45l-59 55h93l40 -38l153 35l13 -53l-118 -28l36 -32q34 -31 56.5 -63t36.5 -68t20 -77t6 -89v-94q0 -60 -13 -103t-42.5 -70.5 t-76.5 -40.5t-114 -13h-177z"/>
<glyph glyph-name="ntilde" d="M80 514h81v-95q31 58 93.5 80t167.5 22q76 0 130 -9t88 -30.5t50 -57t16 -89.5v-335h-81v313q0 35 -5.5 59t-28.5 41q-21 15 -69 23.5t-123 8.5q-62 0 -107 -7t-74 -23.5t-43 -42.5t-14 -65v-307h-81v514zM575 692q-9 -48 -38 -72.5t-74 -24.5q-11 0 -20.5 1.5t-19.5 3.5 l-58 14q-11 3 -24 3q-32 0 -48 -33h-50q29 95 118 95q14 0 28 -3l71 -16q5 -1 9.5 -1.5t9.5 -0.5q38 0 46 34h50z" unicode="ñ"/>
<glyph glyph-name="ograve" horiz-adv-x="799" unicode="ò" d="M466 69q54 0 90 6.5t57 24.5t30 49t9 80v61q0 48 -9 78t-30.5 47.5t-57 24t-89.5 6.5h-134q-54 0 -89.5 -6.5t-56.5 -24t-30 -47.5t-9 -78v-61q0 -49 8.5 -80t30 -49t57 -24.5t89.5 -6.5h134zM311 -7q-68 0 -114.5 13t-76 40.5t-42.5 70.5t-13 103v81q0 58 13.5 100 t43.5 68.5t76.5 39t112.5 12.5h177q66 0 112.5 -12.5t76.5 -39t43.5 -68.5t13.5 -100v-81q0 -60 -13 -103t-42.5 -70.5t-76.5 -40.5t-114 -13h-177zM414 574l-168 133h121l114 -133h-67z"/>
<glyph glyph-name="oacute" horiz-adv-x="799" unicode="ó" d="M466 69q54 0 90 6.5t57 24.5t30 49t9 80v61q0 48 -9 78t-30.5 47.5t-57 24t-89.5 6.5h-134q-54 0 -89.5 -6.5t-56.5 -24t-30 -47.5t-9 -78v-61q0 -49 8.5 -80t30 -49t57 -24.5t89.5 -6.5h134zM311 -7q-68 0 -114.5 13t-76 40.5t-42.5 70.5t-13 103v81q0 58 13.5 100 t43.5 68.5t76.5 39t112.5 12.5h177q66 0 112.5 -12.5t76.5 -39t43.5 -68.5t13.5 -100v-81q0 -60 -13 -103t-42.5 -70.5t-76.5 -40.5t-114 -13h-177zM433 707h121l-168 -133h-67z"/>
<glyph glyph-name="ocircumflex" horiz-adv-x="799" unicode="ô" d="M466 69q54 0 90 6.5t57 24.5t30 49t9 80v61q0 48 -9 78t-30.5 47.5t-57 24t-89.5 6.5h-134q-54 0 -89.5 -6.5t-56.5 -24t-30 -47.5t-9 -78v-61q0 -49 8.5 -80t30 -49t57 -24.5t89.5 -6.5h134zM311 -7q-68 0 -114.5 13t-76 40.5t-42.5 70.5t-13 103v81q0 58 13.5 100 t43.5 68.5t76.5 39t112.5 12.5h177q66 0 112.5 -12.5t76.5 -39t43.5 -68.5t13.5 -100v-81q0 -60 -13 -103t-42.5 -70.5t-76.5 -40.5t-114 -13h-177zM344 707h112l116 -133h-66l-106 81l-106 -81h-66z"/>
<glyph glyph-name="otilde" horiz-adv-x="799" unicode="õ" d="M466 69q54 0 90 6.5t57 24.5t30 49t9 80v61q0 48 -9 78t-30.5 47.5t-57 24t-89.5 6.5h-134q-54 0 -89.5 -6.5t-56.5 -24t-30 -47.5t-9 -78v-61q0 -49 8.5 -80t30 -49t57 -24.5t89.5 -6.5h134zM311 -7q-68 0 -114.5 13t-76 40.5t-42.5 70.5t-13 103v81q0 58 13.5 100 t43.5 68.5t76.5 39t112.5 12.5h177q66 0 112.5 -12.5t76.5 -39t43.5 -68.5t13.5 -100v-81q0 -60 -13 -103t-42.5 -70.5t-76.5 -40.5t-114 -13h-177zM566 692q-9 -48 -38 -72.5t-74 -24.5q-11 0 -20.5 1.5t-19.5 3.5l-58 14q-11 3 -24 3q-32 0 -48 -33h-50q29 95 118 95 q14 0 28 -3l71 -16q5 -1 9.5 -1.5t9.5 -0.5q38 0 46 34h50z"/>
<glyph glyph-name="odieresis" horiz-adv-x="799" unicode="ö" d="M466 69q54 0 90 6.5t57 24.5t30 49t9 80v61q0 48 -9 78t-30.5 47.5t-57 24t-89.5 6.5h-134q-54 0 -89.5 -6.5t-56.5 -24t-30 -47.5t-9 -78v-61q0 -49 8.5 -80t30 -49t57 -24.5t89.5 -6.5h134zM311 -7q-68 0 -114.5 13t-76 40.5t-42.5 70.5t-13 103v81q0 58 13.5 100 t43.5 68.5t76.5 39t112.5 12.5h177q66 0 112.5 -12.5t76.5 -39t43.5 -68.5t13.5 -100v-81q0 -60 -13 -103t-42.5 -70.5t-76.5 -40.5t-114 -13h-177zM248 681h101v-95h-101v95zM451 681h101v-95h-101v95z"/>
<glyph glyph-name="divide" horiz-adv-x="833" unicode="÷" d="M417 530q23 0 39.5 -16.5t16.5 -39.5t-16 -39.5t-40 -16.5t-40 16.5t-16 39.5t16.5 39.5t39.5 16.5zM709 270h-585v57h585v-57zM417 178q23 0 39.5 -16.5t16.5 -39.5t-16 -39.5t-40 -16.5q-23 0 -39.5 16.5t-16.5 39.5q0 24 16.5 40t39.5 16z"/>
<glyph glyph-name="oslash" horiz-adv-x="799" unicode="ø" d="M734 185q0 -192 -246 -192h-178q-114 0 -171 38l-80 -60l-35 46l73 54q-19 27 -25.5 56t-6.5 64v110q0 58 13.5 100t43.5 68.5t76.5 39t112.5 12.5h177q73 0 114 -14t50 -22l79 59l33 -44l-69 -52q39 -45 39 -120v-143zM582 432q-36 13 -116 13h-134q-54 0 -89.5 -6.5 t-56.5 -24t-30 -47.5t-9 -78v-79q0 -62 19 -87zM210 84q20 -9 50 -12t72 -3h134q54 0 90 6.5t57 24t30 48.5t9 80v75q0 32 -5.5 55.5t-19.5 37.5z"/>
<glyph glyph-name="ugrave" d="M702 0h-78v97q-17 -31 -40 -51t-53 -32t-69 -16.5t-87 -4.5q-79 0 -135.5 9.5t-93 31.5t-53.5 57.5t-17 87.5v335h81v-310q0 -38 5.5 -62t28.5 -41q44 -32 198 -32q118 0 174 29t56 96v320h83v-514zM405 574l-168 133h121l114 -133h-67z" unicode="ù"/>
<glyph glyph-name="uacute" d="M702 0h-78v97q-17 -31 -40 -51t-53 -32t-69 -16.5t-87 -4.5q-79 0 -135.5 9.5t-93 31.5t-53.5 57.5t-17 87.5v335h81v-310q0 -38 5.5 -62t28.5 -41q44 -32 198 -32q118 0 174 29t56 96v320h83v-514zM424 707h121l-168 -133h-67z" unicode="ú"/>
<glyph glyph-name="ucircumflex" d="M702 0h-78v97q-17 -31 -40 -51t-53 -32t-69 -16.5t-87 -4.5q-79 0 -135.5 9.5t-93 31.5t-53.5 57.5t-17 87.5v335h81v-310q0 -38 5.5 -62t28.5 -41q44 -32 198 -32q118 0 174 29t56 96v320h83v-514zM335 707h112l116 -133h-66l-106 81l-106 -81h-66z" unicode="û"/>
<glyph glyph-name="udieresis" d="M702 0h-78v97q-17 -31 -40 -51t-53 -32t-69 -16.5t-87 -4.5q-79 0 -135.5 9.5t-93 31.5t-53.5 57.5t-17 87.5v335h81v-310q0 -38 5.5 -62t28.5 -41q44 -32 198 -32q118 0 174 29t56 96v320h83v-514zM239 681h101v-95h-101v95zM442 681h101v-95h-101v95z" unicode="ü"/>
<glyph glyph-name="yacute" horiz-adv-x="653" unicode="ý" d="M0 514h91l245 -445l223 445h91l-254 -514q-23 -46 -44 -80t-47.5 -56.5t-63 -34t-90.5 -11.5q-16 0 -30 0.5t-26 0.5v73q13 -1 20.5 -1h9.5q37 0 64.5 4.5t48.5 16.5t37 33t28 55h-24zM360 707h121l-168 -133h-67z"/>
<glyph glyph-name="thorn" d="M159 446q14 23 32 37.5t40 22.5t49 11t60 3h138q67 0 114 -13t76.5 -40.5t42.5 -70.5t13 -103v-81q0 -59 -13.5 -100.5t-43.5 -68t-76.5 -39t-112.5 -12.5h-158q-57 0 -95.5 17t-65.5 55v-238h-79v901h79v-281zM343 444q-54 0 -89.5 -6.5t-57 -24.5t-30 -49t-8.5 -80v-61 q0 -48 9 -78t30.5 -47.5t57 -24t88.5 -6.5h114q53 0 88.5 6.5t57 24t30.5 47.5t9 78v61q0 49 -8.5 80t-30 49t-57 24.5t-89.5 6.5h-114z" unicode="þ"/>
<glyph glyph-name="dotlessi" horiz-adv-x="250" unicode="ı" d="M84 514h82v-514h-82v514z"/>
<glyph glyph-name="OE" horiz-adv-x="1449" unicode="Œ" d="M359 654q-51 0 -87 -4.5t-61 -26.5q-30 -28 -35.5 -71t-5.5 -106v-165q0 -63 5.5 -106t35.5 -71q23 -21 57 -25.5t81 -4.5h218q48 0 82 4.5t57 25.5q15 14 23.5 32t12.5 39.5t4.5 48t0.5 57.5v165q0 31 -0.5 57.5t-4.5 48t-12.5 39.5t-23.5 32q-25 22 -61.5 26.5 t-87.5 4.5h-26h-172zM748 81q-20 -32 -41 -50t-46 -27t-54.5 -11t-65.5 -2h-222q-69 0 -114.5 8.5t-77.5 42.5q-30 32 -42 84t-12 130v198q0 84 12 140t42 88q31 33 76.5 42t114.5 9h276q27 0 48.5 -3t40.5 -11t34.5 -23.5t30.5 -39.5v71h633v-81h-543v-224h509v-79h-509 v-262h543v-81h-633v81z"/>
<glyph glyph-name="oe" horiz-adv-x="1354" unicode="œ" d="M1039 520q72 0 121 -12t80 -40t44.5 -74t13.5 -115v-19.5t-1 -20.5h-562v-29q0 -40 9 -67.5t29.5 -45t54.5 -25t84 -7.5h134q86 0 126.5 20.5t40.5 67.5v3h85v-12q0 -74 -58.5 -112.5t-175.5 -38.5h-154q-75 0 -127.5 14t-88.5 56q-32 -38 -82 -54t-124 -16h-177 q-68 0 -114.5 13t-76 40.5t-42.5 70.5t-13 103v81q0 58 13.5 100t43.5 68.5t76.5 39t112.5 12.5h177q76 0 126.5 -17t79.5 -54q32 38 85 54t131 16h129zM1212 313v10q0 39 -9.5 62.5t-30.5 37t-54.5 18t-80.5 4.5h-127q-46 0 -79 -6.5t-54.5 -21.5t-31.5 -40.5t-10 -63.5 h477zM466 68q54 0 90 6.5t57 24.5t30 49t9 80v61q0 48 -9 78t-30.5 47.5t-57 24t-89.5 6.5h-134q-54 0 -89.5 -6.5t-56.5 -24t-30 -47.5t-9 -78v-61q0 -49 8.5 -80t30 -49t57 -24.5t89.5 -6.5h134z"/>
<glyph glyph-name="Scaron" horiz-adv-x="954" unicode="Š" d="M162 237q-1 -14 -1.5 -24.5t-0.5 -18.5q0 -37 12 -61t38 -37.5t66.5 -18.5t96.5 -5h190q66 0 111.5 5t73.5 20t40.5 42.5t12.5 73.5q0 39 -9 62.5t-28.5 36t-49.5 17t-73 4.5h-307q-71 0 -121 10t-81.5 33.5t-46 62t-14.5 94.5q0 61 18 100t56 62t97 32t142 9h165 q101 0 168 -7t106 -39q26 -23 37.5 -58t11.5 -86v-21h-87v11q0 39 -9 63t-30 37t-55.5 17.5t-85.5 4.5h-248q-54 0 -90.5 -5t-59 -18.5t-32.5 -37t-10 -60.5q0 -40 11 -64.5t35 -37.5t61.5 -17t90.5 -4h261q69 0 117.5 -5t80.5 -24q41 -25 55 -67.5t14 -109.5 q0 -63 -16 -104.5t-52 -66.5t-93 -35.5t-139 -10.5h-247q-71 0 -122.5 10t-84.5 33t-48.5 59t-15.5 89q0 12 0.5 25.5t1.5 29.5h87zM371 912l106 -82l106 82h66l-116 -133h-112l-116 133h66z"/>
<glyph glyph-name="scaron" d="M295 228q-64 0 -106.5 5t-68.5 20t-37 43.5t-11 75.5q0 41 12 69.5t38.5 46t69 25t103.5 7.5h146q118 0 175.5 -28.5t57.5 -95.5v-34h-78v21q0 20 -10.5 32.5t-33 19t-57.5 8.5t-83 2h-80q-53 0 -87.5 -2t-54.5 -9t-28.5 -22t-8.5 -40q0 -26 8.5 -41t29 -22.5t55 -9.5 t86.5 -2l140 1q69 0 114.5 -5.5t72.5 -33.5q26 -26 30.5 -57.5t4.5 -74.5q0 -41 -14 -67t-42.5 -41t-72 -21t-101.5 -6h-207q-50 0 -85 9t-57.5 31t-33 57t-11.5 88h74v-9q0 -34 6.5 -53.5t22 -29.5t40.5 -13t62 -3h230q33 0 53.5 3t32 12t15.5 25.5t4 43.5q0 42 -21.5 58.5 t-82.5 16.5h-211zM285 705l106 -82l106 82h66l-116 -133h-112l-116 133h66z" unicode="š"/>
<glyph glyph-name="Ydieresis" horiz-adv-x="921" unicode="Ÿ" d="M413 304l-413 423h129l332 -341l332 341h129l-413 -423v-304h-96v304zM309 888h101v-95h-101v95zM512 888h101v-95h-101v95z"/>
<glyph glyph-name="circumflex" horiz-adv-x="500" unicode="ˆ" d="M194 707h112l116 -133h-66l-106 81l-106 -81h-66z"/>
<glyph glyph-name="caron" horiz-adv-x="500" unicode="ˇ" d="M144 705l106 -82l106 82h66l-116 -133h-112l-116 133h66z"/>
<glyph glyph-name="tilde" horiz-adv-x="500" unicode="˜" d="M416 692q-9 -48 -38 -72.5t-74 -24.5q-11 0 -20.5 1.5t-19.5 3.5l-58 14q-11 3 -24 3q-32 0 -48 -33h-50q29 95 118 95q14 0 28 -3l71 -16q5 -1 9.5 -1.5t9.5 -0.5q38 0 46 34h50z"/>
<glyph glyph-name="endash" horiz-adv-x="500" unicode="–" d="M0 288h500v-52h-500v52z"/>
<glyph glyph-name="emdash" horiz-adv-x="1000" unicode="—" d="M0 288h1000v-52h-1000v52z"/>
<glyph glyph-name="quoteleft" horiz-adv-x="370" unicode="‘" d="M242 492h-114v150q0 94 88 94h33v-61h-20q-28 0 -28 -34v-17h41v-132z"/>
<glyph glyph-name="quotesinglbase" horiz-adv-x="370" unicode="‚" d="M128 132h114v-150q0 -94 -87 -94h-34v61h20q28 0 28 33v18h-41v132z"/>
<glyph glyph-name="quotedblleft" horiz-adv-x="581" unicode="“" d="M452 492h-113v150q0 94 87 94h33v-61h-19q-28 0 -28 -34v-17h40v-132zM242 492h-114v150q0 94 88 94h33v-61h-20q-28 0 -28 -34v-17h41v-132z"/>
<glyph glyph-name="quotedblright" horiz-adv-x="581" unicode="”" d="M340 727h113v-150q0 -95 -87 -95h-34v62h20q28 0 28 33v18h-40v132zM128 727h114v-150q0 -95 -87 -95h-34v62h20q28 0 28 33v18h-41v132z"/>
<glyph glyph-name="dagger" horiz-adv-x="657" unicode="†" d="M290 468h-215v65h215v194h78v-194h213v-65h-213v-468h-78v468z"/>
<glyph glyph-name="daggerdbl" horiz-adv-x="657" unicode="‡" d="M292 166h-206v70h206v262h-206v71h206v158h73v-158h205v-71h-205v-262h205v-70h-205v-166h-73v166z"/>
<glyph glyph-name="ellipsis" horiz-adv-x="1000" unicode="…" d="M110 132h113v-132h-113v132zM443 132h113v-132h-113v132zM777 132h113v-132h-113v132z"/>
<glyph glyph-name="perthousand" horiz-adv-x="1765" unicode="‰" d="M233 269q-48 0 -80.5 7t-52.5 25.5t-28.5 51.5t-8.5 84v123q0 54 8 88t27 53.5t51.5 27t82.5 7.5h122q47 0 79.5 -6.5t52.5 -25.5t29 -52t9 -86v-127q0 -53 -9 -86.5t-29 -52t-52.5 -25t-79.5 -6.5h-121zM222 672q-29 0 -46.5 -6t-26.5 -20.5t-11.5 -37.5t-2.5 -56v-94 q0 -32 2.5 -55t11.5 -37.5t26.5 -21.5t46.5 -7h145q30 0 47 6.5t26 21t11.5 37.5t2.5 56v94q0 34 -2.5 57t-11.5 37t-26 20t-47 6h-145zM878 -10q-48 0 -80.5 7t-52 25.5t-28 51.5t-8.5 84v124q0 54 8 88t27 53.5t51.5 27t82.5 7.5h122q47 0 79.5 -7t52.5 -25.5t28.5 -52 t8.5 -86.5v-126q0 -53 -8.5 -86.5t-28.5 -52.5t-52.5 -25.5t-79.5 -6.5h-122zM867 393q-29 0 -46 -6t-26 -20.5t-11.5 -37.5t-2.5 -56v-94q0 -32 2.5 -55t11.5 -37.5t26 -21.5t46 -7h146q30 0 47 6.5t26 21t11.5 37.5t2.5 56v94q0 34 -2.5 57t-11.5 37t-26 20t-47 6h-146z M774 736l-251 -745h-67l252 745h66zM1411 -10q-48 0 -80.5 7t-52.5 25.5t-28.5 51.5t-8.5 84v124q0 54 8 88t27.5 53.5t52 27t82.5 7.5h121q47 0 79.5 -7t52.5 -25.5t29 -52t9 -86.5v-126q0 -53 -9 -86.5t-29 -52.5t-52.5 -25.5t-79.5 -6.5h-121zM1400 393q-29 0 -46.5 -6 t-26.5 -20.5t-11.5 -37.5t-2.5 -56v-94q0 -32 2.5 -55t11.5 -37.5t26.5 -21.5t46.5 -7h145q30 0 47 6.5t26 21t11.5 37.5t2.5 56v94q0 34 -2.5 57t-11.5 37t-26 20t-47 6h-145z"/>
<glyph glyph-name="guilsinglleft" horiz-adv-x="292" unicode="‹" d="M154 106l-108 158l108 155h92l-108 -155l108 -158h-92z"/>
<glyph glyph-name="guilsinglright" horiz-adv-x="292" unicode="›" d="M153 264l-107 155h91l108 -155l-108 -158h-91z"/>
<glyph glyph-name="trademark" horiz-adv-x="833" unicode="™" d="M339 678h-84v-228h-46v228h-85v33h215v-33zM541 513l73 198h64v-261h-40v224l-84 -224h-26l-88 224v-224h-40v261h63z"/>
<glyph glyph-name="minus" horiz-adv-x="833" unicode="−" d="M709 269h-585v58h585v-58z"/>
</font>
</defs>
</svg>
