<?xml version="1.0" encoding="UTF-8" standalone="no"?>
<!DOCTYPE svg  PUBLIC '-//W3C//DTD SVG 1.1//EN'  'http://www.w3.org/Graphics/SVG/1.1/DTD/svg11.dtd'>
<svg xmlns="http://www.w3.org/2000/svg">
<defs>
<font id="Square721BT-Roman" horiz-adv-x="565">
<font-face underline-position="-48" font-weight="400" descent="-200" panose-1="2 0 5 3 3 0 0 2 0 4" units-per-em="1000" unicode-range="U+0020-2212" bbox="-81 -236 1300 990" x-height="514" underline-thickness="51" font-family="Square721BT" ascent="800" cap-height="727"/>
<missing-glyph horiz-adv-x="1000"/>
<glyph glyph-name=".notdef" horiz-adv-x="1000"/>
<glyph glyph-name=".null" horiz-adv-x="0"/>
<glyph glyph-name="nonmarkingreturn" horiz-adv-x="1000"/>
<glyph glyph-name="space" horiz-adv-x="338" unicode=" "/>
<glyph glyph-name="space" horiz-adv-x="338" unicode=" "/>
<glyph glyph-name="exclam" horiz-adv-x="252" unicode="!" d="M88 94h76v-94h-76v94zM88 727h76l-4 -532h-67z"/>
<glyph glyph-name="quotedbl" horiz-adv-x="278" unicode='&quot;' d="M97 430h-49v270h49v-270zM231 430h-50v270h50v-270z"/>
<glyph glyph-name="numbersign" horiz-adv-x="769" unicode="#" d="M366 474h129l84 236h62l-83 -236h154l-18 -52h-155l-48 -136h166l-18 -52h-166l-83 -234h-63l84 234h-131l-84 -234h-62l83 234h-160l19 52h159l49 136h-172l17 52h173l84 236h62zM346 422l-47 -136h130l47 136h-130z"/>
<glyph glyph-name="dollar" horiz-adv-x="676" unicode="$" d="M143 237q0 -8 -0.5 -16t-0.5 -16q0 -40 6 -66.5t20.5 -42.5t39.5 -22.5t63 -6.5h17t19 1v267q-64 1 -108 10.5t-71.5 31.5t-40 58.5t-12.5 92.5t11 95.5t35 65t62 37t92 11.5h16t16 -1v51h70v-51h20q108 0 156 -40t48 -133q0 -10 -0.5 -20t-1.5 -21h-77q1 8 1 16v15 q0 32 -6.5 52.5t-21.5 32.5t-40.5 16.5t-63.5 4.5h-14v-250q65 -2 109.5 -12t71.5 -32.5t39 -60t12 -93.5q0 -59 -11 -101.5t-34.5 -69.5t-61 -39.5t-90.5 -12.5h-17t-18 1v-47h-70v47q-7 0 -14 -0.5t-13 -0.5q-113 0 -164 48t-51 157q0 11 0.5 21.5t1.5 22.5h76zM396 65 q40 0 66.5 7t41.5 23.5t21 44t6 68.5q0 36 -7 59.5t-24.5 37.5t-47.5 20t-75 7v-267h19zM286 661q-40 0 -66 -6.5t-41 -22t-20.5 -41t-5.5 -63.5q0 -34 6.5 -55.5t24 -34t47 -18t76.5 -8.5v249h-21z"/>
<glyph glyph-name="percent" horiz-adv-x="907" unicode="%" d="M678 -9q-42 0 -70.5 8t-45.5 26.5t-24.5 48.5t-7.5 73v153q0 43 7.5 72.5t24.5 48t45.5 27t70.5 8.5h44q42 0 71 -8.5t46 -27t24.5 -48t7.5 -72.5v-153q0 -43 -7.5 -73t-24.5 -48.5t-46 -26.5t-71 -8h-44zM185 271q-42 0 -70.5 8t-46 26.5t-25 48t-7.5 72.5v154 q0 43 7.5 72.5t25 48t46 27t70.5 8.5h44q42 0 70.5 -8.5t46 -27t24.5 -48t7 -72.5v-154q0 -43 -7 -72.5t-24.5 -48t-46 -26.5t-70.5 -8h-44zM718 57q30 0 47.5 4.5t26.5 16.5t12 32t3 52v123q0 31 -2.5 51.5t-12 32.5t-27 17t-47.5 5h-35q-30 0 -47.5 -5t-27 -17t-12 -32.5 t-2.5 -51.5v-123q0 -32 3 -52.5t12 -32t26.5 -16t47.5 -4.5h35zM225 337q30 0 47.5 4.5t26.5 16.5t11.5 32t2.5 52v123q0 31 -2.5 51.5t-11.5 32.5t-26.5 17t-47.5 5h-36q-30 0 -47.5 -5t-27 -17t-12 -32.5t-2.5 -51.5v-123q0 -32 3 -52.5t12 -32t26.5 -16t47.5 -4.5h36z M547 736h69l-257 -745h-69z"/>
<glyph glyph-name="ampersand" horiz-adv-x="727" unicode="&amp;" d="M590 90q-15 -33 -39 -53t-58 -30.5t-79.5 -13.5t-102.5 -3q-39 0 -71.5 2t-59.5 8t-48.5 18.5t-39.5 33.5q-22 26 -29.5 69.5t-7.5 106.5q0 88 28.5 135t102.5 62q-67 47 -67 154q0 47 12 77.5t38 48t67 24.5t100 7q114 0 167 -36t53 -123v-61h-81v56q0 32 -7.5 50 t-24 26.5t-43 10t-64.5 1.5t-63.5 -1.5t-41 -9.5t-22 -24.5t-6.5 -45.5q0 -27 4.5 -45t14 -32t23.5 -26.5t32 -27.5l262 -219v101h81v-107q0 -21 -6 -57l137 -114l-47 -57zM256 370q-37 -1 -60 -10t-36 -27t-17.5 -46t-4.5 -67q0 -48 4.5 -78.5t24.5 -47.5q22 -19 68 -23 t119 -4q75 0 116.5 17t53.5 62z"/>
<glyph glyph-name="quotesingle" horiz-adv-x="144" unicode="&apos;" d="M97 430h-49v270h49v-270z"/>
<glyph glyph-name="parenleft" horiz-adv-x="324" unicode="(" d="M74 487q0 67 8.5 114.5t29 77.5t54.5 43.5t85 13.5h31v-76h-22q-35 0 -55 -8.5t-30.5 -29t-13.5 -54t-3 -84.5v-241q0 -51 3 -84.5t13.5 -54t30.5 -29t55 -8.5h22v-76h-31q-51 0 -85 13.5t-54.5 43.5t-29 77t-8.5 115v247z"/>
<glyph glyph-name="parenright" horiz-adv-x="324" unicode=")" d="M250 240q0 -68 -8.5 -115t-29 -77t-54.5 -43.5t-85 -13.5h-31v76h22q35 0 55 8.5t30.5 29t13.5 54t3 84.5v241q0 51 -3 84.5t-13.5 54t-30.5 29t-55 8.5h-22v76h31q51 0 85 -13.5t54.5 -43.5t29 -77.5t8.5 -114.5v-247z"/>
<glyph glyph-name="asterisk" horiz-adv-x="500" unicode="*" d="M177 735l70 -120l-56 -32l-69 120zM378 703l-69 -121l-56 33l70 120zM312 577h139v-65h-139v65zM309 507l69 -120l-55 -32l-70 120zM49 512v65h138v-65h-138zM247 475l-70 -121l-55 32l69 121z"/>
<glyph glyph-name="plus" horiz-adv-x="833" unicode="+" d="M441 322h268v-48h-268v-274h-48v274h-269v48h269v274h48v-274z"/>
<glyph glyph-name="comma" horiz-adv-x="338" unicode="," d="M126 106h86v-128q0 -38 -22 -59.5t-64 -21.5v45q19 2 27.5 10t8.5 26v22h-36v106z"/>
<glyph glyph-name="hyphen" horiz-adv-x="403" unicode="-" d="M65 305h273v-68h-273v68z"/>
<glyph glyph-name="hyphen" horiz-adv-x="403" unicode="­" d="M65 305h273v-68h-273v68z"/>
<glyph glyph-name="period" horiz-adv-x="338" unicode="." d="M65 106h85v-106h-85v106z"/>
<glyph glyph-name="slash" horiz-adv-x="266" unicode="/" d="M-23 -93l258 829h68l-259 -829h-67z"/>
<glyph glyph-name="zero" horiz-adv-x="676" unicode="0" d="M303 -9q-68 0 -113.5 13t-73 42.5t-39.5 77t-12 116.5v247q0 69 12 116.5t39.5 77t73 42.5t113.5 13h70q67 0 113 -13t73.5 -42.5t39.5 -77t12 -116.5v-247q0 -69 -12 -116.5t-39.5 -77t-73.5 -42.5t-113 -13h-70zM370 66q44 0 74.5 5t52.5 28q23 23 27 57.5t4 84.5v244 q0 50 -4 84.5t-27 57.5q-21 22 -51.5 28t-75.5 6h-64q-45 0 -75.5 -5t-51.5 -28q-23 -23 -27 -58t-4 -85v-243q0 -50 4 -85t27 -58q21 -23 51.5 -28t75.5 -5h64z"/>
<glyph glyph-name="one" horiz-adv-x="676" unicode="1" d="M357 655l-171 -172l-50 49l195 195h105v-727h-79v655z"/>
<glyph glyph-name="two" horiz-adv-x="676" unicode="2" d="M73 123q0 47 7 82.5t31 64.5q25 30 61 44.5t83 27.5l164 45q78 21 96 49q10 14 11.5 37.5t1.5 58.5q0 40 -4.5 65.5t-26.5 42.5q-28 21 -179 21q-49 0 -80.5 -4t-49.5 -16.5t-25 -36.5t-7 -64v-43h-83v48q0 59 14 96t44 58t77.5 29t114.5 8q72 0 119 -3.5t72 -14.5 q31 -14 49.5 -31t28.5 -40t13 -53t3 -69q0 -47 -5 -80t-21 -57t-44.5 -41t-75.5 -30l-203 -57q-26 -8 -45.5 -15t-32.5 -18.5t-19 -28t-6 -42.5v-80h452v-76h-535v123z"/>
<glyph glyph-name="three" horiz-adv-x="676" unicode="3" d="M152 241v-65q0 -38 10.5 -60t33.5 -33t59.5 -14t88.5 -3q69 0 110.5 6.5t59.5 32.5q9 14 11 42.5t2 73.5q0 29 -4 50.5t-17.5 35t-38.5 20t-67 6.5h-111v74h101q40 0 64.5 7t37.5 22t17.5 40t4.5 61q0 38 -3 63t-22 40q-14 11 -53.5 15.5t-106.5 4.5q-45 0 -76.5 -3 t-51 -12.5t-28 -28.5t-8.5 -51v-66h-81v64q0 49 14.5 82.5t44.5 53.5t75.5 28.5t108.5 8.5q70 0 118 -3.5t76 -17.5q47 -23 61.5 -63.5t14.5 -109.5q0 -38 -4 -66.5t-15 -49t-31 -33t-52 -19.5q34 -7 56 -19t35 -31.5t18 -46.5t5 -64q0 -43 -4 -77t-15 -61 q-12 -27 -32.5 -43.5t-50.5 -25.5t-70 -12t-91 -3q-39 0 -72 0.5t-60.5 4.5t-49.5 13t-40 25q-29 26 -41 62.5t-12 87.5v57h81z"/>
<glyph glyph-name="four" horiz-adv-x="676" unicode="4" d="M55 262l356 465h112v-481h111v-77h-111v-169h-81v169h-387v93zM442 246v401l-308 -401h308z"/>
<glyph glyph-name="five" horiz-adv-x="676" unicode="5" d="M150 213v-48q0 -33 10 -53t32 -30t56.5 -13t83.5 -3h25q46 0 78 6t58 36q14 17 17 41.5t3 59.5v33q0 41 -2.5 72t-13.5 54q-19 37 -57.5 47t-103.5 10q-86 0 -128.5 -13t-44.5 -57h-80v372h480v-77h-400v-209q14 19 31.5 30t40 16t50 6.5t61.5 1.5q62 0 107 -6t77 -32 q21 -17 34 -38t19.5 -47t9 -57.5t2.5 -69.5q0 -71 -9 -120t-43 -81q-20 -18 -42 -29t-47.5 -16t-54.5 -6.5t-62 -1.5q-42 0 -77 1.5t-63 7t-50 17t-39 31.5q-39 47 -39 118v47h81z"/>
<glyph glyph-name="six" horiz-adv-x="676" unicode="6" d="M529 275q0 34 -9.5 53.5t-31.5 29t-58 12t-89 2.5q-66 0 -106.5 -7t-59.5 -27q-14 -15 -18.5 -42t-4.5 -69q0 -90 17 -111q13 -17 31 -26.5t42 -14t54 -5.5t68 -1q50 0 82 3.5t50.5 14.5t25.5 31t7 53v104zM76 537q0 54 11.5 92t37 61.5t66 34.5t99.5 11h113 q109 0 158.5 -37t49.5 -123v-39h-81v23q0 33 -8.5 52.5t-29 30t-54 13.5t-82.5 3q-63 0 -103 -3.5t-60 -16.5q-17 -11 -28.5 -36t-11.5 -58v-173q11 24 29 38.5t43.5 22.5t58.5 10.5t75 2.5q63 0 110 -7t78 -24t46.5 -45.5t15.5 -71.5v-132q0 -105 -60 -144q-38 -24 -92 -28 t-129 -4q-69 0 -117 10t-78 34.5t-43.5 65.5t-13.5 103v334z"/>
<glyph glyph-name="seven" horiz-adv-x="676" unicode="7" d="M85 727h522v-80l-351 -647h-97l363 650h-437v77z"/>
<glyph glyph-name="eight" horiz-adv-x="676" unicode="8" d="M171 378q-27 7 -45 19.5t-28 31t-14 44.5t-4 61q0 44 4 77.5t23 62.5q26 39 83 50.5t152 11.5q80 0 130.5 -8t73.5 -28q17 -14 27 -30.5t15.5 -36t7 -42.5t1.5 -51q0 -74 -19.5 -113t-74.5 -49q32 -8 52 -21.5t31.5 -33.5t16 -48t4.5 -65q0 -64 -8 -107t-37 -69 q-31 -28 -87.5 -35.5t-144.5 -7.5q-44 0 -80 2t-64.5 9t-50.5 19.5t-38 32.5q-18 23 -23 60.5t-5 93.5q0 37 4 65t15 48.5t31 34t52 22.5zM337 67q60 0 99 4.5t58 19.5q22 17 27 43.5t5 66.5q0 33 -3 57t-14 41q-17 27 -58.5 33.5t-113.5 6.5q-62 0 -100.5 -4t-57.5 -20 q-17 -14 -23 -40t-6 -65q0 -40 3.5 -67t19.5 -44q18 -20 58.5 -26t105.5 -6zM343 411q51 0 84.5 4t52.5 16.5t26.5 36.5t7.5 64q0 32 -2 55t-13 39q-13 20 -53 27t-110 7q-62 0 -100 -5.5t-54 -20.5q-14 -14 -17 -39.5t-3 -66.5q0 -39 8.5 -62.5t29 -35.5t55.5 -15.5 t88 -3.5z"/>
<glyph glyph-name="nine" horiz-adv-x="676" unicode="9" d="M590 188q0 -54 -11.5 -91.5t-37 -61.5t-66 -34.5t-99.5 -10.5h-113q-110 0 -159 36.5t-49 122.5v39h81v-23q0 -33 8.5 -52.5t29 -30t53.5 -13.5t83 -3q63 0 103 3.5t60 16.5q17 11 28.5 36t11.5 58v174q-23 -47 -73 -60.5t-134 -13.5q-63 0 -110 7t-77.5 24t-46 45 t-15.5 71v133q0 104 60 143q38 24 91.5 28.5t128.5 4.5q69 0 117 -10t78 -34.5t44 -65.5t14 -103v-335zM137 450q0 -34 9.5 -53.5t31.5 -29t58 -12t89 -2.5q66 0 106.5 7t59.5 27q14 15 18 42t4 69q0 45 -3.5 72.5t-12.5 38.5q-13 17 -31.5 27t-42.5 14.5t-54.5 5.5t-67.5 1 q-50 0 -82 -4t-50 -15t-25 -31t-7 -53v-104z"/>
<glyph glyph-name="colon" horiz-adv-x="338" unicode=":" d="M126 514h86v-107h-86v107zM126 106h86v-106h-86v106z"/>
<glyph glyph-name="less" horiz-adv-x="833" unicode="&lt;" d="M205 298l499 -202v-53l-575 235v40l575 236v-53z"/>
<glyph glyph-name="equal" horiz-adv-x="833" unicode="=" d="M709 365h-585v48h585v-48zM709 183h-585v48h585v-48z"/>
<glyph glyph-name="greater" horiz-adv-x="833" unicode="&gt;" d="M704 278l-575 -235v53l499 202l-499 203v53l575 -236v-40z"/>
<glyph glyph-name="question" horiz-adv-x="519" unicode="?" d="M187 257q0 28 8 47.5t22.5 33.5t36 25t48.5 23q33 14 56.5 26t35.5 29q18 27 18 105q0 36 -6 58t-20 35t-36.5 17.5t-54.5 4.5q-61 0 -98 -3t-52 -14q-16 -12 -22 -37.5t-6 -66.5v-17.5t1 -20.5h-80v72q0 48 13.5 79t42 49.5t72.5 26t104 7.5t102 -8t68 -29.5t38 -59 t12 -95.5q0 -42 -3.5 -74t-13.5 -55.5t-26.5 -40.5t-42.5 -29q-33 -15 -58.5 -26t-43 -22t-26 -25t-8.5 -36v-37h-81v58zM187 93h81v-93h-81v93z"/>
<glyph glyph-name="at" horiz-adv-x="1000" unicode="@" d="M621 350q-9 46 -37 71.5t-68 25.5q-38 0 -70 -17.5t-55 -48.5t-35.5 -73t-12.5 -91q0 -55 26.5 -85t74.5 -30q52 0 92.5 34.5t54.5 92.5zM663 469h46l-68 -274q-4 -17 -6 -27.5t-2 -17.5q0 -21 13.5 -33t38.5 -12q24 0 50.5 10t52.5 30q47 37 73.5 98.5t26.5 139.5 q0 60 -25 112t-70 90t-108.5 59.5t-141.5 21.5q-171 0 -284 -97q-145 -124 -145 -319q0 -85 28.5 -148.5t90.5 -113.5q49 -40 118 -62.5t148 -22.5q85 0 164.5 24.5t145.5 69.5l19 -27q-144 -108 -319 -108q-187 0 -304 90q-76 58 -112 133.5t-36 176.5q0 100 42 186.5 t123 153.5q131 108 322 108q82 0 152.5 -22t119.5 -60q63 -49 95 -111.5t32 -136.5q0 -85 -30.5 -152t-88.5 -113q-69 -54 -151 -54q-94 0 -94 74q0 3 0.5 6.5t0.5 7.5q-25 -43 -62 -65.5t-82 -22.5q-75 0 -114 41t-39 119q0 57 18 106t48.5 84.5t72 56t88.5 20.5 q92 0 124 -80z"/>
<glyph glyph-name="A" horiz-adv-x="692" unicode="A" d="M280 727h132l270 -727h-83l-69 186h-368l-68 -186h-83zM504 258l-145 392h-26l-144 -392h315z"/>
<glyph glyph-name="B" horiz-adv-x="701" unicode="B" d="M90 727h338q59 0 96.5 -8t59.5 -28t30 -55t8 -90q0 -37 -3 -64.5t-12.5 -47.5t-26 -33t-43.5 -20q32 -8 52 -22t31.5 -35.5t15.5 -51t4 -69.5q0 -62 -11 -101.5t-38.5 -62t-73 -31t-114.5 -8.5h-313v727zM434 76q44 0 68.5 7t36.5 23.5t14.5 43t2.5 64.5q0 43 -7 68 t-26.5 38t-53 16t-85.5 3h-215v-263h265zM431 413q35 0 56.5 6t33 20.5t15 38.5t3.5 59q0 38 -4.5 60.5t-19.5 34t-43.5 15t-75.5 3.5h-227v-237h262z"/>
<glyph glyph-name="C" horiz-adv-x="683" unicode="C" d="M65 487q0 69 12.5 117t41 77t74.5 42t114 13h85q64 0 110 -10.5t75.5 -34.5t43.5 -63.5t14 -98.5v-32h-83v20q0 44 -8.5 72t-28 43.5t-51.5 21.5t-78 6h-56q-50 0 -85 -5.5t-61 -29.5q-26 -25 -31 -63t-5 -95v-207q0 -57 5 -95t31 -63q27 -26 62.5 -30.5t83.5 -4.5h56 q48 0 80 6t51.5 23t27.5 47t8 77v17t-1 18h83v-48q0 -63 -13 -104.5t-42 -66t-75 -35t-113 -10.5h-85q-68 0 -114 13t-74.5 42t-41 77t-12.5 117v247z"/>
<glyph glyph-name="D" horiz-adv-x="750" unicode="D" d="M426 72q51 0 84.5 7.5t54 26.5t29 52t8.5 85v235q0 53 -8 87.5t-28 54.5t-54 27.5t-86 7.5h-258v-583h258zM88 727h351q69 0 116 -13t76 -41.5t42 -75t13 -113.5v-240q0 -67 -13 -113.5t-42 -75.5t-76 -42t-116 -13h-351v727z"/>
<glyph glyph-name="E" horiz-adv-x="639" unicode="E" d="M88 727h510v-77h-430v-238h418v-74h-418v-262h430v-76h-510v727z"/>
<glyph glyph-name="F" horiz-adv-x="593" unicode="F" d="M88 727h454v-77h-374v-238h363v-74h-363v-338h-80v727z"/>
<glyph glyph-name="G" horiz-adv-x="734" unicode="G" d="M60 487q0 70 13.5 117.5t44.5 77t81 42t123 12.5h92q133 0 197.5 -44.5t64.5 -143.5v-31h-83v9q0 41 -10.5 67t-33 41t-57 20.5t-83.5 5.5h-64q-54 0 -93.5 -5t-69.5 -31q-27 -23 -32.5 -60.5t-5.5 -96.5v-207q0 -59 5.5 -96.5t32.5 -60.5q31 -26 70 -31t93 -5h64 q49 0 84.5 4.5t63.5 27.5q25 21 30.5 55.5t5.5 88.5v45h-202v74h285v-122q0 -70 -13.5 -117.5t-44.5 -77t-81 -42t-123 -12.5h-92q-73 0 -123 12.5t-81 42t-44.5 77t-13.5 117.5v247z"/>
<glyph glyph-name="H" horiz-adv-x="755" unicode="H" d="M88 727h80v-314h419v314h80v-727h-80v337h-419v-337h-80v727z"/>
<glyph glyph-name="I" horiz-adv-x="257" unicode="I" d="M88 727h81v-727h-81v727z"/>
<glyph glyph-name="J" horiz-adv-x="590" unicode="J" d="M104 255v-12q0 -53 4.5 -87t18.5 -53.5t40 -27.5t70 -8h58q44 0 70.5 8t40.5 28t18 54t4 86v484h81v-508q0 -62 -11.5 -105.5t-36.5 -70.5t-64.5 -39.5t-94.5 -12.5h-72q-59 0 -98.5 13t-63.5 42.5t-34.5 77t-10.5 116.5v15h81z"/>
<glyph glyph-name="K" horiz-adv-x="669" unicode="K" d="M88 727h80v-308h62l295 308h106l-335 -347l378 -380h-110l-334 341h-62v-341h-80v727z"/>
<glyph glyph-name="L" horiz-adv-x="597" unicode="L" d="M88 727h79v-651h412v-76h-491v727z"/>
<glyph glyph-name="M" horiz-adv-x="937" unicode="M" d="M88 727h132l249 -648l247 648h133v-727h-80v659l-251 -659h-99l-251 659v-659h-80v727z"/>
<glyph glyph-name="N" horiz-adv-x="775" unicode="N" d="M88 727h124l394 -649v649h80v-727h-124l-394 650v-650h-80v727z"/>
<glyph glyph-name="O" horiz-adv-x="745" unicode="O" d="M65 487q0 70 13.5 117.5t44.5 77t81 42t123 12.5h92q73 0 123.5 -12.5t81 -41.5t44 -76.5t13.5 -118.5v-247q0 -70 -13.5 -117.5t-44.5 -77t-81 -42t-123 -12.5h-92q-73 0 -123 12.5t-81 42t-44.5 77t-13.5 117.5v247zM350 660q-54 0 -93 -5t-70 -31q-27 -23 -33 -61 t-6 -97v-206q0 -59 6 -96.5t33 -60.5q31 -26 70 -31t93 -5h45q54 0 93.5 5t70.5 31q27 23 32.5 61t5.5 96v207q0 58 -6 96.5t-33 61.5q-30 26 -69.5 30.5t-93.5 4.5h-45z"/>
<glyph glyph-name="P" horiz-adv-x="655" unicode="P" d="M88 727h306q58 0 99 -7.5t67 -26.5t37.5 -51t11.5 -81v-110q0 -50 -11.5 -82.5t-37 -52t-66.5 -27t-100 -7.5h-226v-282h-80v727zM525 558q0 31 -7.5 49t-23.5 27.5t-41 12.5t-60 3h-225v-291h225q33 0 58 3t41.5 12.5t24.5 27.5t8 49v107z"/>
<glyph glyph-name="Q" horiz-adv-x="745" unicode="Q" d="M65 487q0 70 13.5 117.5t44.5 77t81 42t123 12.5h92q73 0 123.5 -12.5t81 -41.5t44 -76.5t13.5 -118.5v-247q0 -57 -6.5 -96t-30.5 -65l44 -44l-53 -54l-46 47q-24 -24 -65.5 -30.5t-104.5 -6.5h-92q-73 0 -123 12.5t-81 42t-44.5 77t-13.5 117.5v247zM597 467 q0 58 -6 96.5t-33 61.5q-30 26 -69.5 30.5t-93.5 4.5h-45q-54 0 -93 -5t-70 -31q-27 -23 -33 -61t-6 -97v-206q0 -59 6 -96.5t33 -60.5q31 -26 70 -31t93 -5h63q48 0 79 2.5t45 10.5l-137 137l51 52l139 -137q3 18 5 45.5t2 65.5v224z"/>
<glyph glyph-name="R" horiz-adv-x="699" unicode="R" d="M88 727h328q58 0 99 -7.5t67 -26.5t37.5 -51t11.5 -81v-110q0 -114 -94 -130q54 -13 74 -46.5t20 -99.5v-175h-84v150q0 40 -5.5 65.5t-19.5 40.5t-37.5 21t-58.5 6h-258v-283h-80v727zM168 650v-291h232q37 0 65 3t46 14t27 31t9 55v85q0 35 -8.5 55.5t-26.5 31 t-45.5 13.5t-66.5 3h-232z"/>
<glyph glyph-name="S" horiz-adv-x="713" unicode="S" d="M149 237v-14q0 -57 8 -91t34 -48q24 -14 74.5 -16t130.5 -2q57 0 93 7t54 27q18 19 18 97q0 34 -2 57t-10 37.5t-24 22t-45 9.5l-224 18q-48 4 -82 15t-55.5 33t-31 57.5t-9.5 87.5q0 59 11.5 99t42.5 67q29 26 78.5 31t122.5 5h26q40 0 74 -1t62.5 -5.5t53 -14.5 t44.5 -27q41 -35 41 -131v-17t-1 -18h-81v18q0 35 -4 58t-16 35q-19 19 -68 23t-133 4q-49 0 -81.5 -3.5t-52 -16t-28 -38t-8.5 -69.5q0 -32 4 -52.5t14.5 -33.5t28 -19.5t44.5 -8.5l229 -19q46 -4 77 -16.5t50 -35t27 -56t8 -81.5q0 -57 -7 -97.5t-33 -69.5 q-17 -20 -40 -30.5t-51.5 -16t-64 -6.5t-78.5 -1h-36q-71 0 -123 6.5t-89 39.5q-29 25 -41 65.5t-12 99.5v18t1 18h80z"/>
<glyph glyph-name="T" horiz-adv-x="522" unicode="T" d="M-11 727h544v-77h-232v-650h-81v650h-231v77z"/>
<glyph glyph-name="U" horiz-adv-x="748" unicode="U" d="M162 727v-477q0 -53 5 -87t29 -56q26 -23 59.5 -27.5t80.5 -4.5h76q47 0 81 4.5t60 27.5q23 21 28 55t5 88v477h81v-487q0 -70 -13 -117.5t-42 -77t-77 -42t-117 -12.5h-88q-69 0 -117 12.5t-77 42t-42 77t-13 117.5v487h81z"/>
<glyph glyph-name="V" horiz-adv-x="650" unicode="V" d="M87 727l232 -652l233 652h85l-266 -727h-104l-266 727h86z"/>
<glyph glyph-name="W" horiz-adv-x="1007" unicode="W" d="M113 727l166 -629l167 629h114l168 -629l166 629h84l-198 -727h-103l-174 640l-171 -640h-107l-195 727h83z"/>
<glyph glyph-name="X" horiz-adv-x="637" unicode="X" d="M278 382l-257 345h93l205 -285l204 285h94l-257 -344l283 -383h-91l-232 324l-235 -324h-92z"/>
<glyph glyph-name="Y" horiz-adv-x="595" unicode="Y" d="M258 0v322l-301 405h95l245 -339l245 339h95l-300 -404v-323h-79z"/>
<glyph glyph-name="Z" horiz-adv-x="650" unicode="Z" d="M47 87l467 568h-446v72h531v-85l-464 -566h464v-76h-552v87z"/>
<glyph glyph-name="bracketleft" horiz-adv-x="324" unicode="[" d="M282 727v-77h-130v-573h130v-77h-208v727h208z"/>
<glyph glyph-name="backslash" horiz-adv-x="266" unicode="\" d="M235 -93l-259 829h69l258 -829h-68z"/>
<glyph glyph-name="bracketright" horiz-adv-x="324" unicode="]" d="M250 0h-208v77h130v573h-130v77h208v-727z"/>
<glyph glyph-name="asciicircum" horiz-adv-x="1000" unicode="^" d="M793 440h-70l-223 222l-224 -222h-70l260 272h68z"/>
<glyph glyph-name="underscore" horiz-adv-x="500" unicode="_" d="M500 -236h-500v49h500v-49z"/>
<glyph glyph-name="grave" horiz-adv-x="500" unicode="`" d="M135 745h74l102 -170h-45z"/>
<glyph glyph-name="a" d="M419 54q-19 -34 -58.5 -47.5t-103.5 -13.5q-56 0 -95 6.5t-63 24.5t-34.5 50t-10.5 82q0 49 8.5 81.5t32.5 52.5q21 17 59.5 23t98.5 6q63 0 102.5 -10.5t59.5 -39.5v89q0 34 -6 54t-22.5 30t-45 13t-73.5 3q-32 0 -54.5 -2.5t-37 -10.5t-21 -22t-6.5 -36h-76v12 q0 70 46 96t144 26q72 0 118 -6t69 -23q29 -23 35 -54.5t6 -77.5v-360h-69zM415 185q0 38 -39 54.5t-117 16.5q-36 0 -60 -4t-38.5 -14t-20.5 -27.5t-6 -45.5q0 -31 6 -50.5t21 -31t41 -15.5t65 -4q75 0 111.5 17.5t36.5 49.5v54z" unicode="a"/>
<glyph glyph-name="b" horiz-adv-x="574" unicode="b" d="M80 727h76v-286q23 45 61 62.5t99 17.5q56 0 94 -11t61.5 -35.5t34 -63t10.5 -93.5v-122q0 -55 -10.5 -93.5t-34 -63t-61.5 -35.5t-94 -11q-65 0 -104.5 20t-58.5 66v-79h-73v727zM156 215q0 -81 37 -117t120 -36q42 0 66.5 7.5t37 24.5t16.5 46t4 73v88q0 43 -4 72.5 t-16.5 46.5t-37 24.5t-66.5 7.5q-83 0 -120 -36t-37 -117v-84z"/>
<glyph glyph-name="c" d="M265 -7q-58 0 -97.5 10.5t-64 34.5t-35 63t-10.5 95v122q0 56 10.5 95t34.5 63t63.5 34.5t97.5 10.5h36q106 0 155.5 -41t51.5 -138h-79q-1 34 -8.5 55t-22.5 33t-39 16.5t-58 4.5h-36q-42 0 -67.5 -6.5t-38.5 -23.5t-17 -46t-4 -74v-88q0 -45 4 -74t17 -46.5t38.5 -24 t67.5 -6.5h36q35 0 59.5 5t39.5 18.5t22 36.5t7 59v9h79v-10q0 -102 -48.5 -144.5t-157.5 -42.5h-36z" unicode="c"/>
<glyph glyph-name="d" horiz-adv-x="574" unicode="d" d="M421 79q-19 -46 -58 -66t-104 -20q-56 0 -94.5 11t-62 35.5t-34 63t-10.5 93.5v122q0 55 10.5 93.5t34 63t62 35.5t94.5 11q61 0 98.5 -17.5t60.5 -62.5v286h76v-727h-73v79zM418 299q0 81 -37 117t-120 36q-42 0 -66.5 -7.5t-37 -24.5t-16.5 -46.5t-4 -72.5v-88 q0 -44 4 -73t16.5 -46t37 -24.5t66.5 -7.5q83 0 120 36t37 117v84z"/>
<glyph glyph-name="e" d="M265 -7q-58 0 -97.5 10.5t-64 34.5t-35 63t-10.5 95v122q0 56 10.5 95t34.5 63t63.5 34.5t97.5 10.5h36q58 0 97.5 -10.5t64 -34.5t35 -63t10.5 -95v-78h-370q-1 -12 -1 -23v-21q0 -41 6 -67t20.5 -41t39 -20.5t62.5 -5.5h36q31 0 53.5 3.5t38 13.5t24 27.5t11.5 44.5h79 q-6 -86 -55.5 -122t-149.5 -36h-36zM428 307v20q0 38 -6.5 62t-21.5 38t-39.5 19t-60.5 5h-36q-36 0 -60.5 -5t-39.5 -19t-21 -38t-6 -62v-20h291z" unicode="e"/>
<glyph glyph-name="f" horiz-adv-x="336" unicode="f" d="M23 514h72q-1 9 -1 18v17q0 49 8 83t26 55t47.5 30.5t72.5 9.5q20 0 41 -1t44 -3v-69q-20 1 -36 1.5t-28 0.5q-34 0 -53.5 -5t-29.5 -17.5t-12.5 -33t-2.5 -51.5v-35h162v-65h-162v-449h-76v449h-72v65z"/>
<glyph glyph-name="g" horiz-adv-x="588" unicode="g" d="M509 6q0 -56 -10.5 -95t-34 -63t-62 -34.5t-94.5 -10.5h-35q-98 0 -145.5 36t-53.5 122h77q3 -27 11 -44.5t23 -27t37 -13t52 -3.5h34q63 0 94 20t31 74v106q-23 -45 -61 -62.5t-99 -17.5q-56 0 -94 11t-61.5 35.5t-34 63t-10.5 93.5v122q0 55 10.5 93.5t34 63t61.5 35.5 t94 11q65 0 104.5 -20.5t58.5 -66.5v80h73v-508zM433 299q0 81 -37 117t-120 36q-42 0 -66.5 -7.5t-37.5 -24.5t-17 -46.5t-4 -72.5v-88q0 -44 4 -73t17 -46t37.5 -24.5t66.5 -7.5q83 0 120 36t37 117v84z"/>
<glyph glyph-name="h" horiz-adv-x="576" unicode="h" d="M79 727h73v-283q19 40 60 58.5t108 18.5q51 0 86 -10t56.5 -32t30.5 -57t9 -85v-337h-76v321q0 37 -4.5 62.5t-17 40.5t-35 21.5t-59.5 6.5q-81 0 -118 -36.5t-37 -116.5v-299h-76v727z"/>
<glyph glyph-name="i" horiz-adv-x="234" unicode="i" d="M79 514h76v-514h-76v514zM79 727h76v-86h-76v86z"/>
<glyph glyph-name="j" horiz-adv-x="248" unicode="j" d="M94 727h77v-86h-77v86zM171 -75q0 -122 -104 -122q-14 0 -36 3v60h26q26 0 31.5 24.5t5.5 75.5v548h77v-589z"/>
<glyph glyph-name="k" horiz-adv-x="484" unicode="k" d="M79 727h76v-413h23l168 200h87l-194 -229l232 -285h-96l-197 244h-23v-244h-76v727z"/>
<glyph glyph-name="l" horiz-adv-x="234" unicode="l" d="M79 727h76v-727h-76v727z"/>
<glyph glyph-name="m" horiz-adv-x="884" unicode="m" d="M90 514h74v-70q32 77 154 77q63 0 100.5 -19t56.5 -66q23 46 60 65.5t96 19.5q51 0 85.5 -9.5t55 -31t29.5 -57t9 -86.5v-337h-76v313q0 40 -4 66.5t-15.5 42.5t-33 23t-56.5 7q-73 0 -104.5 -37t-31.5 -116v-299h-74v348q0 30 -5 50t-17 32t-32.5 17t-52.5 5 q-74 0 -108 -37t-34 -116v-299h-76v514z"/>
<glyph glyph-name="n" horiz-adv-x="576" unicode="n" d="M79 514h73v-70q19 40 60 58.5t108 18.5q51 0 86 -10t56.5 -32t30.5 -57t9 -85v-337h-76v321q0 37 -4.5 62.5t-17 40.5t-35 21.5t-59.5 6.5q-81 0 -118 -36.5t-37 -116.5v-299h-76v514z"/>
<glyph glyph-name="o" d="M265 -7q-58 0 -97.5 10.5t-64 34.5t-35 63t-10.5 95v122q0 56 10.5 95t34.5 63t63.5 34.5t97.5 10.5h36q58 0 97.5 -10.5t64 -34.5t35 -63t10.5 -95v-122q0 -56 -10.5 -95t-34.5 -63t-63.5 -34.5t-97.5 -10.5h-36zM428 301q0 45 -4 74t-17.5 46t-39 23.5t-67.5 6.5h-36 q-42 0 -67.5 -6.5t-38.5 -23.5t-17 -46t-4 -74v-88q0 -45 4 -74t17 -46.5t38.5 -24t67.5 -6.5h36q42 0 67.5 6.5t39 24t17.5 46.5t4 74v88z" unicode="o"/>
<glyph glyph-name="p" horiz-adv-x="574" unicode="p" d="M153 514v-80q19 46 58.5 66.5t104.5 20.5q56 0 94 -11t61.5 -35.5t34 -63t10.5 -93.5v-122q0 -55 -10.5 -93.5t-34 -63t-61.5 -35.5t-94 -11q-61 0 -99 17.5t-61 62.5v-270h-76v711h73zM156 215q0 -81 37 -117t120 -36q42 0 66.5 7.5t37 24.5t16.5 46t4 73v88 q0 43 -4 72.5t-16.5 46.5t-37 24.5t-66.5 7.5q-83 0 -120 -36t-37 -117v-84z"/>
<glyph glyph-name="q" horiz-adv-x="574" unicode="q" d="M494 -197h-76v270q-23 -45 -60.5 -62.5t-98.5 -17.5q-56 0 -94.5 11t-62 35.5t-34 63t-10.5 93.5v122q0 55 10.5 93.5t34 63t62 35.5t94.5 11q65 0 104 -20.5t58 -66.5v80h73v-711zM418 299q0 81 -37 117t-120 36q-42 0 -66.5 -7.5t-37 -24.5t-16.5 -46.5t-4 -72.5v-88 q0 -44 4 -73t16.5 -46t37 -24.5t66.5 -7.5q83 0 120 36t37 117v84z"/>
<glyph glyph-name="r" horiz-adv-x="468" unicode="r" d="M78 514h74v-70q17 41 51 59t90 18q43 0 72.5 -10t47 -32.5t25 -57.5t7.5 -84v-4h-77v15q0 30 -4 50t-14.5 32t-28.5 17t-46 5q-66 0 -93 -37.5t-27 -115.5v-299h-77v514z"/>
<glyph glyph-name="s" horiz-adv-x="583" unicode="s" d="M137 153v-12q0 -26 8 -42.5t26 -25.5t46 -12t67 -3t67 1.5t45 10t25 26.5t8 50q0 28 -5 44.5t-18 25.5t-34.5 12.5t-55.5 5.5q-78 4 -128 5t-70 12q-32 17 -43 46.5t-11 77.5t12.5 77t40 44.5t72.5 20t110 4.5q51 0 88 -5t61 -19.5t35.5 -40t11.5 -65.5h-76v5 q0 38 -35 49t-112 11q-40 0 -65.5 -2.5t-40.5 -11t-20.5 -24.5t-5.5 -43q0 -24 3 -38.5t17 -22.5q21 -11 53.5 -12t78.5 -3q60 -2 98.5 -6t55.5 -12q36 -17 49.5 -47t13.5 -83t-13 -83.5t-52 -54.5q-18 -11 -57.5 -15.5t-101.5 -4.5q-59 0 -101.5 5t-70 20.5t-40.5 44.5 t-13 76v14h77z"/>
<glyph glyph-name="t" horiz-adv-x="493" unicode="t" d="M28 514h63v116h76v-116h252v-65h-252v-283q0 -30 4.5 -50t15.5 -32t29 -17t46 -5t46.5 5t29 17t14.5 32t4 50v15h77v-4q0 -58 -9 -94t-30.5 -56t-57 -27t-88.5 -7q-45 0 -75.5 10t-48.5 31.5t-25.5 56.5t-7.5 86v272h-63v65z"/>
<glyph glyph-name="u" horiz-adv-x="576" unicode="u" d="M498 0h-73v70q-19 -40 -60.5 -58.5t-108.5 -18.5q-51 0 -86 10t-56.5 32t-30.5 57t-9 85v337h76v-321q0 -38 4.5 -63t17 -40t35.5 -21.5t60 -6.5q81 0 117.5 36.5t36.5 116.5v299h77v-514z"/>
<glyph glyph-name="v" horiz-adv-x="472" unicode="v" d="M83 514l153 -442l153 442h74l-177 -514h-99l-180 514h76z"/>
<glyph glyph-name="w" horiz-adv-x="780" unicode="w" d="M100 514l118 -442l118 442h105l119 -442l118 442h73l-139 -514h-105l-118 441l-120 -441h-103l-137 514h71z"/>
<glyph glyph-name="x" horiz-adv-x="506" unicode="x" d="M212 275l-170 239h86l124 -180l124 180h86l-168 -239l195 -275h-86l-151 217l-148 -217h-87z"/>
<glyph glyph-name="y" horiz-adv-x="488" unicode="y" d="M99 514l153 -442l152 442h75l-194 -559q-14 -40 -28 -69.5t-31.5 -48.5t-40 -28t-53.5 -9q-18 0 -40 3v67q6 -1 12 -1h11q19 0 32.5 4t24 13.5t18.5 24.5t16 36l19 53h-23l-179 514h76z"/>
<glyph glyph-name="z" horiz-adv-x="516" unicode="z" d="M58 83l318 361h-303v70h396v-71l-329 -374h329v-69h-411v83z"/>
<glyph glyph-name="braceleft" horiz-adv-x="500" unicode="{" d="M399 669q-35 0 -56 -6.5t-33 -21t-16 -38t-4 -58.5v-118q0 -36 -4 -64t-14.5 -48t-29 -33.5t-48.5 -22.5q30 -9 48.5 -22.5t29 -34t14.5 -48t4 -63.5v-118q0 -35 4 -58.5t15 -38t32 -21t54 -6.5q5 0 10.5 0.5t11.5 0.5v-52h-23q-51 0 -83 9t-50 30t-24.5 55.5t-6.5 85.5 v119q0 74 -27.5 105.5t-95.5 31.5q-5 0 -10.5 -0.5t-11.5 -0.5v53q6 0 11.5 -0.5t10.5 -0.5q68 0 95.5 31.5t27.5 105.5v118q0 51 6.5 85.5t24.5 56t50 30.5t83 9h23v-52h-18z"/>
<glyph glyph-name="bar" horiz-adv-x="500" unicode="|" d="M277 -236h-53v1000h53v-1000z"/>
<glyph glyph-name="braceright" horiz-adv-x="500" unicode="}" d="M271 422q0 -74 27.5 -105.5t95.5 -31.5q5 0 10.5 0.5t11.5 0.5v-53q-6 0 -11.5 0.5t-10.5 0.5q-68 0 -95.5 -31.5t-27.5 -105.5v-119q0 -51 -6.5 -85.5t-24.5 -55.5t-50 -30t-83 -9h-23v52h19q34 0 55 6t33 20t16 38t4 59v118q0 36 3.5 63.5t14 48t29.5 34t49 22.5 q-30 9 -49 22.5t-29.5 33.5t-14 48t-3.5 64v118q0 35 -4 59t-15 38.5t-32 21t-54 6.5q-5 0 -10.5 -0.5t-11.5 -0.5v52h23q51 0 83 -9t50 -30.5t24.5 -56t6.5 -85.5v-118z"/>
<glyph glyph-name="asciitilde" horiz-adv-x="833" unicode="~" d="M747 311q-98 -70 -189 -70q-41 0 -75 11t-66 22q-35 13 -69 23.5t-72 10.5q-45 0 -90 -20t-99 -58v55q103 71 189 71q41 0 74.5 -10.5t66.5 -22.5q36 -13 70 -24t71 -11q45 0 90.5 20t98.5 58v-55z"/>
<glyph glyph-name="exclamdown" horiz-adv-x="252" unicode="¡" d="M164 727v-94h-76v94h76zM160 531l4 -531h-76l5 531h67z"/>
<glyph glyph-name="cent" horiz-adv-x="676" unicode="¢" d="M221 -128h-70l43 131q-62 20 -84.5 66t-22.5 127v122q0 56 10.5 95t34.5 63t63.5 34.5t97.5 10.5h72l32 97h70l-36 -108q104 -35 105 -168h-79q-3 87 -48 99l-125 -379h45q35 0 59.5 5t39.5 18.5t22 36.5t7 59v9h79v-10q0 -101 -49 -144t-158 -43h-68zM342 451h-49 q-42 0 -67.5 -6.5t-39 -23.5t-17.5 -46t-4 -74v-88q0 -29 1.5 -52t6.5 -40.5t15.5 -29.5t28.5 -19z"/>
<glyph glyph-name="sterling" horiz-adv-x="676" unicode="£" d="M56 76h10q47 0 65.5 29t18.5 95v90h-94v70h94v208q0 91 54 129.5t172 38.5q123 0 180.5 -33t57.5 -112v-76h-83v45q0 29 -6.5 48.5t-23 31t-45.5 16.5t-74 5q-91 0 -124 -24q-20 -15 -23.5 -38t-3.5 -57v-182h214v-70h-214v-89q0 -107 -46 -125h439v-76h-568v76z"/>
<glyph glyph-name="currency" horiz-adv-x="606" unicode="¤" d="M176 591q58 44 127 44q72 0 128 -44l100 100l32 -32l-100 -100q43 -58 43 -127q0 -68 -43 -126l100 -101l-32 -32l-100 100q-58 -44 -128 -44q-68 0 -127 44l-100 -100l-32 32l100 101q-21 29 -32.5 60t-11.5 66t11.5 66.5t32.5 60.5l-100 100l32 32zM461 433 q0 32 -12 60.5t-33.5 50t-50 34t-61.5 12.5t-61.5 -12.5t-50.5 -34t-34.5 -50t-12.5 -60.5q0 -33 12.5 -61.5t34.5 -50.5t50.5 -34.5t61.5 -12.5t61.5 12.5t50 34.5t33.5 51t12 61z"/>
<glyph glyph-name="yen" horiz-adv-x="595" unicode="¥" d="M258 0v319h-258v60h219l-64 88h-155v60h106l-149 200h95l245 -339l245 339h95l-148 -200h106v-60h-156l-64 -88h220v-60h-258v-319h-79z"/>
<glyph glyph-name="brokenbar" horiz-adv-x="500" unicode="¦" d="M277 329h-53v370h53v-370zM277 -171h-53v370h53v-370z"/>
<glyph glyph-name="section" horiz-adv-x="546" unicode="§" d="M149 116q0 -19 7 -30t21.5 -17t37.5 -7.5t55 -1.5q34 0 57 1.5t37 8.5t20.5 20t6.5 36q0 26 -9.5 41t-35.5 23l-182 59q-68 22 -100.5 50t-32.5 77q0 45 28.5 75.5t81.5 39.5q-38 14 -54.5 40.5t-16.5 74.5q0 40 11 65.5t34.5 39.5t60 19.5t88.5 5.5q93 0 137 -24.5 t44 -89.5v-23h-77v12q0 36 -26 46t-84 10q-31 0 -52 -1.5t-33.5 -7t-18 -16.5t-5.5 -30q0 -27 10 -39.5t37 -21.5l218 -71q101 -33 101 -119q0 -45 -29.5 -76t-82.5 -37q39 -12 53 -40t14 -81q0 -42 -10.5 -68.5t-34 -41.5t-61 -20.5t-90.5 -5.5q-51 0 -89 4.5t-63 17.5 t-37.5 35.5t-12.5 57.5v34h77v-24zM214 468q-52 -10 -78.5 -30t-26.5 -46q0 -48 78 -73l145 -47q52 10 78.5 30t26.5 46q0 47 -78 72z"/>
<glyph glyph-name="dieresis" horiz-adv-x="500" unicode="¨" d="M137 692h69v-80h-69v80zM294 692h69v-80h-69v80z"/>
<glyph glyph-name="copyright" horiz-adv-x="833" unicode="©" d="M416 711q73 0 138.5 -27t116.5 -78t77 -116t26 -137q0 -74 -26 -137.5t-77 -113.5q-53 -52 -118.5 -79.5t-136.5 -27.5t-135.5 27t-116.5 79q-51 51 -78 115.5t-27 136.5t27.5 137t79.5 118q50 51 113.5 77t136.5 26zM735 353q0 65 -23.5 122.5t-68.5 102.5 q-46 46 -103.5 70t-123.5 24q-65 0 -121.5 -23.5t-101.5 -68.5q-47 -48 -71 -106t-24 -121t24 -120.5t70 -103.5t103.5 -70t120.5 -24t121.5 24t106.5 71q45 44 68 100.5t23 122.5zM524 447q-9 39 -36.5 60.5t-69.5 21.5q-59 0 -92.5 -45.5t-33.5 -131.5q0 -83 34 -128 t92 -45q44 0 74 24.5t38 67.5h56q-3 -30 -16.5 -55.5t-36 -44t-53 -29t-65.5 -10.5q-85 0 -135.5 58.5t-50.5 164.5q0 51 14 91.5t39.5 69t60.5 43.5t77 15q66 0 110.5 -35t50.5 -92h-57z"/>
<glyph glyph-name="ordfeminine" horiz-adv-x="424" unicode="ª" d="M314 405q-14 -24 -43.5 -33.5t-77.5 -9.5q-42 0 -71 4.5t-47 17t-26 35t-8 57.5t6 57.5t24 36.5q16 12 45 16t74 4q48 0 77 -7t44 -28v63q0 24 -4.5 37.5t-16.5 21t-33.5 9.5t-55.5 2q-48 0 -68 -9t-21 -41h-57v8q0 49 34 67.5t108 18.5q54 0 89 -4.5t52 -16.5 q22 -16 26 -38t4 -54v-252h-51zM311 496q0 27 -29 38.5t-88 11.5q-54 0 -73.5 -12.5t-19.5 -51.5q0 -21 4.5 -35t15.5 -21.5t30.5 -10.5t48.5 -3q111 0 111 47v37z"/>
<glyph glyph-name="guillemotleft" horiz-adv-x="479" unicode="«" d="M339 104l-120 153l120 153h84l-121 -153l121 -153h-84zM168 104l-120 153l120 153h84l-121 -153l121 -153h-84z"/>
<glyph glyph-name="logicalnot" horiz-adv-x="833" unicode="¬" d="M709 174h-47v196h-538v49h585v-245z"/>
<glyph glyph-name="registered" horiz-adv-x="833" unicode="®" d="M416 711q74 0 139 -26.5t116 -78.5q51 -51 77 -116t26 -137q0 -74 -26 -137.5t-77 -113.5q-53 -52 -118.5 -79.5t-136.5 -27.5q-72 0 -136.5 27t-115.5 79q-51 51 -78 115.5t-27 136.5q0 71 27.5 136.5t79.5 118.5q50 51 113.5 77t136.5 26zM735 352q0 66 -23 123.5 t-68 102.5q-46 46 -104 70t-124 24q-65 0 -121 -23.5t-101 -68.5q-47 -48 -71.5 -106t-24.5 -121t24 -120.5t70 -103.5t103.5 -70t120.5 -24t121.5 24t106.5 71q45 44 68 100t23 122zM427 565q86 0 128 -27t42 -87q0 -43 -26 -72.5t-71 -35.5l92 -190h-71l-87 181h-96v-181 h-62v412h151zM338 523v-148h77q61 0 89.5 15t28.5 57t-28.5 59t-89.5 17h-77z"/>
<glyph glyph-name="degree" horiz-adv-x="329" unicode="°" d="M165 709q28 0 52.5 -10.5t43 -29t29 -43.5t10.5 -53t-10.5 -52.5t-29 -43t-43.5 -29.5t-53 -11q-29 0 -53.5 10.5t-42.5 29t-28.5 43t-10.5 53.5q0 28 10.5 53t29 43.5t43.5 29t53 10.5zM266 573q0 21 -8 39.5t-21.5 32.5t-32 22t-39.5 8t-39.5 -8t-32.5 -22t-22 -32.5 t-8 -39.5t8 -39.5t22 -32t32.5 -21.5t39.5 -8t39.5 8t32 21.5t21.5 32t8 39.5z"/>
<glyph glyph-name="plusminus" horiz-adv-x="833" unicode="±" d="M441 401h268v-48h-268v-170h-48v170h-269v48h269v170h48v-170zM709 25h-585v48h585v-48z"/>
<glyph glyph-name="twosuperior" horiz-adv-x="446" unicode="²" d="M48 365q0 28 4.5 49.5t20.5 38.5q17 18 40.5 26.5t54.5 16.5l109 27q51 14 63 30q6 8 7 22t1 35q0 24 -3 39.5t-17 25.5q-19 13 -118 13q-32 0 -53 -2.5t-33 -10t-16.5 -22t-4.5 -38.5v-26h-55v29q0 35 9.5 57.5t29.5 35t51 17.5t75 5q48 0 78.5 -2t47.5 -9 q21 -8 33 -18.5t18.5 -24t8.5 -31.5t2 -42q0 -28 -3.5 -48t-14 -34.5t-29 -24.5t-49.5 -18l-134 -34q-35 -9 -51.5 -20t-16.5 -42v-48h298v-46h-353v74z"/>
<glyph glyph-name="threesuperior" horiz-adv-x="446" unicode="³" d="M100 436v-39q0 -23 7 -36t22.5 -20t39.5 -8.5t58 -1.5q45 0 72.5 3.5t39.5 19.5q6 8 7.5 25.5t1.5 44.5q0 17 -3 29.5t-12 21t-25.5 12.5t-43.5 4h-73v44h66q27 0 43 4t24.5 13.5t11.5 24.5t3 36q0 23 -2 38t-14 24q-16 12 -106 12q-30 0 -50.5 -1.5t-33.5 -7.5 t-18.5 -17.5t-5.5 -30.5v-40h-54v39q0 59 39 81.5t122 22.5q46 0 77.5 -2.5t50.5 -10.5q31 -14 40.5 -38t9.5 -66q0 -46 -12.5 -69.5t-54.5 -31.5q44 -8 59.5 -30t15.5 -66q0 -26 -2.5 -46t-10.5 -37q-15 -33 -54 -41.5t-107 -8.5q-51 0 -87 3t-59 22q-19 16 -27 38t-8 52 v35h53z"/>
<glyph glyph-name="acute" horiz-adv-x="500" unicode="´" d="M189 575l102 170h74l-131 -170h-45z"/>
<glyph glyph-name="mu" horiz-adv-x="542" unicode="µ" d="M107 231q-4 -17 -6 -34t-2 -34q0 -57 28 -88t82 -31q60 0 104 51t66 153l59 272h68l-80 -376q-5 -23 -8 -39t-3 -26q0 -32 33 -32h6t12 1l-10 -54q-11 -3 -22 -4t-20 -1q-67 0 -67 71v7q-20 -38 -58 -58.5t-88 -20.5q-45 0 -78.5 19.5t-52.5 56.5l-56 -272h-68l154 728 h68z"/>
<glyph glyph-name="mu" horiz-adv-x="542" unicode="μ" d="M107 231q-4 -17 -6 -34t-2 -34q0 -57 28 -88t82 -31q60 0 104 51t66 153l59 272h68l-80 -376q-5 -23 -8 -39t-3 -26q0 -32 33 -32h6t12 1l-10 -54q-11 -3 -22 -4t-20 -1q-67 0 -67 71v7q-20 -38 -58 -58.5t-88 -20.5q-45 0 -78.5 19.5t-52.5 56.5l-56 -272h-68l154 728 h68z"/>
<glyph glyph-name="paragraph" horiz-adv-x="500" unicode="¶" d="M397 688v-688h-40v688h-92v-688h-40v382q-87 4 -135.5 50.5t-48.5 119.5q0 37 13.5 68.5t38.5 54t60.5 35t79.5 12.5h226v-34h-62z"/>
<glyph glyph-name="cedilla" horiz-adv-x="500" unicode="¸" d="M255 -56h31q25 0 40 -3t22.5 -12t9.5 -24.5t2 -40.5q0 -28 -2 -45t-9.5 -26.5t-22 -13t-39.5 -3.5h-129v43h104q13 0 21 1.5t11.5 6t4.5 14t1 25.5t-1 25t-5 13t-12 5t-21 1h-38v90h32v-56z"/>
<glyph glyph-name="onesuperior" horiz-adv-x="446" unicode="¹" d="M236 684l-113 -103l-33 29l129 117h69v-436h-52v393z"/>
<glyph glyph-name="ordmasculine" horiz-adv-x="424" unicode="º" d="M199 362q-44 0 -73.5 7.5t-47.5 24t-26 44t-8 66.5v86q0 39 8 66.5t26 44t47.5 24t72.5 7.5h27q43 0 73 -7.5t48 -24t26 -44t8 -66.5v-86q0 -39 -8 -66.5t-26 -44t-47.5 -24t-72.5 -7.5h-27zM321 578q0 31 -3 51.5t-13 32.5t-29 16.5t-51 4.5h-27q-32 0 -51 -4.5 t-28.5 -16.5t-12.5 -32.5t-3 -51.5v-62q0 -32 3 -52.5t12.5 -32.5t28.5 -16.5t51 -4.5h27q32 0 51 4.5t29 16.5t13 32.5t3 52.5v62z"/>
<glyph glyph-name="guillemotright" horiz-adv-x="479" unicode="»" d="M177 257l-121 153h84l120 -153l-120 -153h-84zM348 257l-120 153h83l120 -153l-120 -153h-83z"/>
<glyph glyph-name="onequarter" horiz-adv-x="1019" unicode="¼" d="M225 687l-108 -97l-31 28l123 109h66v-407h-50v367zM683 736h76l-423 -745h-77zM628 147l224 260h70v-269h70v-43h-70v-95h-51v95h-243v52zM871 138v224l-194 -224h194z"/>
<glyph glyph-name="onehalf" horiz-adv-x="1019" unicode="½" d="M225 687l-108 -97l-31 28l123 109h66v-407h-50v367zM683 736h76l-423 -745h-77zM639 69q0 26 4.5 46t19.5 36q16 17 39 25t52 16l103 25q50 12 60 27q7 8 8 21t1 33q0 23 -3 37t-17 23q-16 12 -113 12q-31 0 -50.5 -2t-31 -9.5t-16 -21t-4.5 -35.5v-24h-52v27q0 33 9 54 t27.5 32.5t48.5 16t72 4.5q45 0 75 -2t46 -8q19 -8 31 -17.5t18 -22.5t8 -29.5t2 -38.5q0 -26 -3.5 -44.5t-13 -32t-27.5 -23t-48 -16.5l-128 -32q-33 -9 -49 -19.5t-16 -39.5v-44h285v-43h-337v69z"/>
<glyph glyph-name="threequarters" horiz-adv-x="1019" unicode="¾" d="M96 455v-36q0 -21 6.5 -33.5t21 -19t37.5 -8t56 -1.5q43 0 69.5 3.5t37.5 18.5q5 8 6.5 23.5t1.5 41.5q0 16 -2.5 28t-11 19.5t-24.5 11t-42 3.5h-70v42h64q25 0 40.5 4t23.5 12.5t11 22.5t3 34q0 21 -2 35t-14 22q-15 12 -101 12q-57 0 -80 -9t-23 -45v-37h-51v36 q0 56 37 76.5t116 20.5q45 0 75 -2t47 -10q30 -12 39 -35t9 -61q0 -22 -2.5 -38t-9.5 -27t-19.5 -18.5t-32.5 -11.5q43 -8 57.5 -28t14.5 -62q0 -24 -2.5 -43t-9.5 -34q-15 -31 -52 -39t-102 -8q-50 0 -83.5 3t-56.5 21q-18 15 -25.5 35.5t-7.5 48.5v32h51zM683 736h76 l-423 -745h-77zM628 147l224 260h70v-269h70v-43h-70v-95h-51v95h-243v52zM871 138v224l-194 -224h194z"/>
<glyph glyph-name="questiondown" horiz-adv-x="519" unicode="¿" d="M332 470q0 -29 -8 -48t-23 -33t-36.5 -25t-48.5 -23q-33 -14 -56 -26t-35 -29q-9 -14 -14 -39.5t-5 -65.5q0 -36 6 -58t20 -35t36.5 -17.5t54.5 -4.5q61 0 98.5 3t52.5 14q16 12 21.5 36.5t5.5 63.5v20.5t-1 21.5h80v-72q0 -48 -14 -79t-42.5 -49.5t-72 -26t-103.5 -7.5 t-102 8t-68 29.5t-38 58.5t-12 96q0 42 4 74t13.5 55.5t26.5 40.5t43 29q33 15 58.5 26t43 22t26 25t8.5 36v37h81v-58zM332 634h-81v93h81v-93z"/>
<glyph glyph-name="Agrave" horiz-adv-x="692" unicode="À" d="M280 727h132l270 -727h-83l-69 186h-368l-68 -186h-83zM504 258l-145 392h-26l-144 -392h315zM231 960h74l102 -170h-45z"/>
<glyph glyph-name="Aacute" horiz-adv-x="692" unicode="Á" d="M280 727h132l270 -727h-83l-69 186h-368l-68 -186h-83zM504 258l-145 392h-26l-144 -392h315zM285 790l102 170h74l-131 -170h-45z"/>
<glyph glyph-name="Acircumflex" horiz-adv-x="692" unicode="Â" d="M280 727h132l270 -727h-83l-69 186h-368l-68 -186h-83zM504 258l-145 392h-26l-144 -392h315zM309 960h74l98 -170h-45l-90 128l-90 -128h-45z"/>
<glyph glyph-name="Atilde" horiz-adv-x="692" unicode="Ã" d="M280 727h132l270 -727h-83l-69 186h-368l-68 -186h-83zM504 258l-145 392h-26l-144 -392h315zM487 918q-25 -88 -93 -88q-14 0 -32 5l-47 14q-15 5 -26 5q-29 0 -45 -36h-39q11 44 35.5 66.5t59.5 22.5q15 0 26 -4l47 -15q8 -3 15 -4t12 -1q32 0 47 35h40z"/>
<glyph glyph-name="Adieresis" horiz-adv-x="692" unicode="Ä" d="M280 727h132l270 -727h-83l-69 186h-368l-68 -186h-83zM504 258l-145 392h-26l-144 -392h315zM233 907h69v-80h-69v80zM390 907h69v-80h-69v80z"/>
<glyph glyph-name="Aring" horiz-adv-x="692" unicode="Å" d="M280 727h132l270 -727h-83l-69 186h-368l-68 -186h-83zM504 258l-145 392h-26l-144 -392h315zM231 872q0 25 9 46.5t24.5 37.5t37 25t46.5 9t46.5 -9t37.5 -25t25 -37.5t9 -46.5t-9 -46.5t-25 -37t-37.5 -24.5t-46.5 -9t-46.5 9t-37 24.5t-24.5 37t-9 46.5zM275 872 q0 -31 21.5 -52t52.5 -21q30 0 51.5 21t21.5 52t-21 52t-52 21t-52.5 -21t-21.5 -52z"/>
<glyph glyph-name="AE" horiz-adv-x="1015" unicode="Æ" d="M466 181h-362l-99 -181h-86l402 727h653v-77h-433v-238h421v-74h-421v-262h433v-76h-508v181zM466 258v392h-102l-217 -392h319z"/>
<glyph glyph-name="Ccedilla" horiz-adv-x="683" unicode="Ç" d="M65 487q0 69 12.5 117t41 77t74.5 42t114 13h85q64 0 110 -10.5t75.5 -34.5t43.5 -63.5t14 -98.5v-32h-83v20q0 44 -8.5 72t-28 43.5t-51.5 21.5t-78 6h-56q-50 0 -85 -5.5t-61 -29.5q-26 -25 -31 -63t-5 -95v-207q0 -57 5 -95t31 -63q27 -26 62.5 -30.5t83.5 -4.5h56 q48 0 80 6t51.5 23t27.5 47t8 77v17t-1 18h83v-48q0 -63 -13 -104.5t-42 -66t-75 -35t-113 -10.5h-85q-68 0 -114 13t-74.5 42t-41 77t-12.5 117v247zM359 -56h31q25 0 40 -3t22.5 -12t9.5 -24.5t2 -40.5q0 -28 -2 -45t-9.5 -26.5t-22 -13t-39.5 -3.5h-129v43h104 q13 0 21 1.5t11.5 6t4.5 14t1 25.5t-1 25t-5 13t-12 5t-21 1h-38v90h32v-56z"/>
<glyph glyph-name="Egrave" horiz-adv-x="639" unicode="È" d="M88 727h510v-77h-430v-238h418v-74h-418v-262h430v-76h-510v727zM243 960h74l102 -170h-45z"/>
<glyph glyph-name="Eacute" horiz-adv-x="639" unicode="É" d="M88 727h510v-77h-430v-238h418v-74h-418v-262h430v-76h-510v727zM297 790l102 170h74l-131 -170h-45z"/>
<glyph glyph-name="Ecircumflex" horiz-adv-x="639" unicode="Ê" d="M88 727h510v-77h-430v-238h418v-74h-418v-262h430v-76h-510v727zM321 960h74l98 -170h-45l-90 128l-90 -128h-45z"/>
<glyph glyph-name="Edieresis" horiz-adv-x="639" unicode="Ë" d="M88 727h510v-77h-430v-238h418v-74h-418v-262h430v-76h-510v727zM245 907h69v-80h-69v80zM402 907h69v-80h-69v80z"/>
<glyph glyph-name="Igrave" horiz-adv-x="257" unicode="Ì" d="M88 727h81v-727h-81v727zM15 960h74l102 -170h-45z"/>
<glyph glyph-name="Iacute" horiz-adv-x="257" unicode="Í" d="M88 727h81v-727h-81v727zM69 790l102 170h74l-131 -170h-45z"/>
<glyph glyph-name="Icircumflex" horiz-adv-x="257" unicode="Î" d="M88 727h81v-727h-81v727zM93 960h74l98 -170h-45l-90 128l-90 -128h-45z"/>
<glyph glyph-name="Idieresis" horiz-adv-x="257" unicode="Ï" d="M88 727h81v-727h-81v727zM17 907h69v-80h-69v80zM174 907h69v-80h-69v80z"/>
<glyph glyph-name="Eth" horiz-adv-x="773" unicode="Ð" d="M111 346h-111v70h111v311h351q69 0 116 -13t76 -41.5t42 -75t13 -113.5v-240q0 -67 -13 -113.5t-42 -75.5t-76 -42t-116 -13h-351v346zM450 72q51 0 84.5 7.5t53.5 26.5t28.5 52t8.5 85v235q0 53 -8 87.5t-27.5 54.5t-53.5 27.5t-86 7.5h-259v-239h218v-70h-218v-274h259 z"/>
<glyph glyph-name="Ntilde" horiz-adv-x="775" unicode="Ñ" d="M88 727h124l394 -649v649h80v-727h-124l-394 650v-650h-80v727zM539 918q-25 -88 -93 -88q-14 0 -32 5l-47 14q-15 5 -26 5q-29 0 -45 -36h-39q11 44 35.5 66.5t59.5 22.5q15 0 26 -4l47 -15q8 -3 15 -4t12 -1q32 0 47 35h40z"/>
<glyph glyph-name="Ograve" horiz-adv-x="745" unicode="Ò" d="M65 487q0 70 13.5 117.5t44.5 77t81 42t123 12.5h92q73 0 123.5 -12.5t81 -41.5t44 -76.5t13.5 -118.5v-247q0 -70 -13.5 -117.5t-44.5 -77t-81 -42t-123 -12.5h-92q-73 0 -123 12.5t-81 42t-44.5 77t-13.5 117.5v247zM350 660q-54 0 -93 -5t-70 -31q-27 -23 -33 -61 t-6 -97v-206q0 -59 6 -96.5t33 -60.5q31 -26 70 -31t93 -5h45q54 0 93.5 5t70.5 31q27 23 32.5 61t5.5 96v207q0 58 -6 96.5t-33 61.5q-30 26 -69.5 30.5t-93.5 4.5h-45zM258 960h74l102 -170h-45z"/>
<glyph glyph-name="Oacute" horiz-adv-x="745" unicode="Ó" d="M65 487q0 70 13.5 117.5t44.5 77t81 42t123 12.5h92q73 0 123.5 -12.5t81 -41.5t44 -76.5t13.5 -118.5v-247q0 -70 -13.5 -117.5t-44.5 -77t-81 -42t-123 -12.5h-92q-73 0 -123 12.5t-81 42t-44.5 77t-13.5 117.5v247zM350 660q-54 0 -93 -5t-70 -31q-27 -23 -33 -61 t-6 -97v-206q0 -59 6 -96.5t33 -60.5q31 -26 70 -31t93 -5h45q54 0 93.5 5t70.5 31q27 23 32.5 61t5.5 96v207q0 58 -6 96.5t-33 61.5q-30 26 -69.5 30.5t-93.5 4.5h-45zM312 790l102 170h74l-131 -170h-45z"/>
<glyph glyph-name="Ocircumflex" horiz-adv-x="745" unicode="Ô" d="M65 487q0 70 13.5 117.5t44.5 77t81 42t123 12.5h92q73 0 123.5 -12.5t81 -41.5t44 -76.5t13.5 -118.5v-247q0 -70 -13.5 -117.5t-44.5 -77t-81 -42t-123 -12.5h-92q-73 0 -123 12.5t-81 42t-44.5 77t-13.5 117.5v247zM350 660q-54 0 -93 -5t-70 -31q-27 -23 -33 -61 t-6 -97v-206q0 -59 6 -96.5t33 -60.5q31 -26 70 -31t93 -5h45q54 0 93.5 5t70.5 31q27 23 32.5 61t5.5 96v207q0 58 -6 96.5t-33 61.5q-30 26 -69.5 30.5t-93.5 4.5h-45zM336 960h74l98 -170h-45l-90 128l-90 -128h-45z"/>
<glyph glyph-name="Otilde" horiz-adv-x="745" unicode="Õ" d="M65 487q0 70 13.5 117.5t44.5 77t81 42t123 12.5h92q73 0 123.5 -12.5t81 -41.5t44 -76.5t13.5 -118.5v-247q0 -70 -13.5 -117.5t-44.5 -77t-81 -42t-123 -12.5h-92q-73 0 -123 12.5t-81 42t-44.5 77t-13.5 117.5v247zM350 660q-54 0 -93 -5t-70 -31q-27 -23 -33 -61 t-6 -97v-206q0 -59 6 -96.5t33 -60.5q31 -26 70 -31t93 -5h45q54 0 93.5 5t70.5 31q27 23 32.5 61t5.5 96v207q0 58 -6 96.5t-33 61.5q-30 26 -69.5 30.5t-93.5 4.5h-45zM514 918q-25 -88 -93 -88q-14 0 -32 5l-47 14q-15 5 -26 5q-29 0 -45 -36h-39q11 44 35.5 66.5 t59.5 22.5q15 0 26 -4l47 -15q8 -3 15 -4t12 -1q32 0 47 35h40z"/>
<glyph glyph-name="Odieresis" horiz-adv-x="745" unicode="Ö" d="M65 487q0 70 13.5 117.5t44.5 77t81 42t123 12.5h92q73 0 123.5 -12.5t81 -41.5t44 -76.5t13.5 -118.5v-247q0 -70 -13.5 -117.5t-44.5 -77t-81 -42t-123 -12.5h-92q-73 0 -123 12.5t-81 42t-44.5 77t-13.5 117.5v247zM350 660q-54 0 -93 -5t-70 -31q-27 -23 -33 -61 t-6 -97v-206q0 -59 6 -96.5t33 -60.5q31 -26 70 -31t93 -5h45q54 0 93.5 5t70.5 31q27 23 32.5 61t5.5 96v207q0 58 -6 96.5t-33 61.5q-30 26 -69.5 30.5t-93.5 4.5h-45zM260 907h69v-80h-69v80zM417 907h69v-80h-69v80z"/>
<glyph glyph-name="multiply" horiz-adv-x="833" unicode="×" d="M653 567l34 -34l-235 -235l235 -235l-34 -34l-235 235l-235 -235l-34 34l235 235l-235 235l34 34l235 -235z"/>
<glyph glyph-name="Oslash" horiz-adv-x="745" unicode="Ø" d="M65 487q0 70 13.5 117.5t44.5 77t81 42t123 12.5h92q48 0 87.5 -4t74.5 -21l42 58l58 -44l-43 -59q26 -34 34.5 -77.5t8.5 -101.5v-247q0 -70 -13.5 -117.5t-44.5 -77t-81 -42t-123 -12.5h-92q-55 0 -94.5 4.5t-66.5 21.5l-43 -59l-59 45l45 61q-27 28 -35.5 70.5 t-8.5 105.5v247zM208 76q28 -6 59 -7.5t65 -1.5h81q49 0 85 4.5t64 27.5q25 21 30 55.5t5 88.5v241q0 72 -6 116zM537 650q-18 6 -49 8t-75 2h-81q-49 0 -85 -4.5t-64 -27.5q-25 -21 -30 -55.5t-5 -88.5v-241q0 -32 1.5 -60.5t6.5 -55.5z"/>
<glyph glyph-name="Ugrave" horiz-adv-x="748" unicode="Ù" d="M162 727v-477q0 -53 5 -87t29 -56q26 -23 59.5 -27.5t80.5 -4.5h76q47 0 81 4.5t60 27.5q23 21 28 55t5 88v477h81v-487q0 -70 -13 -117.5t-42 -77t-77 -42t-117 -12.5h-88q-69 0 -117 12.5t-77 42t-42 77t-13 117.5v487h81zM259 960h74l102 -170h-45z"/>
<glyph glyph-name="Uacute" horiz-adv-x="748" unicode="Ú" d="M162 727v-477q0 -53 5 -87t29 -56q26 -23 59.5 -27.5t80.5 -4.5h76q47 0 81 4.5t60 27.5q23 21 28 55t5 88v477h81v-487q0 -70 -13 -117.5t-42 -77t-77 -42t-117 -12.5h-88q-69 0 -117 12.5t-77 42t-42 77t-13 117.5v487h81zM313 790l102 170h74l-131 -170h-45z"/>
<glyph glyph-name="Ucircumflex" horiz-adv-x="748" unicode="Û" d="M162 727v-477q0 -53 5 -87t29 -56q26 -23 59.5 -27.5t80.5 -4.5h76q47 0 81 4.5t60 27.5q23 21 28 55t5 88v477h81v-487q0 -70 -13 -117.5t-42 -77t-77 -42t-117 -12.5h-88q-69 0 -117 12.5t-77 42t-42 77t-13 117.5v487h81zM337 960h74l98 -170h-45l-90 128l-90 -128 h-45z"/>
<glyph glyph-name="Udieresis" horiz-adv-x="748" unicode="Ü" d="M162 727v-477q0 -53 5 -87t29 -56q26 -23 59.5 -27.5t80.5 -4.5h76q47 0 81 4.5t60 27.5q23 21 28 55t5 88v477h81v-487q0 -70 -13 -117.5t-42 -77t-77 -42t-117 -12.5h-88q-69 0 -117 12.5t-77 42t-42 77t-13 117.5v487h81zM261 907h69v-80h-69v80zM418 907h69v-80h-69 v80z"/>
<glyph glyph-name="Yacute" horiz-adv-x="595" unicode="Ý" d="M258 0v322l-301 405h95l245 -339l245 339h95l-300 -404v-323h-79zM237 790l102 170h74l-131 -170h-45z"/>
<glyph glyph-name="Thorn" horiz-adv-x="655" unicode="Þ" d="M168 727v-141h226q58 0 99 -7.5t67 -26.5t37.5 -51t11.5 -81v-111q0 -50 -11.5 -82.5t-37 -51.5t-66.5 -26.5t-100 -7.5h-226v-141h-80v727h80zM168 218h225q33 0 58 3t41.5 12.5t24.5 27.5t8 49v107q0 31 -7.5 49t-23.5 27.5t-41 12.5t-60 3h-225v-291z"/>
<glyph glyph-name="germandbls" horiz-adv-x="528" unicode="ß" d="M62 522q0 56 9.5 94.5t32 62.5t59.5 34.5t93 10.5q53 0 90.5 -10t61.5 -32t35 -57t11 -86q0 -56 -18.5 -87.5t-65.5 -48.5q34 -7 56 -21.5t35 -38.5t18.5 -57t5.5 -78q0 -57 -9 -98t-30 -67t-55 -38.5t-83 -12.5q-33 0 -76 6v70q29 -7 62 -7q34 0 56 7t34 24t16.5 45 t4.5 71t-3 72.5t-15 48t-35.5 26.5t-63.5 8h-56v63h43q59 0 80.5 27t21.5 92q0 33 -6.5 54t-20.5 34t-37.5 18t-57.5 5q-39 0 -62.5 -7.5t-35.5 -24t-15.5 -43.5t-3.5 -67v-514h-76v522z"/>
<glyph glyph-name="agrave" d="M419 54q-19 -34 -58.5 -47.5t-103.5 -13.5q-56 0 -95 6.5t-63 24.5t-34.5 50t-10.5 82q0 49 8.5 81.5t32.5 52.5q21 17 59.5 23t98.5 6q63 0 102.5 -10.5t59.5 -39.5v89q0 34 -6 54t-22.5 30t-45 13t-73.5 3q-32 0 -54.5 -2.5t-37 -10.5t-21 -22t-6.5 -36h-76v12 q0 70 46 96t144 26q72 0 118 -6t69 -23q29 -23 35 -54.5t6 -77.5v-360h-69zM415 185q0 38 -39 54.5t-117 16.5q-36 0 -60 -4t-38.5 -14t-20.5 -27.5t-6 -45.5q0 -31 6 -50.5t21 -31t41 -15.5t65 -4q75 0 111.5 17.5t36.5 49.5v54zM168 745h74l102 -170h-45z" unicode="à"/>
<glyph glyph-name="aacute" d="M419 54q-19 -34 -58.5 -47.5t-103.5 -13.5q-56 0 -95 6.5t-63 24.5t-34.5 50t-10.5 82q0 49 8.5 81.5t32.5 52.5q21 17 59.5 23t98.5 6q63 0 102.5 -10.5t59.5 -39.5v89q0 34 -6 54t-22.5 30t-45 13t-73.5 3q-32 0 -54.5 -2.5t-37 -10.5t-21 -22t-6.5 -36h-76v12 q0 70 46 96t144 26q72 0 118 -6t69 -23q29 -23 35 -54.5t6 -77.5v-360h-69zM415 185q0 38 -39 54.5t-117 16.5q-36 0 -60 -4t-38.5 -14t-20.5 -27.5t-6 -45.5q0 -31 6 -50.5t21 -31t41 -15.5t65 -4q75 0 111.5 17.5t36.5 49.5v54zM222 575l102 170h74l-131 -170h-45z" unicode="á"/>
<glyph glyph-name="acircumflex" d="M419 54q-19 -34 -58.5 -47.5t-103.5 -13.5q-56 0 -95 6.5t-63 24.5t-34.5 50t-10.5 82q0 49 8.5 81.5t32.5 52.5q21 17 59.5 23t98.5 6q63 0 102.5 -10.5t59.5 -39.5v89q0 34 -6 54t-22.5 30t-45 13t-73.5 3q-32 0 -54.5 -2.5t-37 -10.5t-21 -22t-6.5 -36h-76v12 q0 70 46 96t144 26q72 0 118 -6t69 -23q29 -23 35 -54.5t6 -77.5v-360h-69zM415 185q0 38 -39 54.5t-117 16.5q-36 0 -60 -4t-38.5 -14t-20.5 -27.5t-6 -45.5q0 -31 6 -50.5t21 -31t41 -15.5t65 -4q75 0 111.5 17.5t36.5 49.5v54zM246 745h74l98 -170h-45l-90 128l-90 -128 h-45z" unicode="â"/>
<glyph glyph-name="atilde" d="M419 54q-19 -34 -58.5 -47.5t-103.5 -13.5q-56 0 -95 6.5t-63 24.5t-34.5 50t-10.5 82q0 49 8.5 81.5t32.5 52.5q21 17 59.5 23t98.5 6q63 0 102.5 -10.5t59.5 -39.5v89q0 34 -6 54t-22.5 30t-45 13t-73.5 3q-32 0 -54.5 -2.5t-37 -10.5t-21 -22t-6.5 -36h-76v12 q0 70 46 96t144 26q72 0 118 -6t69 -23q29 -23 35 -54.5t6 -77.5v-360h-69zM415 185q0 38 -39 54.5t-117 16.5q-36 0 -60 -4t-38.5 -14t-20.5 -27.5t-6 -45.5q0 -31 6 -50.5t21 -31t41 -15.5t65 -4q75 0 111.5 17.5t36.5 49.5v54zM424 703q-25 -88 -93 -88q-14 0 -32 5 l-47 14q-15 5 -26 5q-29 0 -45 -36h-39q11 44 35.5 66.5t59.5 22.5q15 0 26 -4l47 -15q8 -3 15 -4t12 -1q32 0 47 35h40z" unicode="ã"/>
<glyph glyph-name="adieresis" d="M419 54q-19 -34 -58.5 -47.5t-103.5 -13.5q-56 0 -95 6.5t-63 24.5t-34.5 50t-10.5 82q0 49 8.5 81.5t32.5 52.5q21 17 59.5 23t98.5 6q63 0 102.5 -10.5t59.5 -39.5v89q0 34 -6 54t-22.5 30t-45 13t-73.5 3q-32 0 -54.5 -2.5t-37 -10.5t-21 -22t-6.5 -36h-76v12 q0 70 46 96t144 26q72 0 118 -6t69 -23q29 -23 35 -54.5t6 -77.5v-360h-69zM415 185q0 38 -39 54.5t-117 16.5q-36 0 -60 -4t-38.5 -14t-20.5 -27.5t-6 -45.5q0 -31 6 -50.5t21 -31t41 -15.5t65 -4q75 0 111.5 17.5t36.5 49.5v54zM170 692h69v-80h-69v80zM327 692h69v-80 h-69v80z" unicode="ä"/>
<glyph glyph-name="aring" d="M415 185q0 38 -39 54.5t-117 16.5q-36 0 -60 -4t-38.5 -14t-20.5 -27.5t-6 -45.5q0 -31 6 -50.5t21 -31t41 -15.5t65 -4q75 0 111.5 17.5t36.5 49.5v54zM419 54q-19 -34 -58.5 -47.5t-103.5 -13.5q-56 0 -95 6.5t-63 24.5t-34.5 50t-10.5 82q0 49 8.5 81.5t32.5 52.5 q21 17 59.5 23t98.5 6q63 0 102.5 -10.5t59.5 -39.5v89q0 34 -6 54t-22.5 30t-45 13t-73.5 3q-32 0 -54.5 -2.5t-37 -10.5t-21 -22t-6.5 -36h-76v10q0 37 11.5 61t36 38t62 19.5t88.5 5.5q78 0 125.5 -8t69.5 -37q18 -23 21.5 -49t3.5 -57v-370h-69zM172 667q0 25 9 46 t25 37t37.5 25t46.5 9t46.5 -9t37.5 -25t25 -37t9 -46t-9 -46.5t-25 -37t-37.5 -24.5t-46.5 -9t-46.5 9t-37.5 24.5t-25 37t-9 46.5zM217 667q0 -31 21 -52t52 -21q30 0 51.5 21t21.5 52t-21 52t-52 21t-52 -21t-21 -52z" unicode="å"/>
<glyph glyph-name="ae" horiz-adv-x="917" unicode="æ" d="M415 185q0 38 -39 54.5t-117 16.5q-36 0 -60 -4t-38.5 -14t-20.5 -27.5t-6 -45.5q0 -31 6 -50.5t21 -31t41 -15.5t65 -4q75 0 111.5 17.5t36.5 49.5v54zM73 397q0 37 11.5 61t35.5 38t61.5 19.5t89.5 5.5q77 0 122 -10t65 -46q25 34 63 45t95 11h37q58 0 97.5 -10.5 t63.5 -34.5t34.5 -63t10.5 -95v-78h-370q-1 -12 -1 -22.5v-20.5q0 -41 6 -67.5t20.5 -41.5t39.5 -20.5t63 -5.5h36q31 0 53.5 3.5t37.5 13.5t23.5 27.5t11.5 44.5h79q-6 -86 -55.5 -122t-149.5 -36h-36q-34 0 -61 3t-48 11.5t-36.5 24t-27.5 39.5q-32 -45 -80 -61.5 t-123 -16.5q-52 0 -88 7.5t-58 26.5t-31.5 50.5t-9.5 78.5q0 49 8.5 81.5t32.5 52.5q21 17 59.5 23t98.5 6q63 0 102.5 -10.5t59.5 -39.5v89q0 34 -6 54t-22.5 30t-45 13t-73.5 3q-32 0 -54.5 -2.5t-36.5 -10t-21 -21.5t-7 -37h-76v10zM781 307v20q0 38 -6.5 62t-21.5 38 t-39.5 19t-60.5 5h-36q-36 0 -60.5 -5t-39.5 -19t-21.5 -38t-6.5 -62v-20h292z"/>
<glyph glyph-name="ccedilla" d="M265 -7q-58 0 -97.5 10.5t-64 34.5t-35 63t-10.5 95v122q0 56 10.5 95t34.5 63t63.5 34.5t97.5 10.5h36q106 0 155.5 -41t51.5 -138h-79q-1 34 -8.5 55t-22.5 33t-39 16.5t-58 4.5h-36q-42 0 -67.5 -6.5t-38.5 -23.5t-17 -46t-4 -74v-88q0 -45 4 -74t17 -46.5t38.5 -24 t67.5 -6.5h36q35 0 59.5 5t39.5 18.5t22 36.5t7 59v9h79v-10q0 -102 -48.5 -144.5t-157.5 -42.5h-36zM288 -56h31q25 0 40 -3t22.5 -12t9.5 -24.5t2 -40.5q0 -28 -2 -45t-9.5 -26.5t-22 -13t-39.5 -3.5h-129v43h104q13 0 21 1.5t11.5 6t4.5 14t1 25.5t-1 25t-5 13t-12 5 t-21 1h-38v90h32v-56z" unicode="ç"/>
<glyph glyph-name="egrave" d="M265 -7q-58 0 -97.5 10.5t-64 34.5t-35 63t-10.5 95v122q0 56 10.5 95t34.5 63t63.5 34.5t97.5 10.5h36q58 0 97.5 -10.5t64 -34.5t35 -63t10.5 -95v-78h-370q-1 -12 -1 -23v-21q0 -41 6 -67t20.5 -41t39 -20.5t62.5 -5.5h36q31 0 53.5 3.5t38 13.5t24 27.5t11.5 44.5h79 q-6 -86 -55.5 -122t-149.5 -36h-36zM428 307v20q0 38 -6.5 62t-21.5 38t-39.5 19t-60.5 5h-36q-36 0 -60.5 -5t-39.5 -19t-21 -38t-6 -62v-20h291zM171 745h74l102 -170h-45z" unicode="è"/>
<glyph glyph-name="eacute" d="M265 -7q-58 0 -97.5 10.5t-64 34.5t-35 63t-10.5 95v122q0 56 10.5 95t34.5 63t63.5 34.5t97.5 10.5h36q58 0 97.5 -10.5t64 -34.5t35 -63t10.5 -95v-78h-370q-1 -12 -1 -23v-21q0 -41 6 -67t20.5 -41t39 -20.5t62.5 -5.5h36q31 0 53.5 3.5t38 13.5t24 27.5t11.5 44.5h79 q-6 -86 -55.5 -122t-149.5 -36h-36zM428 307v20q0 38 -6.5 62t-21.5 38t-39.5 19t-60.5 5h-36q-36 0 -60.5 -5t-39.5 -19t-21 -38t-6 -62v-20h291zM225 575l102 170h74l-131 -170h-45z" unicode="é"/>
<glyph glyph-name="ecircumflex" d="M265 -7q-58 0 -97.5 10.5t-64 34.5t-35 63t-10.5 95v122q0 56 10.5 95t34.5 63t63.5 34.5t97.5 10.5h36q58 0 97.5 -10.5t64 -34.5t35 -63t10.5 -95v-78h-370q-1 -12 -1 -23v-21q0 -41 6 -67t20.5 -41t39 -20.5t62.5 -5.5h36q31 0 53.5 3.5t38 13.5t24 27.5t11.5 44.5h79 q-6 -86 -55.5 -122t-149.5 -36h-36zM428 307v20q0 38 -6.5 62t-21.5 38t-39.5 19t-60.5 5h-36q-36 0 -60.5 -5t-39.5 -19t-21 -38t-6 -62v-20h291zM249 745h74l98 -170h-45l-90 128l-90 -128h-45z" unicode="ê"/>
<glyph glyph-name="edieresis" d="M265 -7q-58 0 -97.5 10.5t-64 34.5t-35 63t-10.5 95v122q0 56 10.5 95t34.5 63t63.5 34.5t97.5 10.5h36q58 0 97.5 -10.5t64 -34.5t35 -63t10.5 -95v-78h-370q-1 -12 -1 -23v-21q0 -41 6 -67t20.5 -41t39 -20.5t62.5 -5.5h36q31 0 53.5 3.5t38 13.5t24 27.5t11.5 44.5h79 q-6 -86 -55.5 -122t-149.5 -36h-36zM428 307v20q0 38 -6.5 62t-21.5 38t-39.5 19t-60.5 5h-36q-36 0 -60.5 -5t-39.5 -19t-21 -38t-6 -62v-20h291zM173 692h69v-80h-69v80zM330 692h69v-80h-69v80z" unicode="ë"/>
<glyph glyph-name="igrave" horiz-adv-x="234" unicode="ì" d="M79 514h76v-514h-76v514zM3 745h74l102 -170h-45z"/>
<glyph glyph-name="iacute" horiz-adv-x="234" unicode="í" d="M79 514h76v-514h-76v514zM57 575l102 170h74l-131 -170h-45z"/>
<glyph glyph-name="icircumflex" horiz-adv-x="234" unicode="î" d="M79 514h76v-514h-76v514zM81 745h74l98 -170h-45l-90 128l-90 -128h-45z"/>
<glyph glyph-name="idieresis" horiz-adv-x="234" unicode="ï" d="M79 514h76v-514h-76v514zM5 692h69v-80h-69v80zM162 692h69v-80h-69v80z"/>
<glyph glyph-name="eth" d="M174 573l-21 56l141 46l-38 52h81l25 -32l100 33l22 -55l-80 -27q46 -67 74.5 -146.5t28.5 -181.5v-122q0 -56 -10.5 -95t-34.5 -63t-63.5 -34.5t-97.5 -10.5h-36q-58 0 -97.5 10.5t-64 34.5t-35 63t-10.5 95v122q0 56 10.5 95t34.5 63t63.5 34.5t97.5 10.5h29 q40 0 70.5 -16.5t56.5 -50.5q-12 42 -32.5 84t-51.5 87zM264 451q-42 0 -67.5 -6.5t-38.5 -23.5t-17 -46t-4 -74v-88q0 -45 4 -74t17 -46.5t38.5 -24t67.5 -6.5h36q42 0 67.5 6.5t39 23.5t17.5 46.5t4 74.5v88q0 34 -10 62t-27.5 47.5t-41 30t-49.5 10.5h-36z" unicode="ð"/>
<glyph glyph-name="ntilde" horiz-adv-x="576" unicode="ñ" d="M79 514h73v-70q19 40 60 58.5t108 18.5q51 0 86 -10t56.5 -32t30.5 -57t9 -85v-337h-76v321q0 37 -4.5 62.5t-17 40.5t-35 21.5t-59.5 6.5q-81 0 -118 -36.5t-37 -116.5v-299h-76v514zM444 703q-25 -88 -93 -88q-14 0 -32 5l-47 14q-15 5 -26 5q-29 0 -45 -36h-39 q11 44 35.5 66.5t59.5 22.5q15 0 26 -4l47 -15q8 -3 15 -4t12 -1q32 0 47 35h40z"/>
<glyph glyph-name="ograve" d="M265 -7q-58 0 -97.5 10.5t-64 34.5t-35 63t-10.5 95v122q0 56 10.5 95t34.5 63t63.5 34.5t97.5 10.5h36q58 0 97.5 -10.5t64 -34.5t35 -63t10.5 -95v-122q0 -56 -10.5 -95t-34.5 -63t-63.5 -34.5t-97.5 -10.5h-36zM428 301q0 45 -4 74t-17.5 46t-39 23.5t-67.5 6.5h-36 q-42 0 -67.5 -6.5t-38.5 -23.5t-17 -46t-4 -74v-88q0 -45 4 -74t17 -46.5t38.5 -24t67.5 -6.5h36q42 0 67.5 6.5t39 24t17.5 46.5t4 74v88zM168 745h74l102 -170h-45z" unicode="ò"/>
<glyph glyph-name="oacute" d="M265 -7q-58 0 -97.5 10.5t-64 34.5t-35 63t-10.5 95v122q0 56 10.5 95t34.5 63t63.5 34.5t97.5 10.5h36q58 0 97.5 -10.5t64 -34.5t35 -63t10.5 -95v-122q0 -56 -10.5 -95t-34.5 -63t-63.5 -34.5t-97.5 -10.5h-36zM428 301q0 45 -4 74t-17.5 46t-39 23.5t-67.5 6.5h-36 q-42 0 -67.5 -6.5t-38.5 -23.5t-17 -46t-4 -74v-88q0 -45 4 -74t17 -46.5t38.5 -24t67.5 -6.5h36q42 0 67.5 6.5t39 24t17.5 46.5t4 74v88zM222 575l102 170h74l-131 -170h-45z" unicode="ó"/>
<glyph glyph-name="ocircumflex" d="M265 -7q-58 0 -97.5 10.5t-64 34.5t-35 63t-10.5 95v122q0 56 10.5 95t34.5 63t63.5 34.5t97.5 10.5h36q58 0 97.5 -10.5t64 -34.5t35 -63t10.5 -95v-122q0 -56 -10.5 -95t-34.5 -63t-63.5 -34.5t-97.5 -10.5h-36zM428 301q0 45 -4 74t-17.5 46t-39 23.5t-67.5 6.5h-36 q-42 0 -67.5 -6.5t-38.5 -23.5t-17 -46t-4 -74v-88q0 -45 4 -74t17 -46.5t38.5 -24t67.5 -6.5h36q42 0 67.5 6.5t39 24t17.5 46.5t4 74v88zM246 745h74l98 -170h-45l-90 128l-90 -128h-45z" unicode="ô"/>
<glyph glyph-name="otilde" d="M265 -7q-58 0 -97.5 10.5t-64 34.5t-35 63t-10.5 95v122q0 56 10.5 95t34.5 63t63.5 34.5t97.5 10.5h36q58 0 97.5 -10.5t64 -34.5t35 -63t10.5 -95v-122q0 -56 -10.5 -95t-34.5 -63t-63.5 -34.5t-97.5 -10.5h-36zM428 301q0 45 -4 74t-17.5 46t-39 23.5t-67.5 6.5h-36 q-42 0 -67.5 -6.5t-38.5 -23.5t-17 -46t-4 -74v-88q0 -45 4 -74t17 -46.5t38.5 -24t67.5 -6.5h36q42 0 67.5 6.5t39 24t17.5 46.5t4 74v88zM424 703q-25 -88 -93 -88q-14 0 -32 5l-47 14q-15 5 -26 5q-29 0 -45 -36h-39q11 44 35.5 66.5t59.5 22.5q15 0 26 -4l47 -15 q8 -3 15 -4t12 -1q32 0 47 35h40z" unicode="õ"/>
<glyph glyph-name="odieresis" d="M265 -7q-58 0 -97.5 10.5t-64 34.5t-35 63t-10.5 95v122q0 56 10.5 95t34.5 63t63.5 34.5t97.5 10.5h36q58 0 97.5 -10.5t64 -34.5t35 -63t10.5 -95v-122q0 -56 -10.5 -95t-34.5 -63t-63.5 -34.5t-97.5 -10.5h-36zM428 301q0 45 -4 74t-17.5 46t-39 23.5t-67.5 6.5h-36 q-42 0 -67.5 -6.5t-38.5 -23.5t-17 -46t-4 -74v-88q0 -45 4 -74t17 -46.5t38.5 -24t67.5 -6.5h36q42 0 67.5 6.5t39 24t17.5 46.5t4 74v88zM170 692h69v-80h-69v80zM327 692h69v-80h-69v80z" unicode="ö"/>
<glyph glyph-name="divide" horiz-adv-x="833" unicode="÷" d="M417 523q22 0 37 -15.5t15 -37.5q0 -21 -14.5 -36.5t-37.5 -15.5t-37.5 15t-14.5 37t15.5 37.5t36.5 15.5zM709 274h-585v48h585v-48zM417 178q22 0 37 -15t15 -37q0 -21 -14.5 -36.5t-37.5 -15.5q-22 0 -37 15t-15 37t15.5 37t36.5 15z"/>
<glyph glyph-name="oslash" d="M428 301q0 29 -1 53.5t-3 44.5l-242 -331q42 -6 82 -6h36q42 0 67.5 6.5t39 24t17.5 46.5t4 74v88zM265 -7q-34 0 -63 3t-55 14l-52 -69l-58 44l52 71q-19 26 -25 60t-6 80v122q0 56 10.5 95t34.5 63t63.5 34.5t97.5 10.5h36q85 0 119 -17l51 69l57 -43l-51 -70 q19 -29 25 -63.5t6 -78.5v-122q0 -56 -10.5 -95t-34.5 -63t-63.5 -34.5t-97.5 -10.5h-36zM380 445q-18 4 -38 5t-42 1h-36q-42 0 -67.5 -6.5t-38.5 -23.5t-17 -46t-4 -74v-88q0 -26 0.5 -49.5t2.5 -45.5z" unicode="ø"/>
<glyph glyph-name="ugrave" horiz-adv-x="576" unicode="ù" d="M498 0h-73v70q-19 -40 -60.5 -58.5t-108.5 -18.5q-51 0 -86 10t-56.5 32t-30.5 57t-9 85v337h76v-321q0 -38 4.5 -63t17 -40t35.5 -21.5t60 -6.5q81 0 117.5 36.5t36.5 116.5v299h77v-514zM173 745h74l102 -170h-45z"/>
<glyph glyph-name="uacute" horiz-adv-x="576" unicode="ú" d="M498 0h-73v70q-19 -40 -60.5 -58.5t-108.5 -18.5q-51 0 -86 10t-56.5 32t-30.5 57t-9 85v337h76v-321q0 -38 4.5 -63t17 -40t35.5 -21.5t60 -6.5q81 0 117.5 36.5t36.5 116.5v299h77v-514zM227 575l102 170h74l-131 -170h-45z"/>
<glyph glyph-name="ucircumflex" horiz-adv-x="576" unicode="û" d="M498 0h-73v70q-19 -40 -60.5 -58.5t-108.5 -18.5q-51 0 -86 10t-56.5 32t-30.5 57t-9 85v337h76v-321q0 -38 4.5 -63t17 -40t35.5 -21.5t60 -6.5q81 0 117.5 36.5t36.5 116.5v299h77v-514zM251 745h74l98 -170h-45l-90 128l-90 -128h-45z"/>
<glyph glyph-name="udieresis" horiz-adv-x="576" unicode="ü" d="M498 0h-73v70q-19 -40 -60.5 -58.5t-108.5 -18.5q-51 0 -86 10t-56.5 32t-30.5 57t-9 85v337h76v-321q0 -38 4.5 -63t17 -40t35.5 -21.5t60 -6.5q81 0 117.5 36.5t36.5 116.5v299h77v-514zM175 692h69v-80h-69v80zM332 692h69v-80h-69v80z"/>
<glyph glyph-name="yacute" horiz-adv-x="488" unicode="ý" d="M99 514l153 -442l152 442h75l-194 -559q-14 -40 -28 -69.5t-31.5 -48.5t-40 -28t-53.5 -9q-18 0 -40 3v67q6 -1 12 -1h11q19 0 32.5 4t24 13.5t18.5 24.5t16 36l19 53h-23l-179 514h76zM184 575l102 170h74l-131 -170h-45z"/>
<glyph glyph-name="thorn" horiz-adv-x="574" unicode="þ" d="M153 434q18 45 58 66t105 21q56 0 94 -11t61.5 -35.5t34 -63t10.5 -93.5v-122q0 -55 -10.5 -93.5t-34 -63t-61.5 -35.5t-94 -11q-61 0 -99.5 17.5t-60.5 62.5v-270h-76v924h73v-293zM156 215q0 -81 37 -117t120 -36q42 0 66.5 7.5t37 24.5t16.5 46t4 73v88q0 46 -4 75 t-18 46t-40 23.5t-70 6.5q-77 0 -113 -37.5t-36 -115.5v-84z"/>
<glyph glyph-name="dotlessi" horiz-adv-x="234" unicode="ı" d="M79 514h76v-514h-76v514z"/>
<glyph glyph-name="OE" horiz-adv-x="1148" unicode="Œ" d="M597 67q-29 -46 -70.5 -61t-107.5 -15h-92q-73 0 -123 12.5t-81 42t-44.5 77t-13.5 117.5v247q0 70 13.5 117.5t44.5 77t81 42t123 12.5h92q68 0 110 -15.5t68 -60.5v67h510v-77h-430v-238h418v-74h-418v-262h430v-76h-510v67zM148 243q0 -54 5 -88.5t30 -55.5 q28 -23 64 -27.5t85 -4.5h81q49 0 85 4.5t64 27.5q25 21 30 55.5t5 88.5v241q0 54 -5 88.5t-30 55.5q-28 23 -64 27.5t-85 4.5h-81q-49 0 -85 -4.5t-64 -27.5q-25 -21 -30 -55.5t-5 -88.5v-241z"/>
<glyph glyph-name="oe" horiz-adv-x="931" unicode="œ" d="M428 301q0 45 -4 74t-17.5 46t-39 23.5t-67.5 6.5h-36q-42 0 -67.5 -6.5t-38.5 -23.5t-17 -46t-4 -74v-88q0 -45 4 -74t17 -46.5t38.5 -24t67.5 -6.5h36q42 0 67.5 6.5t39 24t17.5 46.5t4 74v88zM265 -7q-58 0 -97.5 10.5t-64 34.5t-35 63t-10.5 95v122q0 56 10.5 95 t34.5 63t63.5 34.5t97.5 10.5h36q58 0 97.5 -11.5t68.5 -50.5q25 38 64 50t100 12h36q58 0 97.5 -10.5t64 -34.5t35 -63t10.5 -95v-78h-371q-1 -12 -1 -22.5v-20.5q0 -41 6 -67.5t20.5 -41.5t39.5 -20.5t63 -5.5h36q31 0 53.5 3.5t38 13.5t24 27.5t11.5 44.5h78 q-6 -86 -55.5 -122t-149.5 -36h-36q-61 0 -100.5 12t-64.5 51q-27 -40 -66 -51.5t-98 -11.5h-36zM794 307v20q0 38 -6.5 62t-21.5 38t-39.5 19t-60.5 5h-36q-36 0 -60.5 -5t-39.5 -19t-21.5 -38t-6.5 -62v-20h292z"/>
<glyph glyph-name="Scaron" horiz-adv-x="713" unicode="Š" d="M149 237v-14q0 -57 8 -91t34 -48q24 -14 74.5 -16t130.5 -2q57 0 93 7t54 27q18 19 18 97q0 34 -2 57t-10 37.5t-24 22t-45 9.5l-224 18q-48 4 -82 15t-55.5 33t-31 57.5t-9.5 87.5q0 59 11.5 99t42.5 67q29 26 78.5 31t122.5 5h26q40 0 74 -1t62.5 -5.5t53 -14.5 t44.5 -27q41 -35 41 -131v-17t-1 -18h-81v18q0 35 -4 58t-16 35q-19 19 -68 23t-133 4q-49 0 -81.5 -3.5t-52 -16t-28 -38t-8.5 -69.5q0 -32 4 -52.5t14.5 -33.5t28 -19.5t44.5 -8.5l229 -19q46 -4 77 -16.5t50 -35t27 -56t8 -81.5q0 -57 -7 -97.5t-33 -69.5 q-17 -20 -40 -30.5t-51.5 -16t-64 -6.5t-78.5 -1h-36q-71 0 -123 6.5t-89 39.5q-29 25 -41 65.5t-12 99.5v18t1 18h80zM267 960l90 -128l90 128h45l-98 -170h-74l-98 170h45z"/>
<glyph glyph-name="scaron" horiz-adv-x="583" unicode="š" d="M137 153v-12q0 -26 8 -42.5t26 -25.5t46 -12t67 -3t67 1.5t45 10t25 26.5t8 50q0 28 -5 44.5t-18 25.5t-34.5 12.5t-55.5 5.5q-78 4 -128 5t-70 12q-32 17 -43 46.5t-11 77.5t12.5 77t40 44.5t72.5 20t110 4.5q51 0 88 -5t61 -19.5t35.5 -40t11.5 -65.5h-76v5 q0 38 -35 49t-112 11q-40 0 -65.5 -2.5t-40.5 -11t-20.5 -24.5t-5.5 -43q0 -24 3 -38.5t17 -22.5q21 -11 53.5 -12t78.5 -3q60 -2 98.5 -6t55.5 -12q36 -17 49.5 -47t13.5 -83t-13 -83.5t-52 -54.5q-18 -11 -57.5 -15.5t-101.5 -4.5q-59 0 -101.5 5t-70 20.5t-40.5 44.5 t-13 76v14h77zM202 745l90 -128l90 128h45l-98 -170h-74l-98 170h45z"/>
<glyph glyph-name="Ydieresis" horiz-adv-x="595" unicode="Ÿ" d="M258 0v322l-301 405h95l245 -339l245 339h95l-300 -404v-323h-79zM185 907h69v-80h-69v80zM342 907h69v-80h-69v80z"/>
<glyph glyph-name="circumflex" horiz-adv-x="500" unicode="ˆ" d="M213 745h74l98 -170h-45l-90 128l-90 -128h-45z"/>
<glyph glyph-name="caron" horiz-adv-x="500" unicode="ˇ" d="M160 745l90 -128l90 128h45l-98 -170h-74l-98 170h45z"/>
<glyph glyph-name="tilde" horiz-adv-x="500" unicode="˜" d="M391 703q-25 -88 -93 -88q-14 0 -32 5l-47 14q-15 5 -26 5q-29 0 -45 -36h-39q11 44 35.5 66.5t59.5 22.5q15 0 26 -4l47 -15q8 -3 15 -4t12 -1q32 0 47 35h40z"/>
<glyph glyph-name="endash" horiz-adv-x="500" unicode="–" d="M0 296h500v-51h-500v51z"/>
<glyph glyph-name="emdash" horiz-adv-x="1000" unicode="—" d="M1000 296v-51h-1000v51h1000z"/>
<glyph glyph-name="quoteleft" horiz-adv-x="324" unicode="‘" d="M202 528h-80v122q0 37 20.5 57t59.5 20v-43q-18 -2 -25.5 -9.5t-7.5 -24.5v-21h33v-101z"/>
<glyph glyph-name="quotesinglbase" horiz-adv-x="324" unicode="‚" d="M122 101h80v-122q0 -37 -20.5 -57t-59.5 -20v43q18 2 25.5 9.5t7.5 24.5v21h-33v101z"/>
<glyph glyph-name="quotedblleft" horiz-adv-x="491" unicode="“" d="M201 528h-80v122q0 37 20.5 57t59.5 20v-43q-18 -2 -25.5 -9.5t-7.5 -24.5v-21h33v-101zM370 528h-81v122q0 37 21 57t60 20v-43q-18 -2 -26 -9.5t-8 -24.5v-21h34v-101z"/>
<glyph glyph-name="quotedblright" horiz-adv-x="491" unicode="”" d="M289 727h80v-122q0 -37 -20.5 -57t-59.5 -20v43q18 2 25.5 9.5t7.5 24.5v21h-33v101zM121 727h80v-122q0 -37 -20.5 -57t-59.5 -20v43q18 2 25.5 9.5t7.5 24.5v21h-33v101z"/>
<glyph glyph-name="dagger" horiz-adv-x="500" unicode="†" d="M288 532h144v-69h-144v-463h-76v463h-144v69h144v195h76v-195z"/>
<glyph glyph-name="daggerdbl" horiz-adv-x="500" unicode="‡" d="M288 561h144v-69h-144v-256h144v-69h-144v-167h-76v167h-144v69h144v256h-144v69h144v166h76v-166z"/>
<glyph glyph-name="ellipsis" horiz-adv-x="1000" unicode="…" d="M63 106h85v-106h-85v106zM396 106h85v-106h-85v106zM730 106h85v-106h-85v106z"/>
<glyph glyph-name="perthousand" horiz-adv-x="1336" unicode="‰" d="M547 736h69l-257 -745h-69zM678 -9q-42 0 -70.5 8t-45.5 26.5t-24.5 48.5t-7.5 73v153q0 43 7.5 72.5t24.5 48t45.5 27t70.5 8.5h44q42 0 71 -8.5t46 -27t24.5 -48t7.5 -72.5v-153q0 -43 -7.5 -73t-24.5 -48.5t-46 -26.5t-71 -8h-44zM225 337q30 0 47.5 4.5t26.5 16.5 t11.5 32t2.5 52v123q0 31 -2.5 51.5t-11.5 32.5t-26.5 17t-47.5 5h-36q-30 0 -47.5 -5t-27 -17t-12 -32.5t-2.5 -51.5v-123q0 -32 3 -52.5t12 -32t26.5 -16t47.5 -4.5h36zM718 57q30 0 47.5 4.5t26.5 16.5t12 32t3 52v123q0 31 -2.5 51.5t-12 32.5t-27 17t-47.5 5h-35 q-30 0 -47.5 -5t-27 -17t-12 -32.5t-2.5 -51.5v-123q0 -32 3 -52.5t12 -32t26.5 -16t47.5 -4.5h35zM185 271q-42 0 -70.5 8t-46 26.5t-25 48t-7.5 72.5v154q0 43 7.5 72.5t25 48t46 27t70.5 8.5h44q42 0 70.5 -8.5t46 -27t24.5 -48t7 -72.5v-154q0 -43 -7 -72.5t-24.5 -48 t-46 -26.5t-70.5 -8h-44zM1108 -9q-42 0 -70.5 8t-46 26.5t-25 48.5t-7.5 73v153q0 43 7.5 72.5t25 48t46 27t70.5 8.5h44q42 0 70.5 -8.5t46 -27t24.5 -48t7 -72.5v-153q0 -43 -7 -73t-24.5 -48.5t-46 -26.5t-70.5 -8h-44zM1148 57q30 0 47.5 4.5t26.5 16.5t11.5 32t2.5 52 v123q0 31 -2.5 51.5t-11.5 32.5t-26.5 17t-47.5 5h-36q-30 0 -47.5 -5t-26.5 -17t-11.5 -32.5t-2.5 -51.5v-123q0 -32 2.5 -52.5t11.5 -32t26.5 -16t47.5 -4.5h36z"/>
<glyph glyph-name="guilsinglleft" horiz-adv-x="308" unicode="‹" d="M168 104l-120 153l120 153h84l-121 -153l121 -153h-84z"/>
<glyph glyph-name="guilsinglright" horiz-adv-x="308" unicode="›" d="M177 257l-121 153h84l120 -153l-120 -153h-84z"/>
<glyph glyph-name="trademark" horiz-adv-x="833" unicode="™" d="M339 682h-84v-231h-40v231h-86v28h210v-28zM539 504l76 206h57v-259h-35v228l-86 -228h-24l-91 228v-228h-35v259h57z"/>
<glyph glyph-name="minus" horiz-adv-x="833" unicode="−" d="M709 274h-585v48h585v-48z"/>
</font>
</defs>
</svg>
