<?xml version="1.0" encoding="UTF-8" standalone="no"?>
<!DOCTYPE svg  PUBLIC '-//W3C//DTD SVG 1.1//EN'  'http://www.w3.org/Graphics/SVG/1.1/DTD/svg11.dtd'>
<svg xmlns="http://www.w3.org/2000/svg">
<defs>
<font id="Square721Blk-Normal" horiz-adv-x="729">
<font-face underline-position="-140" font-weight="700" descent="-200" panose-1="2 11 9 4 2 2 2 6 2 4" units-per-em="1000" unicode-range="U+0020-25CA" bbox="-20 -242 1268 969" x-height="514" underline-thickness="40" font-family="Square721Blk" ascent="800" cap-height="727"/>
<missing-glyph horiz-adv-x="1000"/>
<glyph glyph-name=".notdef" horiz-adv-x="1000"/>
<glyph glyph-name=".null" horiz-adv-x="0"/>
<glyph glyph-name="nonmarkingreturn" horiz-adv-x="1000"/>
<glyph glyph-name="space" horiz-adv-x="277" unicode=" "/>
<glyph glyph-name="exclam" horiz-adv-x="383" unicode="!" d="M283 0h-180v189h180v-189zM283 282h-180v445h180v-445z"/>
<glyph glyph-name="quotedbl" horiz-adv-x="469" unicode='&quot;' d="M193 600l-42 -130h-54l-42 130v130h138v-130zM429 600l-42 -130h-54l-42 130v130h138v-130z"/>
<glyph glyph-name="numbersign" horiz-adv-x="550" unicode="#" d="M358 380h-104l-24 -124h102zM562 380h-98l-24 -124h94v-112h-118l-34 -174h-106l34 174h-102l-32 -174h-106l32 174h-90v112h112l24 124h-96v114h118l38 202h106l-38 -202h100l40 202h104l-38 -202h80v-114z"/>
<glyph glyph-name="dollar" horiz-adv-x="723" unicode="$" d="M679 195q0 -93 -58.5 -148.5t-158.5 -55.5h-62v-130h-80v130h-17q-131 0 -192 45t-61 144v59h207v-17q0 -34 18.5 -46.5t66.5 -12.5h49q40 0 55 8.5t15 34.5v31q0 28 -26 36q-13 4 -43 7l-158 16q-93 11 -136 57.5t-43 138.5v44q0 105 67 160q30 24 71.5 32t110.5 8h16 v106h80v-106h21q115 0 174.5 -45.5t59.5 -130.5v-58h-207v17q0 27 -13 37t-48 10h-45q-39 0 -55 -7.5t-16 -30.5v-29q0 -23 18 -30q8 -3 52 -8l144 -16q194 -21 194 -182v-68z"/>
<glyph glyph-name="percent" horiz-adv-x="909" unicode="%" d="M735 143v52q0 36 -5 47t-29 11h-13q-24 0 -29 -10t-5 -48v-52q0 -31 2.5 -44t31.5 -13h13q24 0 29 10.5t5 46.5zM269 531v52q0 36 -5 47t-29 11h-13q-24 0 -29 -10t-5 -48v-52q0 -31 2.5 -44t31.5 -13h13q24 0 29 10.5t5 46.5zM858 136q0 -78 -31.5 -109.5t-109.5 -31.5 h-45q-79 0 -110.5 31.5t-31.5 109.5v67q0 78 31.5 109.5t110.5 31.5h45q79 0 110 -31t31 -110v-67zM720 736l-426 -730h-80l418 730h88zM392 524q0 -78 -31.5 -109.5t-109.5 -31.5h-45q-79 0 -110.5 31.5t-31.5 109.5v67q0 78 31.5 109.5t110.5 31.5h45q79 0 110 -31 t31 -110v-67z"/>
<glyph glyph-name="ampersand" horiz-adv-x="774" unicode="&amp;" d="M459 165l-199 171q-13 -3 -16.5 -12t-3.5 -31v-19v-64q0 -55 68 -55h114q26 0 37 10zM775 101l-105 -119l-81 70q-30 -31 -75 -43.5t-115 -12.5h-93q-134 0 -197.5 45.5t-63.5 141.5v89q0 129 108 156q-48 48 -48 114v37q0 84 56.5 120.5t179.5 36.5h56q122 0 179 -36.5 t57 -120.5v-85h-180v60q0 26 -41 26h-75q-42 0 -42 -26v-22q0 -7 3 -14t8 -10l207 -181v65h178v-125q0 -53 -14 -82z"/>
<glyph glyph-name="quotesingle" horiz-adv-x="237" unicode="&apos;" d="M193 600l-42 -130h-54l-42 130v130h138v-130z"/>
<glyph glyph-name="parenleft" horiz-adv-x="331" unicode="(" d="M310 -202h-100q-55 91 -82 145q-42 82 -60 149q-22 80 -22 172q0 97 27 190q22 76 63 153q22 41 74 123h100q-61 -106 -96 -216q-40 -126 -40 -242q0 -124 37.5 -252t98.5 -222z"/>
<glyph glyph-name="parenright" horiz-adv-x="331" unicode=")" d="M292 264q0 -91 -22 -172q-18 -67 -59 -148q-24 -48 -83 -146h-100q59 91 97.5 221t38.5 253q0 119 -39 242q-33 106 -97 216h100q49 -77 73 -122q43 -82 64 -152q27 -93 27 -192z"/>
<glyph glyph-name="asterisk" horiz-adv-x="386" unicode="*" d="M356 574l-108 -38l78 -96l-64 -54l-74 96l-68 -96l-64 54l76 96l-108 38l26 72l102 -38v122h78v-122l100 38z"/>
<glyph glyph-name="plus" horiz-adv-x="578" unicode="+" d="M542 172h-182v-182h-120v182h-182v120h182v182h120v-182h182v-120z"/>
<glyph glyph-name="comma" horiz-adv-x="383" unicode="," d="M284 -22q0 -46 -41 -75.5t-114 -29.5h-25v87h13q42 0 42 29v4h-55v182h180v-197z"/>
<glyph glyph-name="hyphen" horiz-adv-x="331" unicode="-" d="M306 208h-272v136h272v-136z"/>
<glyph glyph-name="hyphen" horiz-adv-x="331" unicode="­" d="M306 208h-272v136h272v-136z"/>
<glyph glyph-name="period" horiz-adv-x="383" unicode="." d="M283 0h-180v174h180v-174z"/>
<glyph glyph-name="slash" horiz-adv-x="277" unicode="/" d="M282 730l-210 -730h-64l210 730h64z"/>
<glyph glyph-name="zero" d="M468 296v136q0 66 -4 82q-11 45 -81 45h-31q-58 0 -72 -24t-14 -103v-136q0 -78 14.5 -102.5t71.5 -24.5h31q58 0 73 27q12 21 12 100zM676 290q0 -165 -58 -232t-207 -67h-87q-149 0 -207 67t-58 232v148q0 164 58 231t207 67h87q148 0 206.5 -66.5t58.5 -231.5v-148z " unicode="0"/>
<glyph glyph-name="one" d="M575 0h-203v515l-161 -139l-124 134l259 216l229 1v-727z" unicode="1"/>
<glyph glyph-name="two" d="M664 484q0 -162 -140 -200l-206 -54q-35 -9 -35 -35v-19h376v-176h-586v178q0 159 125 195l212 62q27 8 38 18.5t11 32.5v28q0 34 -16 47t-58 13h-32q-40 0 -56.5 -13.5t-16.5 -46.5v-49h-200v73q0 96 60.5 147t176.5 51h106q113 0 177 -52.5t64 -140.5v-59z" unicode="2"/>
<glyph glyph-name="three" d="M663 180q0 -88 -64.5 -138.5t-180.5 -50.5h-110q-114 0 -178.5 51.5t-64.5 141.5v74h204v-43q0 -32 18 -46t58 -14h34q75 0 75 55v26q0 55 -75 55h-70v162h68q68 0 68 53v18q0 51 -67 51h-31q-37 0 -52.5 -13.5t-15.5 -46.5v-34h-202v58q0 94 63.5 145.5t184.5 51.5h79 q122 0 185 -48t63 -139v-46q0 -93 -85 -127q96 -37 96 -143v-53z" unicode="3"/>
<glyph glyph-name="four" d="M408 297v241l-175 -241h175zM696 136h-86v-136h-202v136h-365l1 198l289 393h277v-430h86v-161z" unicode="4"/>
<glyph glyph-name="five" d="M663 201q0 -117 -59 -163t-206 -46h-68q-123 0 -188.5 49.5t-65.5 138.5v48h201v-22q0 -31 16.5 -40.5t60.5 -9.5h27q48 0 62.5 11.5t14.5 51.5v70q0 43 -13.5 53.5t-63.5 10.5h-27q-36 0 -42 -1q-29 -5 -32 -36h-192v411h541v-159h-347v-91q40 35 112 35h42 q120 0 173.5 -49.5t53.5 -160.5v-101z" unicode="5"/>
<glyph glyph-name="six" d="M466 198v53q0 28 -13.5 35.5t-58.5 7.5h-39q-45 0 -59 -7t-14 -36v-53q0 -30 14 -37.5t59 -7.5h39q46 0 59 7.5t13 37.5zM668 187q0 -196 -252 -196h-86q-142 0 -197 67t-55 232v148q0 164 55 231t197 67h86q117 0 176 -43t59 -126v-53h-202v19q0 26 -11 34t-44 8h-48 q-41 0 -52.5 -9t-11.5 -43v-102q44 33 109 33h71q107 0 156.5 -49.5t49.5 -152.5v-65z" unicode="6"/>
<glyph glyph-name="seven" d="M648 727l-1 -152l-252 -575h-213l243 566h-348v161h571z" unicode="7"/>
<glyph glyph-name="eight" d="M459 211v27q0 56 -79 56h-20q-76 0 -76 -56v-27q0 -56 78 -56h21q76 0 76 56zM450 505v18q0 26 -17.5 39.5t-52.5 13.5h-17q-69 0 -69 -53v-18q0 -54 68 -54h19q69 0 69 54zM664 180q0 -88 -64.5 -138.5t-180.5 -50.5h-94q-116 0 -180.5 50.5t-64.5 138.5v53 q0 106 95 143q-84 33 -84 118v45q0 197 248 197h66q248 0 248 -197v-45q0 -82 -87 -117q98 -37 98 -144v-53z" unicode="8"/>
<glyph glyph-name="nine" d="M459 477v53q0 30 -13.5 37.5t-58.5 7.5h-40q-46 0 -59 -7.5t-13 -37.5v-53q0 -28 13.5 -35.5t58.5 -7.5h40q45 0 58.5 7t13.5 36zM663 290q0 -164 -55 -231.5t-197 -67.5h-86q-117 0 -176 43t-59 126v54h202v-19q0 -26 11 -34t44 -8h48q41 0 52.5 9t11.5 43v102 q-44 -33 -109 -33h-71q-106 0 -156 49t-50 152v65q0 196 252 196h86q142 0 197 -67t55 -231v-148z" unicode="9"/>
<glyph glyph-name="colon" horiz-adv-x="383" unicode=":" d="M283 0h-180v187h180v-187zM283 321h-180v186h180v-186z"/>
<glyph glyph-name="semicolon" horiz-adv-x="383" unicode=";" d="M283 -19q0 -48 -41 -78.5t-114 -30.5h-25v90h13q42 0 42 30v4h-55v188h180v-203zM283 319h-180v188h180v-188z"/>
<glyph glyph-name="less" horiz-adv-x="578" unicode="&lt;" d="M522 0l-480 240v120l480 210v-120l-330 -150l330 -180v-120z"/>
<glyph glyph-name="equal" horiz-adv-x="578" unicode="=" d="M542 52h-484v120h484v-120zM542 292h-484v120h484v-120z"/>
<glyph glyph-name="greater" horiz-adv-x="578" unicode="&gt;" d="M524 240l-480 -240v120l330 180l-330 150v120l480 -210v-120z"/>
<glyph glyph-name="question" horiz-adv-x="606" unicode="?" d="M370 0h-191v189h191v-189zM557 509q0 -45 -25 -87q-17 -27 -53 -51q-9 -6 -78 -44q-31 -16 -31 -41v-33h-191v67q0 47 16.5 74t53.5 47l85 45q30 15 30 29v44q0 31 -38 31h-43q-47 0 -47 -34v-36h-190v52q0 77 51.5 120.5t147.5 43.5h115q93 0 145 -43t52 -114v-70z"/>
<glyph glyph-name="at" horiz-adv-x="964" unicode="@" d="M600 356q0 30 -20 57q-24 33 -62 33q-69 0 -117 -72q-41 -61 -41 -120q0 -49 21 -83.5t53 -34.5q84 0 130 80q36 63 36 140zM942 356q0 -103 -54 -188q-70 -110 -194 -110q-83 0 -118 68q-50 -41 -82 -56.5t-66 -15.5q-54 0 -102 39q-62 50 -62 137q0 101 72 190 q79 98 188 98q39 0 70.5 -20t39.5 -48l16 60h90l-84 -302q0 -37 8.5 -54.5t35.5 -17.5q63 0 110 83q44 78 44 169q0 111 -99.5 198.5t-230.5 87.5q-173 0 -286 -141q-98 -123 -98 -267q0 -152 127 -243q104 -75 221 -75q72 0 102.5 6t105.5 34l30 -80q-57 -24 -95 -32 q-58 -12 -155 -12q-172 0 -298 106q-134 113 -134 282q0 199 140 350q145 156 350 156q72 0 156 -34q107 -43 171 -123q81 -101 81 -245z"/>
<glyph glyph-name="A" horiz-adv-x="779" unicode="A" d="M461 287l-67 274l-66 -274h133zM764 0h-231l-33 124h-213l-33 -124h-231l215 727h316z"/>
<glyph glyph-name="B" horiz-adv-x="754" unicode="B" d="M483 219v29q0 23 -12.5 32.5t-39.5 9.5h-135v-113h135q52 0 52 42zM472 484v28q0 39 -48 39h-128v-106h128q48 0 48 39zM702 191q0 -110 -64 -152q-59 -39 -209 -39h-347v727h352q137 0 195.5 -39t58.5 -135v-46q0 -105 -90 -132q104 -39 104 -142v-42z"/>
<glyph glyph-name="C" horiz-adv-x="736" unicode="C" d="M690 262q0 -145 -65 -208t-212 -63h-66q-161 0 -224.5 66.5t-63.5 232.5v148q0 165 63.5 231.5t224.5 66.5h54q159 0 221.5 -58.5t62.5 -204.5v-24h-214v23q0 44 -21 61t-72 17q-62 0 -78.5 -25.5t-16.5 -102.5v-117q0 -77 14 -99q18 -28 81 -28q53 0 73.5 18.5 t20.5 69.5v26h218v-30z"/>
<glyph glyph-name="D" horiz-adv-x="802" unicode="D" d="M531 305v117q0 79 -15 101q-18 27 -84 27h-135v-373h135q65 0 82 24.5t17 103.5zM750 292q0 -161 -63.5 -226.5t-224.5 -65.5h-380v727h380q160 0 224 -66t64 -226v-143z"/>
<glyph glyph-name="E" horiz-adv-x="717" unicode="E" d="M656 0h-574v727h566v-177h-351v-103h341v-156h-341v-114h359v-177z"/>
<glyph glyph-name="F" horiz-adv-x="644" unicode="F" d="M591 550h-294v-118h277v-175h-277v-257h-215v727h509v-177z"/>
<glyph glyph-name="G" horiz-adv-x="781" unicode="G" d="M730 277q0 -149 -66.5 -217.5t-212.5 -68.5h-132q-127 0 -193.5 78.5t-66.5 231.5v107q0 169 68.5 248.5t219.5 79.5h106q124 0 200.5 -60t76.5 -149v-40h-215q0 36 -22.5 49.5t-70.5 13.5h-49q-65 0 -82.5 -25t-17.5 -103v-117q0 -79 15 -100q19 -27 85 -27h54 q51 0 72 12.5t21 47.5v17h-111v152h321v-130z"/>
<glyph glyph-name="H" horiz-adv-x="821" unicode="H" d="M746 0h-215v277h-234v-277h-215v727h215v-264h234v264h215v-727z"/>
<glyph glyph-name="I" horiz-adv-x="389" unicode="I" d="M305 0h-217v727h217v-727z"/>
<glyph glyph-name="J" horiz-adv-x="652" unicode="J" d="M577 227q0 -235 -216 -235h-90q-123 0 -176.5 50.5t-53.5 170.5v110h210v-90q0 -31 7 -43.5t30 -12.5h35q22 0 29.5 12.5t7.5 43.5v494h217v-500z"/>
<glyph glyph-name="K" horiz-adv-x="744" unicode="K" d="M762 0h-265l-191 283h-9v-283h-215v727h215v-265l185 265h256l-247 -352z"/>
<glyph glyph-name="L" horiz-adv-x="643" unicode="L" d="M626 0h-542v727h217v-543h325v-184z"/>
<glyph glyph-name="M" horiz-adv-x="1042" unicode="M" d="M970 0h-210v456l-128 -456h-211l-129 462v-462h-210v727h303l141 -484l141 484h303v-727z"/>
<glyph glyph-name="N" horiz-adv-x="878" unicode="N" d="M804 0h-307l-209 492v-492h-206v727h306l210 -487v487h206v-727z"/>
<glyph glyph-name="O" horiz-adv-x="784" unicode="O" d="M513 305v117q0 79 -15 101q-19 27 -85 27h-36q-65 0 -82 -24.5t-17 -103.5v-117q0 -78 15 -100q19 -27 84 -27h36q66 0 83 24.5t17 102.5zM732 290q0 -165 -64 -232t-225 -67h-96q-161 0 -224.5 66.5t-63.5 232.5v148q0 165 63.5 231.5t224.5 66.5h96q161 0 225 -66 t64 -232v-148z"/>
<glyph glyph-name="P" horiz-adv-x="748" unicode="P" d="M492 440v41q0 38 -17 53t-60 15h-118v-183h126q42 0 55.5 14.5t13.5 59.5zM711 435q0 -133 -65.5 -189.5t-212.5 -56.5h-136v-189h-215v727h351q147 0 212.5 -56t65.5 -189v-47z"/>
<glyph glyph-name="Q" horiz-adv-x="791" unicode="Q" d="M513 274v150q0 78 -15 100q-19 27 -85 27h-36q-65 0 -82 -24.5t-17 -102.5v-117q0 -78 16.5 -102t82.5 -24h35l-45 37l91 102zM753 79l-87 -105l-66 54q-28 -17 -69.5 -24.5t-96.5 -7.5h-87q-162 0 -225 66t-63 231v146q0 164 63.5 230.5t224.5 66.5h96q161 0 225 -66 t64 -231v-146q0 -65 -7.5 -103t-28.5 -65z"/>
<glyph glyph-name="R" horiz-adv-x="747" unicode="R" d="M470 454v27q0 40 -15.5 54.5t-58.5 14.5h-99v-164h99q42 0 58 14t16 54zM688 0h-219v137q0 40 -16 55t-58 15h-98v-207h-215v727h303q166 0 231 -40q72 -45 72 -163v-58q0 -128 -106 -161q56 -17 81 -52t25 -97v-156z"/>
<glyph glyph-name="S" horiz-adv-x="723" unicode="S" d="M679 195q0 -93 -58.5 -148.5t-158.5 -55.5h-159q-131 0 -192 45t-61 144v59h207v-17q0 -34 18.5 -46.5t66.5 -12.5h49q40 0 55 8.5t15 34.5v31q0 28 -26 36q-13 4 -43 7l-158 16q-93 11 -136 57.5t-43 138.5v44q0 105 67 160q30 24 71.5 32t110.5 8h117 q115 0 174.5 -45.5t59.5 -130.5v-58h-207v17q0 27 -13 37t-48 10h-45q-39 0 -55 -7.5t-16 -30.5v-29q0 -23 18 -30q8 -3 52 -8l144 -16q194 -21 194 -182v-68z"/>
<glyph glyph-name="T" horiz-adv-x="660" unicode="T" d="M628 550h-186v-550h-217v550h-187v177h590v-177z"/>
<glyph glyph-name="U" horiz-adv-x="804" unicode="U" d="M740 290q0 -87 -8 -126q-12 -57 -48.5 -98.5t-89.5 -57.5t-140 -16h-96q-85 0 -139 16t-90.5 57.5t-47 90.5t-10.5 134v437h214v-422q0 -77 19 -102.5t84 -25.5h36q65 0 83.5 25t18.5 103v422h214v-437z"/>
<glyph glyph-name="V" horiz-adv-x="768" unicode="V" d="M753 727l-213 -727h-311l-206 727h229l133 -521l140 521h228z"/>
<glyph glyph-name="W" horiz-adv-x="1064" unicode="W" d="M1035 727l-124 -727h-296l-80 434l-83 -434h-299l-115 727h218l62 -490l103 490h234l95 -489l68 489h217z"/>
<glyph glyph-name="X" horiz-adv-x="764" unicode="X" d="M746 0h-245l-114 256l-119 -256h-244l198 378l-170 349h242l96 -229l97 229h243l-176 -350z"/>
<glyph glyph-name="Y" horiz-adv-x="719" unicode="Y" d="M727 727l-256 -472v-255h-215v255l-257 472h243l123 -259l121 259h241z"/>
<glyph glyph-name="Z" d="M669 0h-615l1 179l335 364h-314v184h593l-2 -182l-325 -361h327v-184z" unicode="Z"/>
<glyph glyph-name="bracketleft" horiz-adv-x="331" unicode="[" d="M314 -202h-242v932h242v-100h-110v-728h110v-104z"/>
<glyph glyph-name="backslash" horiz-adv-x="277" unicode="\" d="M298 0h-76l-226 730h76z"/>
<glyph glyph-name="bracketright" horiz-adv-x="331" unicode="]" d="M266 -202h-242v104h112v728h-112v100h242v-932z"/>
<glyph glyph-name="asciicircum" horiz-adv-x="578" unicode="^" d="M520 272h-112l-118 298l-118 -298h-112l166 424h124z"/>
<glyph glyph-name="underscore" horiz-adv-x="495" unicode="_" d="M500 -242h-500v120h500v-120z"/>
<glyph glyph-name="grave" horiz-adv-x="532" unicode="`" d="M364 576h-91l-169 181h153z"/>
<glyph glyph-name="a" horiz-adv-x="616" unicode="a" d="M364 155v26q0 33 -39 33h-45q-40 0 -40 -33v-26q0 -34 40 -34h45q39 0 39 34zM549 0h-184v30q-39 -36 -105 -36h-59q-71 0 -109 38t-38 109v46q0 68 42.5 105.5t123.5 37.5h45q60 0 100 -32v73q0 34 -35 34h-28q-23 0 -32 -6.5t-9 -29.5h-183q0 84 43.5 118.5t140.5 34.5 h78q114 0 161.5 -39.5t47.5 -133.5v-349z"/>
<glyph glyph-name="b" horiz-adv-x="618" unicode="b" d="M382 221v77q0 48 -7 63q-10 21 -43 21h-19q-32 0 -41 -18.5t-9 -65.5v-77q0 -47 8.5 -65t41.5 -18h19q32 0 41 18t9 65zM568 209q0 -110 -43 -163t-137 -53q-87 0 -131 53l1 -46h-178v727h183v-247q21 23 51.5 35t72.5 12q94 0 137.5 -52.5t43.5 -162.5v-103z"/>
<glyph glyph-name="c" horiz-adv-x="597" unicode="c" d="M552 182q0 -102 -50 -145t-165 -43h-69q-118 0 -166 48t-48 165v102q0 117 48 165t166 48h69q115 0 164.5 -42.5t49.5 -144.5v-23h-184v14q0 32 -11 45t-41 13h-22q-36 0 -44 -16.5t-8 -70.5v-79q0 -45 2 -55q7 -32 50 -32h22q31 0 41.5 13.5t10.5 49.5v21h184z"/>
<glyph glyph-name="d" horiz-adv-x="618" unicode="d" d="M359 221v77q0 50 -6 63q-10 21 -43 21h-19q-32 0 -41 -18.5t-9 -65.5v-77q0 -47 8.5 -65t41.5 -18h19q33 0 41 17.5t8 65.5zM543 0h-179l1 46q-44 -53 -130 -53q-93 0 -137 53t-44 163v103q0 110 43.5 162.5t137.5 52.5q82 0 124 -47v247h184v-727z"/>
<glyph glyph-name="e" horiz-adv-x="599" unicode="e" d="M371 323v8q0 42 -10.5 57t-45.5 15h-21q-34 0 -45 -14t-11 -53v-13h133zM551 221h-313v-51q0 -29 12 -40t43 -11h21q27 0 39.5 10.5t15.5 41.5h181q0 -95 -52.5 -136t-160.5 -41h-69q-118 0 -166 48t-48 165v102q0 117 48 165t166 48h69q118 0 166 -48t48 -165v-88z"/>
<glyph glyph-name="f" horiz-adv-x="396" unicode="f" d="M382 379h-107v-379h-186v379h-56v141h55v27q0 94 39 137t125 43h130v-136h-48q-32 0 -45.5 -7t-13.5 -26v-38h107v-141z"/>
<glyph glyph-name="g" horiz-adv-x="615" unicode="g" d="M369 216v77q0 49 -7 63q-10 21 -46 21h-20q-34 0 -43.5 -18.5t-9.5 -65.5v-77q0 -49 7 -63q11 -21 46 -21h20q35 0 44 18.5t9 65.5zM545 37q0 -72 -8 -105q-11 -45 -44 -77q-23 -22 -65.5 -36.5t-90.5 -14.5h-56q-201 0 -201 139v38h177q0 -25 9 -34.5t30 -9.5h24 q30 0 39.5 16.5t9.5 59.5v40q-40 -46 -136 -46q-176 0 -176 199v101q0 110 43.5 162.5t136.5 52.5q83 0 125 -47v40h183v-478z"/>
<glyph glyph-name="h" horiz-adv-x="631" unicode="h" d="M565 0h-183v300q0 50 -11 63.5t-52 13.5q-37 0 -46.5 -18t-9.5 -69v-290h-183v727h183v-246q38 46 129 46q101 0 137 -42t36 -150v-335z"/>
<glyph glyph-name="i" horiz-adv-x="338" unicode="i" d="M263 0h-186v520h186v-520zM263 583h-186v144h186v-144z"/>
<glyph glyph-name="j" horiz-adv-x="343" unicode="j" d="M268 54q0 -110 -32 -153q-36 -49 -130 -49h-71v136q28 0 37.5 7.5t9.5 27.5v496h186v-465zM268 583h-186v145h186v-145z"/>
<glyph glyph-name="k" horiz-adv-x="596" unicode="k" d="M605 0h-214l-122 201h-6v-201h-183v727h183v-395h6l100 188h208l-145 -251z"/>
<glyph glyph-name="l" horiz-adv-x="338" unicode="l" d="M268 0h-186v727h186v-727z"/>
<glyph glyph-name="m" horiz-adv-x="879" unicode="m" d="M816 0h-181v297q0 48 -8.5 62t-42.5 14q-32 0 -39 -17t-7 -69v-287h-180v297q0 48 -8.5 62t-42.5 14q-32 0 -39 -17t-7 -69v-287h-181v515h176l-1 -42q38 48 126 48q105 0 139 -66q37 66 138 66q92 0 125 -42t33 -147v-332z"/>
<glyph glyph-name="n" horiz-adv-x="631" unicode="n" d="M565 0h-183v297q0 49 -11.5 62.5t-51.5 13.5q-38 0 -47 -17.5t-9 -68.5v-287h-183v515h178l-1 -46q44 52 135 52q101 0 137 -41t36 -148v-332z"/>
<glyph glyph-name="o" horiz-adv-x="600" unicode="o" d="M364 218v79q0 46 -2 56q-6 31 -49 31h-20q-36 0 -44 -16.5t-8 -70.5v-79q0 -45 2 -55q7 -32 50 -32h20q35 0 43 17t8 70zM551 207q0 -118 -47.5 -165.5t-166.5 -47.5h-69q-118 0 -166 48t-48 165v102q0 117 48 165t166 48h69q118 0 166 -48t48 -165v-102z"/>
<glyph glyph-name="p" horiz-adv-x="618" unicode="p" d="M382 217v77q0 48 -7 63q-10 21 -43 21h-19q-32 0 -41 -19t-9 -65v-77q0 -48 8.5 -66t41.5 -18h19q32 0 41 19t9 65zM568 203q0 -110 -43.5 -162.5t-137.5 -52.5q-83 0 -124 46v-230h-183v711h178l-1 -46q44 53 131 53q94 0 137 -52t43 -163v-104z"/>
<glyph glyph-name="q" horiz-adv-x="618" unicode="q" d="M359 217v77q0 37 -3 51q-7 33 -46 33h-19q-32 0 -41 -19t-9 -65v-77q0 -48 8.5 -66t41.5 -18h19q32 0 42 21q7 15 7 63zM543 -196h-184v230q-41 -46 -124 -46q-93 0 -137 53t-44 162v104q0 110 43.5 162.5t137.5 52.5q86 0 130 -53l-1 46h179v-711z"/>
<glyph glyph-name="r" horiz-adv-x="538" unicode="r" d="M519 278h-173v41q0 31 -8.5 42.5t-32.5 11.5q-30 0 -36 -17t-6 -69v-287h-183v515h178l-1 -43q36 49 114 49q86 0 117 -42t31 -147v-54z"/>
<glyph glyph-name="s" horiz-adv-x="602" unicode="s" d="M558 151q0 -73 -51 -115t-143 -42h-109q-206 0 -206 151v16h188q4 -30 16.5 -39t42.5 -9h22q33 0 45 7.5t12 31.5q0 22 -12 29.5t-48 10.5l-105 10q-72 7 -113.5 44.5t-41.5 93.5v39q0 143 202 143h101q185 0 185 -139v-20h-182q0 40 -52 40h-21q-52 0 -52 -37 q0 -18 9 -25t30 -7l116 -11q167 -15 167 -130v-42z"/>
<glyph glyph-name="t" horiz-adv-x="545" unicode="t" d="M508 158q0 -85 -40.5 -124.5t-127.5 -39.5h-87q-95 0 -139 54q-18 23 -23.5 50.5t-5.5 66.5v27v191h-59v135h59v96h183v-96h218v-135h-218v-194q0 -36 7 -48t36 -12q24 0 32.5 9.5t8.5 34.5v51h156v-66z"/>
<glyph glyph-name="u" horiz-adv-x="635" unicode="u" d="M565 0h-178l1 46q-44 -52 -135 -52q-102 0 -137.5 40t-35.5 148v333h183v-297q0 -49 11.5 -62.5t51.5 -13.5q37 0 48 20q8 15 8 65v288h183v-515z"/>
<glyph glyph-name="v" horiz-adv-x="582" unicode="v" d="M574 514l-157 -514h-259l-150 514h198l83 -339l87 339h198z"/>
<glyph glyph-name="w" horiz-adv-x="826" unicode="w" d="M804 514l-88 -514h-242l-56 298l-55 -298h-246l-87 514h185l37 -312l60 312h212l60 -311l36 311h184z"/>
<glyph glyph-name="x" horiz-adv-x="600" unicode="x" d="M586 0h-210l-71 169l-76 -169h-205l151 269l-132 245h208l55 -151l60 151h203l-133 -247z"/>
<glyph glyph-name="y" horiz-adv-x="577" unicode="y" d="M597 515l-184 -578q-21 -71 -63 -102.5t-124 -31.5q-19 0 -30 1q-56 5 -69 5v131h46q21 0 34 10t13 26l-2 34l-238 505h192l141 -336l88 336h196z"/>
<glyph glyph-name="z" horiz-adv-x="572" unicode="z" d="M523 0h-467l1 147l231 231h-217v136h445l-2 -145l-225 -230h234v-139z"/>
<glyph glyph-name="braceleft" horiz-adv-x="386" unicode="{" d="M316 -202h-86q-35 0 -69 32q-43 41 -43 104v230q0 37 -29 50q-18 8 -53 8v94q35 0 52 6q30 11 30 42v228q0 65 42 105q34 33 70 33h86v-98h-38q-30 0 -40 -17q-6 -10 -6 -37v-212q0 -51 -36 -77q-23 -16 -60 -21q39 -5 60 -20q36 -26 36 -86v-214q0 -27 5 -36 q9 -16 41 -16h38v-98z"/>
<glyph glyph-name="bar" horiz-adv-x="316" unicode="|" d="M208 -202h-80v932h80v-932z"/>
<glyph glyph-name="braceright" horiz-adv-x="386" unicode="}" d="M354 222q-34 0 -52 -8q-30 -14 -30 -50v-230q0 -63 -42 -103q-35 -33 -70 -33h-86v98h38q30 0 40 16q6 10 6 36v214q0 60 36 86q21 15 60 20q-37 5 -60 21q-36 26 -36 77v212q0 28 -5 37q-9 17 -41 17h-38v98h86q35 0 69 -33q43 -41 43 -105v-228q0 -32 29 -42 q17 -6 53 -6v-94z"/>
<glyph glyph-name="asciitilde" horiz-adv-x="578" unicode="~" d="M520 350q0 -60 -36 -106q-32 -40 -80 -40q-31 0 -116 48t-104 48q-29 0 -41.5 -21.5t-12.5 -44.5h-70q8 53 29 89q35 59 95 59q40 0 115 -48t97 -48q25 0 37 22q9 17 9 42h78z"/>
<glyph glyph-name="nonbreakingspace" horiz-adv-x="347" unicode=" " d="M306 300q0 -51 -36.5 -87.5t-87.5 -36.5q-53 0 -89.5 35.5t-36.5 88.5t36.5 89.5t89.5 36.5q51 0 87.5 -36.5t36.5 -89.5z"/>
<glyph glyph-name="exclamdown" horiz-adv-x="383" unicode="¡" d="M283 0h-180v445h180v-445zM283 538h-180v189h180v-189z"/>
<glyph glyph-name="cent" horiz-adv-x="597" unicode="¢" d="M552 182q0 -102 -49 -145t-163 -43v-112h-80v112q-113 0 -159.5 48.5t-46.5 164.5v102q0 115 46 164t160 49v91h80v-91q114 0 162.5 -42.5t48.5 -144.5v-23h-184v14q0 32 -11 45t-41 13h-22q-36 0 -44 -16.5t-8 -70.5v-79q0 -45 2 -55q7 -32 50 -32h22q31 0 41.5 13.5 t10.5 49.5v21h184z"/>
<glyph glyph-name="sterling" d="M695 0h-608v176q31 0 47.5 13.5t16.5 36.5v54h-82v146h82v97q0 100 61.5 156.5t173.5 56.5h52q113 0 177.5 -47.5t64.5 -126.5v-61h-195v35q0 17 -13 28t-35 11h-34q-48 0 -48 -41v-108h187v-146h-187q0 -67 -41 -104h381v-176z" unicode="£"/>
<glyph glyph-name="currency" horiz-adv-x="555" unicode="¤" d="M394 348q0 44 -30 79t-76 35q-47 0 -76.5 -34.5t-29.5 -79.5q0 -43 31.5 -71.5t74.5 -28.5q53 0 82 34q24 28 24 66zM540 536l-80 -78l20 -36q14 -29 14 -58q0 -38 -13 -71q-4 -10 -23 -45l76 -76l-68 -66l-76 78q-33 -18 -41 -21q-28 -11 -63 -11q-57 0 -100 34l-80 -80 l-66 66l78 80q-36 43 -36 105q0 67 34 99l-80 78l70 68l78 -78q40 30 108 30q30 0 57.5 -8t44.5 -20l78 78z"/>
<glyph glyph-name="yen" horiz-adv-x="719" unicode="¥" d="M727 727l-153 -282h65v-100h-119l-33 -60h112v-90h-128v-195h-215v195h-141v90h125l-33 60h-132v100h78l-154 282h243l123 -259l121 259h241z"/>
<glyph glyph-name="brokenbar" horiz-adv-x="316" unicode="¦" d="M208 -202h-80v416l80 -54v-362zM208 350l-80 54v326h80v-380z"/>
<glyph glyph-name="section" horiz-adv-x="550" unicode="§" d="M394 252q0 38 -35.5 58t-86.5 20q-46 0 -66 -17t-20 -47q0 -40 35 -59t87 -19q46 0 66 16.5t20 47.5zM538 276q0 -51 -16 -85t-46 -59q36 -33 36 -88q0 -111 -91 -157q-57 -29 -135 -29q-117 0 -179 62q-51 51 -51 124h134q0 -36 26 -58t78 -22q32 0 53 11q29 15 29 47 t-86 52q-128 31 -161 46q-87 41 -87 122q0 51 16 85t46 57q-19 17 -27.5 38t-8.5 52q0 110 91 156q55 28 135 28q117 0 179 -62q51 -51 51 -122h-134q0 34 -26.5 56t-77.5 22q-32 0 -53 -11q-29 -15 -29 -45q0 -32 86 -52q128 -31 161 -46q87 -41 87 -122z"/>
<glyph glyph-name="dieresis" horiz-adv-x="532" unicode="¨" d="M248 604h-130v120h130v-120zM418 604h-130v120h130v-120z"/>
<glyph glyph-name="copyright" horiz-adv-x="730" unicode="©" d="M570 294q-7 -67 -58 -107.5t-120 -40.5q-95 0 -153.5 62.5t-58.5 157.5q0 98 56.5 159t153.5 61q70 0 119 -38t61 -106h-86q-6 35 -32.5 55.5t-63.5 20.5q-59 0 -90.5 -43.5t-31.5 -106.5q0 -59 34.5 -106.5t91.5 -47.5q36 0 62.5 22.5t29.5 57.5h86zM686 364 q0 128 -91 219t-219 91q-130 0 -221 -91t-91 -219q0 -129 90.5 -220.5t221.5 -91.5q128 0 219 91t91 221zM758 364q0 -158 -112 -271t-270 -113q-159 0 -271.5 112.5t-112.5 271.5q0 158 112 270t272 112q158 0 270 -112t112 -270z"/>
<glyph glyph-name="ordfeminine" horiz-adv-x="471" unicode="ª" d="M275 477v18q0 20 -27 20h-33q-28 0 -28 -20v-18q0 -21 28 -21h33q27 0 27 21zM419 368h-143v18q-31 -23 -76 -23h-45q-112 0 -112 104v33q0 48 32 74t95 26h33q44 0 73 -20v46q0 21 -24 21h-21q-17 0 -22.5 -4t-5.5 -21h-142q0 61 32.5 86t107.5 25h59q87 0 123 -28 t36 -94v-243z"/>
<glyph glyph-name="guillemotleft" horiz-adv-x="550" unicode="«" d="M264 72l-166 148v116l166 146v-114l-100 -90l100 -88v-118zM478 74l-166 148v116l166 146v-114l-100 -90l100 -88v-118z"/>
<glyph glyph-name="logicalnot" horiz-adv-x="578" unicode="¬" d="M546 122h-114v176h-390v114h504v-290z"/>
<glyph glyph-name="registered" horiz-adv-x="730" unicode="®" d="M498 454q0 35 -35 47q-20 7 -65 7h-100v-116h122q39 0 56 11q22 14 22 51zM578 442q0 -112 -112 -112l100 -174h-94l-92 174h-82v-174h-80v412h200q34 0 62 -4t50 -16q25 -17 36.5 -45t11.5 -61zM686 364q0 129 -90.5 219.5t-219.5 90.5q-130 0 -221 -90t-91 -220 q0 -131 90.5 -221.5t221.5 -90.5q129 0 219.5 90.5t90.5 221.5zM758 364q0 -158 -112 -271t-270 -113q-159 0 -271.5 112.5t-112.5 271.5q0 158 112 270t272 112q158 0 270 -112t112 -270z"/>
<glyph glyph-name="degree" horiz-adv-x="397" unicode="°" d="M294 576q0 36 -26 63t-64 27q-37 0 -63.5 -26.5t-26.5 -63.5q0 -38 26 -64t64 -26t64 26t26 64zM354 576q0 -62 -44 -106t-106 -44t-106 43t-44 107q0 62 44 106t106 44t106 -44t44 -106z"/>
<glyph glyph-name="plusminus" horiz-adv-x="578" unicode="±" d="M532 -130h-484v120h484v-120zM532 292h-182v-182h-120v182h-182v120h182v182h120v-182h182v-120z"/>
<glyph glyph-name="twosuperior" horiz-adv-x="481" unicode="²" d="M438 569q0 -106 -92 -132l-136 -35q-23 -7 -23 -23v-13h248v-116h-387v117q0 105 83 129l140 41q18 6 25 12.5t7 21.5v18q0 22 -11 31t-38 9h-21q-27 0 -37.5 -8.5t-10.5 -31.5v-32h-132v48q0 63 40 97t116 34h70q74 0 116.5 -35t42.5 -93v-39z"/>
<glyph glyph-name="threesuperior" horiz-adv-x="481" unicode="³" d="M438 369q0 -58 -42.5 -91.5t-119.5 -33.5h-73q-76 0 -118 34t-42 93v49h135v-28q0 -40 50 -40h22q50 0 50 37v17q0 36 -50 36h-46v107h45q45 0 45 35v12q0 33 -45 33h-20q-23 0 -34 -9t-11 -30v-23h-133v39q0 63 41.5 96.5t121.5 33.5h53q163 0 163 -124v-30 q0 -62 -56 -84q64 -25 64 -94v-35z"/>
<glyph glyph-name="acute" horiz-adv-x="532" unicode="´" d="M432 757l-169 -181h-91l107 181h153z"/>
<glyph glyph-name="mu" horiz-adv-x="592" unicode="µ" d="M542 0h-140v68q-29 -47 -64 -68q-28 -17 -70 -24q-31 0 -70 6v-202h-140v762h140v-336q0 -51 12 -70q21 -34 90 -34q56 5 81 35q17 20 21 55v350h140v-542z"/>
<glyph glyph-name="paragraph" horiz-adv-x="550" unicode="¶" d="M534 658h-76v-878h-72v878h-84v-878h-72v486q-86 8 -135 53q-59 54 -69 161q-1 7 -1 21q0 88 58.5 158.5t132.5 70.5h318v-72z"/>
<glyph glyph-name="cedilla" horiz-adv-x="532" unicode="¸" d="M425 -135q0 -59 -29.5 -79.5t-109.5 -20.5h-124v77h127q18 0 24.5 4.5t6.5 19.5q0 21 -27 21h-60v113h70v-44h38q84 0 84 -91z"/>
<glyph glyph-name="onesuperior" horiz-adv-x="481" unicode="¹" d="M379 250h-133v340l-107 -92l-82 89l171 142l151 1v-480z"/>
<glyph glyph-name="ordmasculine" horiz-adv-x="459" unicode="º" d="M275 520v55q0 30 -1 36q-4 21 -35 21h-15q-24 0 -30 -11.5t-6 -45.5v-55q0 -31 2.5 -43.5t33.5 -12.5h15q30 0 33 14.5t3 41.5zM420 513q0 -83 -35.5 -116.5t-127.5 -33.5h-51q-91 0 -127 34t-36 116v70q0 83 35.5 116.5t127.5 33.5h51q91 0 127 -34t36 -116v-70z"/>
<glyph glyph-name="guillemotright" horiz-adv-x="550" unicode="»" d="M264 220l-166 -148v118l100 88l-100 90v114l166 -146v-116zM472 220l-166 -148v118l100 88l-100 90v114l166 -146v-116z"/>
<glyph glyph-name="onequarter" horiz-adv-x="1168" unicode="¼" d="M899 196v159l-115 -159h115zM1089 90h-56v-90h-134v90h-241l1 130l191 260h183v-284h56v-106zM830 736l-426 -730h-80l418 730h88zM379 250h-133v340l-107 -92l-82 89l171 142l151 1v-480z"/>
<glyph glyph-name="onehalf" horiz-adv-x="1168" unicode="½" d="M1108 319q0 -106 -92 -132l-136 -35q-23 -7 -23 -23v-13h248v-116h-387v117q0 105 83 129l140 41q18 6 25 12.5t7 21.5v18q0 22 -11 31t-38 9h-21q-27 0 -37.5 -8.5t-10.5 -31.5v-32h-132v48q0 63 40 97t116 34h70q74 0 116.5 -35t42.5 -93v-39zM830 736l-426 -730h-80 l418 730h88zM379 250h-133v340l-107 -92l-82 89l171 142l151 1v-480z"/>
<glyph glyph-name="threequarters" horiz-adv-x="1168" unicode="¾" d="M919 196v159l-115 -159h115zM1109 90h-56v-90h-134v90h-241l1 130l191 260h183v-284h56v-106zM850 736l-426 -730h-80l418 730h88zM438 369q0 -58 -42.5 -91.5t-119.5 -33.5h-73q-76 0 -118 34t-42 93v49h135v-28q0 -40 50 -40h22q50 0 50 37v17q0 36 -50 36h-46v107h45 q45 0 45 35v12q0 33 -45 33h-20q-23 0 -34 -9t-11 -30v-23h-133v39q0 63 41.5 96.5t121.5 33.5h53q163 0 163 -124v-30q0 -62 -56 -84q64 -25 64 -94v-35z"/>
<glyph glyph-name="questiondown" horiz-adv-x="606" unicode="¿" d="M557 158q0 -78 -50.5 -121.5t-147.5 -43.5h-116q-93 0 -145 43.5t-52 114.5v69q0 20 7 45t18 43q17 27 54 51q13 8 78 43q30 17 30 43v31h192v-66q0 -47 -16.5 -74t-53.5 -48l-85 -43q-11 -5 -18 -11q-13 -10 -13 -20v-43q0 -32 39 -32h43q46 0 46 35v36h190v-52z M425 541h-192v188h192v-188z"/>
<glyph glyph-name="Agrave" horiz-adv-x="779" unicode="À" d="M461 289l-67 276l-66 -276h133zM764 0h-231l-33 125h-213l-33 -125h-231l215 732h316zM489 772h-91l-169 197h153z"/>
<glyph glyph-name="Aacute" horiz-adv-x="779" unicode="Á" d="M461 289l-67 276l-66 -276h133zM764 0h-231l-33 125h-213l-33 -125h-231l215 732h316zM557 969l-169 -197h-91l107 197h153z"/>
<glyph glyph-name="Acircumflex" horiz-adv-x="779" unicode="Â" d="M461 289l-67 276l-66 -276h133zM764 0h-231l-33 125h-213l-33 -125h-231l215 732h316zM564 772h-91l-80 98l-81 -98h-90l107 197h128z"/>
<glyph glyph-name="Atilde" horiz-adv-x="779" unicode="Ã" d="M461 289l-67 275l-66 -275h133zM764 0h-231l-33 125h-213l-33 -125h-231l215 732h316zM561 945q-16 -72 -43.5 -104t-71.5 -32q-18 0 -39 6l-43 12q-20 6 -29 6q-24 0 -35 -39h-75q16 70 43 101.5t70 31.5q12 0 22 -1t23 -5l45 -13l24 -3q24 0 34 40h75z"/>
<glyph glyph-name="Adieresis" horiz-adv-x="779" unicode="Ä" d="M461 289l-67 275l-66 -275h133zM764 0h-231l-33 125h-213l-33 -125h-231l215 732h316zM373 800h-130v137h130v-137zM543 800h-130v137h130v-137z"/>
<glyph glyph-name="Aring" horiz-adv-x="779" unicode="Å" d="M461 289l-67 275l-66 -275h133zM445 826q0 19 -15 34t-35 15q-21 0 -35 -14t-14 -35q0 -20 14 -34t35 -14q20 0 35 14t15 34zM764 0h-231l-33 125h-213l-33 -125h-231l215 732h56q-39 39 -39 94q0 58 40.5 97.5t99.5 39.5t99.5 -39.5t40.5 -97.5t-38 -94h57z"/>
<glyph glyph-name="AE" horiz-adv-x="1011" unicode="Æ" d="M454 304v269h-31l-98 -269h129zM947 0h-493v150h-186l-55 -150h-229l299 727h657v-168h-279v-111h271v-152h-271v-126h286v-170z"/>
<glyph glyph-name="Ccedilla" horiz-adv-x="736" unicode="Ç" d="M528 -128q0 -62 -30 -84t-109 -22h-124v81h127q18 0 24.5 5.5t6.5 20.5q0 22 -27 22h-60v92q-152 1 -214 67q-64 68 -63 234v148q0 166 63.5 233.5t224.5 67.5h54q158 0 221 -59t63 -207v-23h-214v22q0 44 -21.5 62t-71.5 18q-62 0 -78.5 -26t-16.5 -104v-117 q0 -78 14 -100q18 -28 81 -28q52 0 73 19t21 70v26h218v-30q0 -145 -65 -209t-212 -64h-7v-18h38q84 0 84 -97z"/>
<glyph glyph-name="Egrave" horiz-adv-x="717" unicode="È" d="M656 0h-574v732h566v-178h-351v-104h341v-157h-341v-114h359v-179zM465 772h-91l-169 197h153z"/>
<glyph glyph-name="Eacute" horiz-adv-x="717" unicode="É" d="M656 0h-574v732h566v-178h-351v-104h341v-157h-341v-114h359v-179zM533 969l-169 -197h-91l107 197h153z"/>
<glyph glyph-name="Ecircumflex" horiz-adv-x="717" unicode="Ê" d="M656 0h-574v732h566v-178h-351v-104h341v-157h-341v-114h359v-179zM540 772h-91l-80 98l-81 -98h-90l107 197h128z"/>
<glyph glyph-name="Edieresis" horiz-adv-x="717" unicode="Ë" d="M656 0h-574v732h566v-179h-351v-103h341v-157h-341v-115h359v-178zM349 800h-130v137h130v-137zM519 800h-130v137h130v-137z"/>
<glyph glyph-name="Igrave" horiz-adv-x="389" unicode="Ì" d="M305 0h-217v732h217v-732zM292 772h-91l-169 197h153z"/>
<glyph glyph-name="Iacute" horiz-adv-x="389" unicode="Í" d="M305 0h-217v732h217v-732zM360 969l-169 -197h-91l107 197h153z"/>
<glyph glyph-name="Icircumflex" horiz-adv-x="389" unicode="Î" d="M305 0h-217v732h217v-732zM367 772h-91l-80 98l-81 -98h-90l107 197h128z"/>
<glyph glyph-name="Idieresis" horiz-adv-x="389" unicode="Ï" d="M305 0h-217v732h217v-732zM176 800h-130v137h130v-137zM346 800h-130v137h130v-137z"/>
<glyph glyph-name="Eth" horiz-adv-x="802" unicode="Ð" d="M531 305v117q0 79 -15 101q-18 27 -84 27h-135v-373h135q65 0 82 24.5t17 103.5zM750 292q0 -161 -63.5 -226.5t-224.5 -65.5h-380v343h-72v136h72v248h380q160 0 224 -66t64 -226v-143z"/>
<glyph glyph-name="Ntilde" horiz-adv-x="878" unicode="Ñ" d="M804 0h-307l-209 495v-495h-206v732h306l210 -491v491h206v-732zM611 945q-16 -72 -43.5 -104t-71.5 -32q-18 0 -39 6l-43 12q-20 6 -29 6q-24 0 -35 -39h-75q16 70 43 101.5t70 31.5q12 0 22 -1t23 -5l45 -13l24 -3q24 0 34 40h75z"/>
<glyph glyph-name="Ograve" horiz-adv-x="784" unicode="Ò" d="M513 307v118q0 79 -15 101q-19 28 -85 28h-36q-65 0 -82 -25.5t-17 -103.5v-118q0 -79 16.5 -103.5t82.5 -24.5h36q66 0 83 24.5t17 103.5zM732 292q0 -166 -63.5 -233.5t-225.5 -67.5h-96q-161 0 -224.5 67.5t-63.5 233.5v148q0 166 63.5 233.5t224.5 67.5h96 q161 0 225 -67t64 -234v-148zM492 772h-91l-169 197h153z"/>
<glyph glyph-name="Oacute" horiz-adv-x="784" unicode="Ó" d="M513 307v118q0 79 -15 101q-19 28 -85 28h-36q-65 0 -82 -25.5t-17 -103.5v-118q0 -79 16.5 -103.5t82.5 -24.5h36q66 0 83 24.5t17 103.5zM732 292q0 -166 -63.5 -233.5t-225.5 -67.5h-96q-161 0 -224.5 67.5t-63.5 233.5v148q0 166 63.5 233.5t224.5 67.5h96 q161 0 225 -67t64 -234v-148zM560 969l-169 -197h-91l107 197h153z"/>
<glyph glyph-name="Ocircumflex" horiz-adv-x="784" unicode="Ô" d="M513 307v118q0 79 -15 101q-19 28 -85 28h-36q-65 0 -82 -25.5t-17 -103.5v-118q0 -79 16.5 -103.5t82.5 -24.5h36q66 0 83 24.5t17 103.5zM732 292q0 -166 -63.5 -233.5t-225.5 -67.5h-96q-161 0 -224.5 67.5t-63.5 233.5v148q0 166 63.5 233.5t224.5 67.5h96 q161 0 225 -67t64 -234v-148zM567 772h-91l-80 98l-81 -98h-90l107 197h128z"/>
<glyph glyph-name="Otilde" horiz-adv-x="784" unicode="Õ" d="M513 307v117q0 80 -15 102q-19 28 -85 28h-36q-65 0 -82 -25.5t-17 -104.5v-117q0 -80 16.5 -104.5t82.5 -24.5h36q65 0 84 27q16 23 16 102zM732 292q0 -166 -63.5 -233.5t-225.5 -67.5h-96q-161 0 -224.5 67.5t-63.5 233.5v148q0 166 63.5 233.5t224.5 67.5h96 q160 0 224.5 -67.5t64.5 -233.5v-148zM564 945q-16 -72 -43.5 -104t-71.5 -32q-18 0 -39 6l-43 12q-20 6 -29 6q-24 0 -35 -38h-75q15 69 42.5 100.5t70.5 31.5q12 0 22 -1t23 -5l45 -13l24 -3q24 0 34 40h75z"/>
<glyph glyph-name="Odieresis" horiz-adv-x="784" unicode="Ö" d="M513 307v117q0 80 -15 102q-19 28 -85 28h-36q-65 0 -82 -25.5t-17 -104.5v-117q0 -80 16.5 -104.5t82.5 -24.5h36q65 0 84 27q16 23 16 102zM732 292q0 -166 -63.5 -233.5t-225.5 -67.5h-96q-161 0 -224.5 67.5t-63.5 233.5v148q0 166 63.5 233.5t224.5 67.5h96 q160 0 224.5 -67.5t64.5 -233.5v-148zM376 800h-130v137h130v-137zM546 800h-130v137h130v-137z"/>
<glyph glyph-name="multiply" horiz-adv-x="578" unicode="×" d="M535 82l-85 -85l-150 150l-150 -150l-85 85l150 150l-150 150l85 85l150 -150l150 150l85 -85l-150 -150z"/>
<glyph glyph-name="Oslash" horiz-adv-x="784" unicode="Ø" d="M513 305v117v22v20q-2 8 -2 11l-189 -291q21 -6 55 -6h36q66 0 83 24.5t17 102.5zM470 543q-20 7 -57 7h-36q-65 0 -82 -24.5t-17 -103.5v-117v-30t2 -28zM735 820l-86 -133q44 -33 63.5 -92.5t19.5 -156.5v-148q0 -165 -64 -232t-225 -67h-96q-85 0 -139 17l-79 -122 h-80l97 151q-46 33 -66.5 94t-20.5 159v148q0 165 63.5 231.5t224.5 66.5h96q42 0 76.5 -4t63.5 -13l64 101h88z"/>
<glyph glyph-name="Ugrave" horiz-adv-x="804" unicode="Ù" d="M740 292q0 -88 -8 -127q-12 -57 -48 -98.5t-90.5 -58.5t-139.5 -17h-96q-87 0 -139.5 16t-89.5 58.5t-47.5 91.5t-10.5 135v440h214v-425q0 -78 19 -103t84 -25h36q65 0 83.5 25t18.5 103v425h214v-440zM502 772h-91l-169 197h153z"/>
<glyph glyph-name="Uacute" horiz-adv-x="804" unicode="Ú" d="M740 292q0 -88 -8 -127q-12 -57 -48 -98.5t-90.5 -58.5t-139.5 -17h-96q-87 0 -139.5 16t-89.5 58.5t-47.5 91.5t-10.5 135v440h214v-425q0 -78 19 -103t84 -25h36q65 0 83.5 25t18.5 103v425h214v-440zM570 969l-169 -197h-91l107 197h153z"/>
<glyph glyph-name="Ucircumflex" horiz-adv-x="804" unicode="Û" d="M740 292q0 -88 -8 -127q-12 -57 -48 -98.5t-90.5 -58.5t-139.5 -17h-96q-87 0 -139.5 16t-89.5 58.5t-47.5 91.5t-10.5 135v440h214v-425q0 -78 19 -103t84 -25h36q65 0 83.5 25t18.5 103v425h214v-440zM577 772h-91l-80 98l-81 -98h-90l107 197h128z"/>
<glyph glyph-name="Udieresis" horiz-adv-x="804" unicode="Ü" d="M740 292q0 -88 -8 -127q-12 -57 -48 -98.5t-90.5 -58.5t-139.5 -17h-96q-87 0 -139.5 16t-89.5 58.5t-47.5 91.5t-10.5 135v440h214v-425q0 -78 19 -103.5t84 -25.5h36q64 0 83 26t19 103v425h214v-440zM386 800h-130v137h130v-137zM556 800h-130v137h130v-137z"/>
<glyph glyph-name="Yacute" horiz-adv-x="719" unicode="Ý" d="M727 732l-256 -475v-257h-215v257l-257 475h243l123 -261l121 261h241zM527 969l-169 -197h-91l107 197h153z"/>
<glyph glyph-name="Thorn" horiz-adv-x="748" unicode="Þ" d="M492 346v40q0 36 -17.5 52.5t-59.5 16.5h-118v-184h126q41 0 55 15t14 60zM711 340q0 -133 -65 -189t-213 -56h-136v-95h-215v727h215v-94h136q147 0 212.5 -56.5t65.5 -189.5v-47z"/>
<glyph glyph-name="germandbls" horiz-adv-x="609" unicode="ß" d="M564 179q0 -100 -44 -143t-148 -43q-27 0 -72 6v138l29 -3q26 0 36.5 13.5t10.5 46.5v91q0 29 -16 40t-58 11v121q26 0 35 9t9 30v52q0 41 -41 41q-24 0 -32 -12.5t-8 -44.5v-532h-187v537q0 190 195 190h61q91 0 139 -41t48 -116v-54q0 -38 -10.5 -62t-35.5 -38 q45 -15 67 -51.5t22 -98.5v-87z"/>
<glyph glyph-name="agrave" horiz-adv-x="616" unicode="à" d="M364 156v26q0 35 -39 35h-45q-40 0 -40 -35v-26q0 -34 40 -34h45q39 0 39 34zM549 0h-184v30q-40 -37 -105 -37h-59q-71 0 -109 39t-38 111v46q0 69 42 107t124 38h45q61 0 100 -33v74q0 35 -35 35h-28q-23 0 -32 -6.5t-9 -30.5h-183q0 85 43.5 119.5t140.5 34.5h78 q115 0 162 -39t47 -135v-353zM415 561h-91l-169 195h153z"/>
<glyph glyph-name="aacute" horiz-adv-x="616" unicode="á" d="M364 156v26q0 35 -39 35h-45q-40 0 -40 -35v-26q0 -34 40 -34h45q39 0 39 34zM549 0h-184v30q-40 -37 -105 -37h-59q-71 0 -109 39t-38 111v46q0 69 42 107t124 38h45q61 0 100 -33v74q0 35 -35 35h-28q-23 0 -32 -6.5t-9 -30.5h-183q0 85 43.5 119.5t140.5 34.5h78 q115 0 162 -39t47 -135v-353zM483 756l-169 -195h-91l107 195h153z"/>
<glyph glyph-name="acircumflex" horiz-adv-x="616" unicode="â" d="M364 156v26q0 35 -39 35h-45q-40 0 -40 -35v-26q0 -34 40 -34h45q39 0 39 34zM549 0h-184v30q-40 -37 -105 -37h-59q-71 0 -109 39t-38 111v46q0 69 42 107t124 38h45q61 0 100 -33v74q0 35 -35 35h-28q-23 0 -32 -6.5t-9 -30.5h-183q0 85 43.5 119.5t140.5 34.5h78 q115 0 162 -39t47 -135v-353zM490 561h-91l-80 97l-81 -97h-90l107 195h128z"/>
<glyph glyph-name="atilde" horiz-adv-x="616" unicode="ã" d="M364 156v26q0 34 -39 34h-45q-40 0 -40 -34v-26q0 -34 40 -34h45q39 0 39 34zM549 0h-184v30q-40 -37 -105 -37h-59q-71 0 -109 39t-38 110v47q0 69 42.5 106.5t123.5 37.5h45q62 0 100 -32v74q0 34 -35 34h-28q-23 0 -32 -6.5t-9 -29.5h-183q0 85 43.5 119.5t140.5 34.5 h78q114 0 161.5 -39.5t47.5 -134.5v-353zM487 732q-16 -71 -44 -103t-71 -32q-18 0 -39 6l-43 12q-17 5 -29 5q-13 0 -21 -8t-14 -29h-75q15 68 42.5 99.5t70.5 31.5q12 0 22 -1t23 -5l45 -13l24 -2q25 0 34 39h75z"/>
<glyph glyph-name="adieresis" horiz-adv-x="616" unicode="ä" d="M364 156v26q0 34 -39 34h-45q-40 0 -40 -34v-26q0 -34 40 -34h45q39 0 39 34zM549 0h-184v30q-40 -37 -105 -37h-59q-71 0 -109 39t-38 110v47q0 69 42.5 106.5t123.5 37.5h45q60 0 100 -32v74q0 34 -35 34h-28q-23 0 -32 -6.5t-9 -29.5h-183q0 85 43.5 119.5t140.5 34.5 h78q114 0 161.5 -39.5t47.5 -134.5v-353zM299 588h-130v136h130v-136zM469 588h-130v136h130v-136z"/>
<glyph glyph-name="aring" horiz-adv-x="616" unicode="å" d="M364 156v27q0 34 -39 34h-45q-40 0 -40 -34v-27q0 -34 40 -34h45q39 0 39 34zM374 677q0 19 -15 34t-35 15q-21 0 -35 -14t-14 -35q0 -20 14 -34t35 -14q20 0 35 14t15 34zM549 0h-184v30q-40 -37 -105 -37h-59q-71 0 -109 39t-38 111v47q0 69 42.5 106.5t123.5 37.5h45 q60 0 100 -32v74q0 34 -35 34h-28q-23 0 -32 -6.5t-9 -29.5h-183q0 85 43.5 119.5t140.5 34.5h78q115 0 162 -39t47 -135v-354zM464 677q0 -58 -40.5 -97.5t-99.5 -39.5t-99 39t-40 98q0 57 40.5 96.5t98.5 39.5q60 0 100 -39t40 -97z"/>
<glyph glyph-name="ae" horiz-adv-x="900" unicode="æ" d="M364 155v26q0 33 -39 33h-45q-40 0 -40 -33v-26q0 -34 40 -34h45q39 0 39 34zM673 323v8q0 42 -10.5 57t-45.5 15h-21q-34 0 -45 -14t-11 -53v-13h133zM853 221h-313v-51q0 -29 12 -40t43 -11h20q28 0 40.5 10.5t15.5 41.5h181q0 -95 -52.5 -136t-160.5 -41h-69 q-67 0 -109 13.5t-68 46.5q-51 -60 -133 -60h-59q-71 0 -109 38t-38 109v46q0 68 42.5 105.5t123.5 37.5h45q60 0 100 -32v73q0 34 -35 34h-28q-23 0 -32 -6.5t-9 -29.5h-183q0 84 43.5 118.5t140.5 34.5h78q41 0 69.5 -7.5t50.5 -28.5q18 20 43.5 28t66.5 8h69 q118 0 166 -48t48 -165v-88z"/>
<glyph glyph-name="ccedilla" horiz-adv-x="597" unicode="ç" d="M458 -129q0 -62 -30 -84t-109 -22h-124v81h127q18 0 24.5 5.5t6.5 20.5q0 22 -27 22h-60v93q-116 0 -164 49t-48 167v103q0 118 47.5 166.5t166.5 48.5h69q116 0 165 -42.5t49 -146.5v-23h-184v15q0 32 -11 45t-41 13h-22q-36 0 -44 -17t-8 -71v-80q0 -46 2 -56 q6 -31 50 -31h22q30 0 41 13.5t11 49.5v22h184l1 -34q0 -103 -50 -147t-165 -44h-1v-20h38q84 0 84 -96z"/>
<glyph glyph-name="egrave" horiz-adv-x="599" unicode="è" d="M371 327v7q0 44 -10.5 59t-45.5 15h-21q-33 0 -44.5 -14.5t-11.5 -54.5v-12h133zM551 223h-313v-51q0 -30 12 -41t43 -11h21q28 0 40 11t15 42h181q0 -96 -52.5 -138t-160.5 -42h-69q-118 0 -166 49t-48 167v103q0 118 47.5 166.5t166.5 48.5h69q118 0 166 -48t48 -167 v-89zM398 561h-91l-169 195h153z"/>
<glyph glyph-name="eacute" horiz-adv-x="599" unicode="é" d="M371 327v7q0 44 -10.5 59t-45.5 15h-21q-33 0 -44.5 -14.5t-11.5 -54.5v-12h133zM551 223h-313v-51q0 -30 12 -41t43 -11h21q28 0 40 11t15 42h181q0 -96 -52.5 -138t-160.5 -42h-69q-118 0 -166 49t-48 167v103q0 118 47.5 166.5t166.5 48.5h69q118 0 166 -48t48 -167 v-89zM466 756l-169 -195h-91l107 195h153z"/>
<glyph glyph-name="ecircumflex" horiz-adv-x="599" unicode="ê" d="M371 327v7q0 44 -10.5 59t-45.5 15h-21q-33 0 -44.5 -14.5t-11.5 -54.5v-12h133zM551 223h-313v-51q0 -30 12 -41t43 -11h21q28 0 40 11t15 42h181q0 -96 -52.5 -138t-160.5 -42h-69q-118 0 -166 49t-48 167v103q0 118 47.5 166.5t166.5 48.5h69q118 0 166 -48t48 -167 v-89zM473 561h-91l-80 97l-81 -97h-90l107 195h128z"/>
<glyph glyph-name="edieresis" horiz-adv-x="599" unicode="ë" d="M371 326v8q0 43 -10.5 58t-45.5 15h-21q-34 0 -45 -14t-11 -54v-13h133zM551 223h-313v-51q0 -30 12 -41t43 -11h21q28 0 40 11t15 42h181q0 -96 -52.5 -138t-160.5 -42h-69q-118 0 -166 49t-48 167v103q0 118 47.5 166.5t166.5 48.5h69q118 0 166 -49t48 -166v-89z M282 588h-130v136h130v-136zM452 588h-130v136h130v-136z"/>
<glyph glyph-name="igrave" horiz-adv-x="338" unicode="ì" d="M263 0h-186v520h186v-520zM266 560h-91l-169 196h153z"/>
<glyph glyph-name="iacute" horiz-adv-x="338" unicode="í" d="M263 0h-186v520h186v-520zM334 756l-169 -196h-91l107 196h153z"/>
<glyph glyph-name="icircumflex" horiz-adv-x="338" unicode="î" d="M263 0h-186v520h186v-520zM341 560h-91l-80 98l-81 -98h-90l107 196h128z"/>
<glyph glyph-name="idieresis" horiz-adv-x="338" unicode="ï" d="M263 0h-186v520h186v-520zM150 588h-130v136h130v-136zM320 588h-130v136h130v-136z"/>
<glyph glyph-name="eth" d="M462 198v53q0 28 -14 35.5t-59 7.5h-39q-47 0 -59.5 -6.5t-12.5 -36.5v-53q0 -29 13 -37t59 -8h39q44 0 58.5 7.5t14.5 37.5zM712 680l-77 -48q31 -65 31 -194v-148q0 -164 -55 -231.5t-197 -67.5h-86q-252 0 -252 196v65q0 103 49.5 152.5t156.5 49.5h71q65 0 109 -33 v102q0 34 -11.5 43t-52.5 9h-48q-33 0 -44 -7.5t-11 -34.5v-19h-202v53q0 82 59.5 125.5t175.5 43.5h86q66 0 109 -13l121 75z" unicode="ð"/>
<glyph glyph-name="ntilde" horiz-adv-x="631" unicode="ñ" d="M565 0h-183v300q0 50 -11 63.5t-52 13.5q-37 0 -46.5 -18t-9.5 -69v-290h-183v520h178l-1 -46q44 53 135 53q101 0 137 -42t36 -150v-335zM494 732q-16 -71 -44 -103t-71 -32q-18 0 -39 6l-43 11q-20 6 -29 6q-13 0 -21 -8t-14 -30h-75q15 69 42.5 100.5t70.5 31.5 q12 0 22 -1t23 -5l45 -13l24 -3q24 0 34 40h75z"/>
<glyph glyph-name="ograve" horiz-adv-x="600" unicode="ò" d="M364 220v80q0 47 -2 57q-6 31 -49 31h-20q-36 0 -44 -17t-8 -71v-80q0 -46 2 -56q6 -31 50 -31h20q35 0 43 17t8 70zM551 209q0 -119 -47.5 -167.5t-166.5 -48.5h-69q-118 0 -166 49t-48 167v103q0 118 47.5 166.5t166.5 48.5h69q118 0 166 -48t48 -167v-103zM399 561 h-91l-169 195h153z"/>
<glyph glyph-name="oacute" horiz-adv-x="600" unicode="ó" d="M364 220v80q0 47 -2 57q-6 31 -49 31h-20q-36 0 -44 -17t-8 -71v-80q0 -46 2 -56q6 -31 50 -31h20q35 0 43 17t8 70zM551 209q0 -119 -47.5 -167.5t-166.5 -48.5h-69q-118 0 -166 49t-48 167v103q0 118 47.5 166.5t166.5 48.5h69q118 0 166 -48t48 -167v-103zM467 756 l-169 -195h-91l107 195h153z"/>
<glyph glyph-name="ocircumflex" horiz-adv-x="600" unicode="ô" d="M364 220v80q0 47 -2 57q-6 31 -49 31h-20q-36 0 -44 -17t-8 -71v-80q0 -46 2 -56q6 -31 50 -31h20q35 0 43 17t8 70zM551 209q0 -119 -47.5 -167.5t-166.5 -48.5h-69q-118 0 -166 49t-48 167v103q0 118 47.5 166.5t166.5 48.5h69q118 0 166 -48t48 -167v-103zM474 561 h-91l-80 97l-81 -97h-90l107 195h128z"/>
<glyph glyph-name="otilde" horiz-adv-x="600" unicode="õ" d="M364 220v80q0 46 -2 56q-6 32 -49 32h-20q-35 0 -43.5 -17.5t-8.5 -70.5v-80q0 -46 2 -56q6 -31 50 -31h20q35 0 43 17t8 70zM551 209q0 -119 -47.5 -167.5t-166.5 -48.5h-69q-118 0 -166 49t-48 167v103q0 118 47.5 166.5t166.5 48.5h69q118 0 166 -48t48 -167v-103z M471 732q-16 -71 -44 -103t-71 -32q-18 0 -39 6l-43 12q-17 5 -29 5q-13 0 -21 -8t-14 -29h-75q15 68 42.5 99.5t70.5 31.5q12 0 22 -1t23 -5l45 -13l24 -2q25 0 34 39h75z"/>
<glyph glyph-name="odieresis" horiz-adv-x="600" unicode="ö" d="M364 220v80q0 46 -2 56q-6 32 -49 32h-20q-35 0 -43.5 -17.5t-8.5 -70.5v-80q0 -46 2 -56q6 -31 50 -31h20q35 0 43 17t8 70zM551 209q0 -119 -47.5 -167.5t-166.5 -48.5h-69q-118 0 -166 49t-48 167v103q0 118 47.5 166.5t166.5 48.5h69q118 0 166 -49t48 -166v-103z M283 588h-130v136h130v-136zM453 588h-130v136h130v-136z"/>
<glyph glyph-name="divide" horiz-adv-x="578" unicode="÷" d="M374 0h-150v146h150v-146zM538 200h-484v120h484v-120zM374 376h-150v146h150v-146z"/>
<glyph glyph-name="oslash" horiz-adv-x="600" unicode="ø" d="M364 218v79q0 46 -2 56q-6 31 -49 31h-20q-36 0 -44 -16.5t-8 -70.5v-79q0 -45 2 -55q7 -32 50 -32h20q35 0 43 17t8 70zM555 616l-75 -124q37 -23 54 -67.5t17 -115.5v-102q0 -118 -47.5 -165.5t-166.5 -47.5h-69q-36 0 -71 5l-68 -113h-80l77 137q-38 22 -55 67.5 t-17 116.5v102q0 117 48 165t166 48h69q42 0 74 -6l56 100h88z"/>
<glyph glyph-name="ugrave" horiz-adv-x="635" unicode="ù" d="M565 0h-178l1 46q-44 -53 -135 -53q-101 0 -137 41t-36 150v337h183v-301q0 -50 11 -63t52 -13q37 0 48 20q8 15 8 65v292h183v-521zM426 561h-91l-169 195h153z"/>
<glyph glyph-name="uacute" horiz-adv-x="635" unicode="ú" d="M565 0h-178l1 46q-44 -53 -135 -53q-101 0 -137 41t-36 150v337h183v-301q0 -50 11 -63t52 -13q37 0 48 20q8 15 8 65v292h183v-521zM494 756l-169 -195h-91l107 195h153z"/>
<glyph glyph-name="ucircumflex" horiz-adv-x="635" unicode="û" d="M565 0h-178l1 46q-44 -53 -135 -53q-101 0 -137 41t-36 150v337h183v-301q0 -50 11 -63t52 -13q37 0 48 20q8 15 8 65v292h183v-521zM501 561h-91l-80 97l-81 -97h-90l107 195h128z"/>
<glyph glyph-name="udieresis" horiz-adv-x="635" unicode="ü" d="M565 0h-178l1 46q-44 -53 -135 -53q-101 0 -137 41t-36 150v336h183v-300q0 -50 11 -63.5t52 -13.5q38 0 47 17.5t9 68.5v291h183v-520zM310 588h-130v136h130v-136zM480 588h-130v136h130v-136z"/>
<glyph glyph-name="yacute" horiz-adv-x="577" unicode="ý" d="M597 515l-184 -578q-21 -71 -63 -102.5t-124 -31.5q-19 0 -30 1q-56 5 -69 5v131h46q21 0 34 10t13 26l-2 34l-238 505h192l141 -336l88 336h196zM455 756l-169 -197h-91l107 197h153z"/>
<glyph glyph-name="thorn" horiz-adv-x="618" unicode="þ" d="M382 219v78q0 48 -7 63q-10 21 -43 21h-19q-32 0 -41 -19t-9 -65v-78q0 -48 8.5 -66t41.5 -18h19q32 0 41 19t9 65zM568 206q0 -217 -176 -217q-87 0 -129 46v-232h-183v924h183v-248q42 47 129 47q176 0 176 -217v-103z"/>
<glyph glyph-name="OE" horiz-adv-x="1038" unicode="Œ" d="M513 303v122q0 82 -15 105q-19 28 -85 28h-36q-62 0 -80.5 -25.5t-18.5 -107.5v-122q0 -82 16.5 -107.5t82.5 -25.5h36q66 0 83 25.5t17 107.5zM990 0h-461v61q-34 -41 -70 -55.5t-103 -14.5q-156 0 -226.5 70.5t-70.5 228.5v148q0 156 70 227t221 71q66 0 104 -13.5 t75 -51.5v57h453v-174h-263v-109h251v-152h-251v-120h271v-173z"/>
<glyph glyph-name="oe" horiz-adv-x="922" unicode="œ" d="M376 218v79q0 55 -7 68q-10 19 -50 19h-22q-38 0 -47 -17t-9 -70v-79q0 -54 7 -67q11 -20 50 -20h21q39 0 48 17t9 70zM696 323v8q0 42 -10.5 57t-45.5 15h-25q-35 0 -46 -14t-11 -55v-11h138zM876 221h-318v-51q0 -29 13 -40t43 -11h25q28 0 40.5 10.5t15.5 41.5h179 q0 -93 -52 -135t-159 -42h-82q-90 0 -119 57q-37 -57 -132 -57h-62q-118 0 -166 48t-48 165v102q0 117 48 165t166 48h62q51 0 82.5 -12.5t51.5 -41.5q40 54 134 54h65q119 0 166 -48t47 -165v-88z"/>
<glyph glyph-name="Scaron" horiz-adv-x="723" unicode="Š" d="M679 196q0 -92 -58.5 -148.5t-158.5 -56.5h-159q-132 0 -192.5 45.5t-60.5 144.5v59h207v-16q0 -34 18.5 -47t66.5 -13h49q40 0 55 8.5t15 34.5v31q0 24 -15 32t-54 11l-158 17q-93 11 -136 57.5t-43 139.5v44q0 106 67 161q29 24 73 32.5t109 8.5h117q114 0 174 -46.5 t60 -130.5v-59h-207v18q0 27 -13 37t-48 10h-45q-39 0 -55 -7.5t-16 -31.5v-29q0 -23 18 -30q8 -3 52 -8l144 -16q194 -22 194 -183v-69zM536 969l-107 -197h-128l-107 197h90l81 -99l80 99h91z"/>
<glyph glyph-name="scaron" horiz-adv-x="602" unicode="š" d="M558 152q0 -73 -51.5 -116t-142.5 -43h-109q-206 0 -206 153v17h188q4 -31 16.5 -40t42.5 -9h22q33 0 45 7.5t12 31.5q0 22 -13 30t-47 11l-105 10q-72 7 -113.5 45.5t-41.5 93.5v40q0 144 202 144h101q185 0 185 -140v-20h-182q0 41 -52 41h-21q-52 0 -52 -38 q0 -33 39 -33l116 -10q167 -16 167 -132v-43zM475 756l-107 -195h-128l-107 195h90l81 -98l80 98h91z"/>
<glyph glyph-name="Ydieresis" horiz-adv-x="719" unicode="Ÿ" d="M727 732l-256 -475v-257h-215v257l-257 475h243l123 -261l121 261h241zM343 800h-130v137h130v-137zM513 800h-130v137h130v-137z"/>
<glyph glyph-name="circumflex" horiz-adv-x="532" unicode="ˆ" d="M439 576h-91l-80 90l-81 -90h-90l107 181h128z"/>
<glyph glyph-name="tilde" horiz-adv-x="532" unicode="˜" d="M436 733q-17 -65 -44 -93t-71 -28q-8 0 -18.5 1t-20.5 4l-43 10q-20 6 -29 6q-24 0 -35 -34h-75q30 117 113 117q10 0 21 -1t24 -4l45 -11l24 -3q24 0 34 36h75z"/>
<glyph glyph-name="summation" horiz-adv-x="347" unicode="Σ" d="M306 300q0 -51 -36.5 -87.5t-87.5 -36.5q-53 0 -89.5 35.5t-36.5 88.5t36.5 89.5t89.5 36.5q51 0 87.5 -36.5t36.5 -89.5z"/>
<glyph glyph-name="pi" horiz-adv-x="347" unicode="π" d="M306 300q0 -51 -36.5 -87.5t-87.5 -36.5q-53 0 -89.5 35.5t-36.5 88.5t36.5 89.5t89.5 36.5q51 0 87.5 -36.5t36.5 -89.5z"/>
<glyph glyph-name="endash" horiz-adv-x="495" unicode="–" d="M500 208h-500v106h500v-106z"/>
<glyph glyph-name="emdash" horiz-adv-x="990" unicode="—" d="M1000 208h-1000v106h1000v-106z"/>
<glyph glyph-name="quoteleft" horiz-adv-x="369" unicode="‘" d="M264 437h-170v176q0 114 149 114h21v-85h-16q-37 0 -37 -30v-4h53v-171z"/>
<glyph glyph-name="quotesinglbase" horiz-adv-x="369" unicode="‚" d="M264 -14q0 -113 -149 -113h-21v84h16q36 0 36 31v5h-52v170h170v-177z"/>
<glyph glyph-name="quotedblleft" horiz-adv-x="596" unicode="“" d="M264 437h-170v176q0 114 149 114h21v-85h-16q-37 0 -37 -30v-4h53v-171zM506 437h-169v176q0 114 148 114h21v-85h-16q-36 0 -36 -30v-4h52v-171z"/>
<glyph glyph-name="quotedblright" horiz-adv-x="596" unicode="”" d="M264 552q0 -115 -149 -115h-21v85h16q36 0 36 31v4h-52v170h170v-175zM506 552q0 -115 -149 -115h-21v85h16q37 0 37 31v4h-53v170h170v-175z"/>
<glyph glyph-name="dagger" horiz-adv-x="550" unicode="†" d="M526 368h-182v-564h-130v564h-180v116h180v224h136v-224h176v-116z"/>
<glyph glyph-name="daggerdbl" horiz-adv-x="550" unicode="‡" d="M522 34h-174v-230h-136v230h-182v116h182v218h-182v116h182v224h136v-224h174v-116h-174v-218h174v-116z"/>
<glyph glyph-name="ellipsis" horiz-adv-x="990" unicode="…" d="M246 0h-150v146h150v-146zM580 0h-150v146h150v-146zM912 0h-150v146h150v-146z"/>
<glyph glyph-name="perthousand" horiz-adv-x="1325" unicode="‰" d="M735 143v52q0 36 -5 47t-29 11h-13q-24 0 -29 -10t-5 -48v-52q0 -31 2.5 -44t31.5 -13h13q24 0 29 10.5t5 46.5zM1145 143v52q0 36 -5 47t-29 11h-13q-24 0 -29 -10t-5 -48v-52q0 -31 2.5 -44t31.5 -13h13q24 0 29 10.5t5 46.5zM269 531v52q0 36 -5 47t-29 11h-13 q-24 0 -29 -10t-5 -48v-52q0 -31 2.5 -44t31.5 -13h13q24 0 29 10.5t5 46.5zM858 136q0 -78 -31.5 -109.5t-109.5 -31.5h-45q-79 0 -110.5 31.5t-31.5 109.5v67q0 78 31.5 109.5t110.5 31.5h45q79 0 110 -31t31 -110v-67zM1268 136q0 -78 -31.5 -109.5t-109.5 -31.5h-45 q-79 0 -110.5 31.5t-31.5 109.5v67q0 78 31.5 109.5t110.5 31.5h45q79 0 110 -31t31 -110v-67zM720 736l-426 -730h-80l418 730h88zM392 524q0 -78 -31.5 -109.5t-109.5 -31.5h-45q-79 0 -110.5 31.5t-31.5 109.5v67q0 78 31.5 109.5t110.5 31.5h45q79 0 110 -31t31 -110 v-67z"/>
<glyph glyph-name="guilsinglleft" horiz-adv-x="331" unicode="‹" d="M258 74l-166 140v124l166 138v-110l-104 -88l104 -88v-116z"/>
<glyph glyph-name="guilsinglright" horiz-adv-x="331" unicode="›" d="M256 214l-168 -140v116l104 88l-104 88v110l168 -138v-124z"/>
<glyph glyph-name="trademark" horiz-adv-x="990" unicode="™" d="M418 668h-122v-326h-98v326h-122v78h342v-78zM934 342h-88v326l-120 -326h-52l-118 326v-326h-88v404h142l90 -240l92 240h142v-404z"/>
<glyph glyph-name="partialdiff" horiz-adv-x="347" unicode="∂" d="M306 300q0 -51 -36.5 -87.5t-87.5 -36.5q-53 0 -89.5 35.5t-36.5 88.5t36.5 89.5t89.5 36.5q51 0 87.5 -36.5t36.5 -89.5z"/>
<glyph glyph-name="product" horiz-adv-x="347" unicode="∏" d="M306 300q0 -51 -36.5 -87.5t-87.5 -36.5q-53 0 -89.5 35.5t-36.5 88.5t36.5 89.5t89.5 36.5q51 0 87.5 -36.5t36.5 -89.5z"/>
<glyph glyph-name="minus" horiz-adv-x="578" unicode="−" d="M536 172h-484v120h484v-120z"/>
<glyph glyph-name="radical" horiz-adv-x="347" unicode="√" d="M306 300q0 -51 -36.5 -87.5t-87.5 -36.5q-53 0 -89.5 35.5t-36.5 88.5t36.5 89.5t89.5 36.5q51 0 87.5 -36.5t36.5 -89.5z"/>
<glyph glyph-name="infinity" horiz-adv-x="347" unicode="∞" d="M306 300q0 -51 -36.5 -87.5t-87.5 -36.5q-53 0 -89.5 35.5t-36.5 88.5t36.5 89.5t89.5 36.5q51 0 87.5 -36.5t36.5 -89.5z"/>
<glyph glyph-name="approxequal" horiz-adv-x="347" unicode="≈" d="M306 300q0 -51 -36.5 -87.5t-87.5 -36.5q-53 0 -89.5 35.5t-36.5 88.5t36.5 89.5t89.5 36.5q51 0 87.5 -36.5t36.5 -89.5z"/>
<glyph glyph-name="notequal" horiz-adv-x="347" unicode="≠" d="M306 300q0 -51 -36.5 -87.5t-87.5 -36.5q-53 0 -89.5 35.5t-36.5 88.5t36.5 89.5t89.5 36.5q51 0 87.5 -36.5t36.5 -89.5z"/>
<glyph glyph-name="lessequal" horiz-adv-x="347" unicode="≤" d="M306 300q0 -51 -36.5 -87.5t-87.5 -36.5q-53 0 -89.5 35.5t-36.5 88.5t36.5 89.5t89.5 36.5q51 0 87.5 -36.5t36.5 -89.5z"/>
<glyph glyph-name="greaterequal" horiz-adv-x="347" unicode="≥" d="M306 300q0 -51 -36.5 -87.5t-87.5 -36.5q-53 0 -89.5 35.5t-36.5 88.5t36.5 89.5t89.5 36.5q51 0 87.5 -36.5t36.5 -89.5z"/>
<glyph glyph-name="lozenge" horiz-adv-x="347" unicode="◊" d="M306 300q0 -51 -36.5 -87.5t-87.5 -36.5q-53 0 -89.5 35.5t-36.5 88.5t36.5 89.5t89.5 36.5q51 0 87.5 -36.5t36.5 -89.5z"/>
</font>
</defs>
</svg>
