<?xml version="1.0" encoding="UTF-8" standalone="no"?>
<!DOCTYPE svg  PUBLIC '-//W3C//DTD SVG 1.1//EN'  'http://www.w3.org/Graphics/SVG/1.1/DTD/svg11.dtd'>
<svg xmlns="http://www.w3.org/2000/svg">
<defs>
<font id="Square721BT-BoldExtended" horiz-adv-x="500">
<font-face underline-position="13" font-weight="700" descent="-200" panose-1="2 0 8 7 5 0 0 2 0 4" units-per-em="1000" unicode-range="U+0020-2212" bbox="-82 -236 1767 963" x-height="514" underline-thickness="122" font-family="Square721BT" ascent="800" cap-height="727"/>
<missing-glyph horiz-adv-x="1000"/>
<glyph glyph-name=".notdef" horiz-adv-x="1000"/>
<glyph glyph-name=".null" horiz-adv-x="0"/>
<glyph glyph-name="nonmarkingreturn" horiz-adv-x="1000"/>
<glyph glyph-name="space" horiz-adv-x="488" unicode=" "/>
<glyph glyph-name="space" horiz-adv-x="488" unicode=" "/>
<glyph glyph-name="exclam" horiz-adv-x="488" unicode="!" d="M141 0v206h206v-206h-206zM148 295l-7 250v182h206v-182l-10 -250h-189z"/>
<glyph glyph-name="quotedbl" horiz-adv-x="348" unicode='&quot;' d="M144 702v-274h-107v274h107zM312 702v-274h-109v274h109z"/>
<glyph glyph-name="numbersign" horiz-adv-x="769" unicode="#" d="M456 716l-68 -193h115l69 193h122l-68 -193h132l-42 -112h-131l-39 -112h135l-41 -113h-134l-69 -192h-122l68 192h-115l-69 -192h-122l68 192h-134l42 113h132l40 112h-138l42 112h136l69 193h122zM305 298h120l40 113h-120z"/>
<glyph glyph-name="dollar" horiz-adv-x="977" unicode="$" d="M341 574q-47 0 -70 -10.5t-23 -45.5q0 -48 64 -54l121 -11v121h-92zM644 159q73 0 73 63q0 35 -23.5 46t-72.5 16l-83 8v-133h106zM252 244q-1 -6 -1 -11.5v-10.5q0 -20 4.5 -32.5t14.5 -19.5t26.5 -9t39.5 -2h97v142l-161 15q-57 5 -97 16t-64.5 32.5t-35.5 57.5t-11 91 q0 63 15 104t46.5 65t80 33.5t116.5 9.5h111v82h105v-82h123q229 0 229 -201h-192v4q0 29 -20.5 38t-65.5 9h-74v-131l159 -14q110 -10 160.5 -60t50.5 -147q0 -51 -9.5 -88t-33.5 -65q-21 -24 -45.5 -38t-54.5 -21t-65.5 -9t-77.5 -2h-84v-102h-105v102h-86 q-94 0 -154 11.5t-93 49.5q-23 26 -33 68.5t-10 104.5v10h195z"/>
<glyph glyph-name="percent" horiz-adv-x="1287" unicode="%" d="M1084 438q73 0 105.5 -38t32.5 -122v-131q0 -80 -33 -118t-107 -38h-193q-76 0 -110.5 34.5t-34.5 121.5v131q0 82 32 121t108 39h200zM945 329q-45 0 -60.5 -19.5t-15.5 -65.5v-63q0 -25 4.5 -40.5t13.5 -24.5t23.5 -12t34.5 -3h74q42 0 60 16.5t18 63.5v63q0 51 -18 68 t-60 17h-74zM476 -9l243 745h93l-242 -745h-94zM405 736q73 0 105.5 -38t32.5 -122v-132q0 -80 -33 -118t-107 -38h-193q-76 0 -110.5 34.5t-34.5 121.5v132q0 82 32 121t108 39h200zM266 627q-45 0 -60.5 -19.5t-15.5 -65.5v-63q0 -25 4.5 -40.5t13.5 -24.5t23.5 -12.5 t34.5 -3.5h74q42 0 60 17t18 64v63q0 51 -18 68t-60 17h-74z"/>
<glyph glyph-name="ampersand" horiz-adv-x="1042" unicode="&amp;" d="M364 327q-17 9 -33 9q-29 0 -45.5 -17.5t-16.5 -49.5v-48q0 -22 6 -36t19 -22t34.5 -11t53.5 -3h317zM874 64q-20 -25 -44.5 -39t-54 -21.5t-64.5 -9.5t-77 -2h-252q-82 0 -141 9.5t-97 31t-56 58t-18 90.5v94q0 135 150 142q-37 22 -51.5 45t-14.5 60v81q0 47 14 74 t43 40.5t73.5 16.5t105.5 3h209q72 0 124 -5t85.5 -21.5t50 -47t16.5 -81.5v-90h-186q0 5 0.5 9.5t0.5 9.5q0 43 -20 58t-71 15h-187q-58 0 -58 -43q0 -28 28 -44l371 -194q8 30 8 56q0 15 -3 35h183v-119q0 -8 -2.5 -25t-9.5 -40l133 -74l-63 -139z"/>
<glyph glyph-name="quotesingle" horiz-adv-x="181" unicode="&apos;" d="M144 702v-274h-107v274h107z"/>
<glyph glyph-name="parenleft" horiz-adv-x="478" unicode="(" d="M422 556q-27 3 -47 3q-45 0 -61.5 -17.5t-16.5 -60.5v-245q0 -40 17 -54.5t62 -14.5q17 0 46 3v-180h-102q-119 0 -174 53.5t-55 168.5v326q0 102 53 150t166 48h112v-180z"/>
<glyph glyph-name="parenright" horiz-adv-x="478" unicode=")" d="M175 736q113 0 166 -48t53 -150v-326q0 -115 -54.5 -168.5t-173.5 -53.5h-102v180q28 -3 45 -3q45 0 62 14.5t17 54.5v245q0 43 -16.5 60.5t-60.5 17.5q-20 0 -47 -3v180h111z"/>
<glyph glyph-name="asterisk" horiz-adv-x="729" unicode="*" d="M594 453l-145 9v94l145 9v-112zM134 565l146 -9v-94l-146 -9v112zM298 736l64 -130l-80 -47l-81 122zM447 559l-81 47l65 130l96 -55zM431 283l-65 130l81 47l80 -122zM282 460l80 -47l-64 -130l-97 55z"/>
<glyph glyph-name="plus" horiz-adv-x="833" unicode="+" d="M475 596v-241h234v-113h-234v-242h-116v242h-235v113h235v241h116z"/>
<glyph glyph-name="comma" horiz-adv-x="488" unicode="," d="M139 0v205h211v-229q0 -84 -41.5 -120t-136.5 -36q-31 0 -65 3v117h16q38 0 54 11.5t16 40.5v8h-54z"/>
<glyph glyph-name="hyphen" horiz-adv-x="493" unicode="-" d="M407 168h-329v186h329v-186z"/>
<glyph glyph-name="hyphen" horiz-adv-x="493" unicode="­" d="M407 168h-329v186h329v-186z"/>
<glyph glyph-name="period" horiz-adv-x="488" unicode="." d="M141 0v206h206v-206h-206z"/>
<glyph glyph-name="slash" horiz-adv-x="364" unicode="/" d="M29 -93h-111l386 829h111z"/>
<glyph glyph-name="zero" horiz-adv-x="977" unicode="0" d="M436 566q-42 0 -70 -6t-44.5 -22.5t-23.5 -46t-7 -77.5v-107q0 -45 7 -73t24 -44.5t45 -22.5t69 -6h105q42 0 70 6t44.5 22.5t23.5 45.5t7 74v110q0 46 -7 74.5t-23.5 44.5t-44.5 22t-70 6h-105zM600 736q85 0 142 -8.5t95 -42.5q35 -31 50.5 -85t15.5 -135v-203 q0 -81 -15.5 -135t-50.5 -85q-38 -34 -95.5 -42.5t-141.5 -8.5h-223q-41 0 -75.5 1.5t-64 6.5t-53.5 15.5t-44 27.5q-37 32 -52 85t-15 131v198q0 85 14 140.5t52 88.5t95 42t142 9h224z"/>
<glyph glyph-name="one" horiz-adv-x="977" unicode="1" d="M491 0v547l-246 -169l-105 152l318 197h246v-727h-213z"/>
<glyph glyph-name="two" horiz-adv-x="977" unicode="2" d="M72 0v256q0 59 46.5 99.5t130.5 47.5l342 28q54 5 79.5 15.5t25.5 38.5v37q0 48 -99 48h-190q-68 0 -97.5 -20.5t-29.5 -76.5v-12h-207q-1 14 -1.5 26.5t-0.5 24.5q0 66 15.5 109.5t50 69t90 35.5t134.5 10h295q130 0 190 -41.5t60 -132.5v-120q0 -69 -44.5 -113 t-129.5 -51l-389 -33q-35 -3 -50 -21.5t-15 -54.5v-4h635v-165h-841z"/>
<glyph glyph-name="three" horiz-adv-x="977" unicode="3" d="M268 263q-1 -7 -1 -13.5v-11.5q0 -25 5 -40.5t17 -24.5t31.5 -12t48.5 -3h262q36 0 52.5 13.5t16.5 43.5q0 36 -20 51t-65 15h-218v166h226q58 0 58 58q0 37 -21 50.5t-69 13.5h-234q-46 0 -64 -16t-18 -63v-9h-205q-1 12 -1.5 24t-0.5 23q0 57 16 97t49 64.5t84.5 35.5 t122.5 11h301q68 0 115.5 -8t77.5 -26t43.5 -47t13.5 -72v-85q0 -32 -5 -54t-18 -37.5t-35 -25t-56 -15.5q36 -5 61.5 -14t41 -23t23 -34.5t7.5 -48.5v-91q0 -85 -59 -124.5t-182 -39.5h-310q-81 0 -137.5 7t-93.5 33q-36 25 -51.5 69.5t-15.5 113.5q0 12 0.5 24t1.5 25h205 z"/>
<glyph glyph-name="four" horiz-adv-x="977" unicode="4" d="M604 551l-377 -237h377v237zM604 0v147h-555v264l507 316h253v-413h112v-167h-112v-147h-205z"/>
<glyph glyph-name="five" horiz-adv-x="977" unicode="5" d="M280 225v-8q0 -36 27.5 -48.5t89.5 -12.5h220q48 0 69.5 15t21.5 54v44q0 32 -27 44.5t-81 12.5h-241q-29 0 -45.5 -7.5t-23.5 -29.5h-188v438h785v-165h-595v-117q28 29 71 37.5t106 8.5h200q128 0 189 -42t61 -136v-122q0 -56 -17 -94t-52.5 -61.5t-89 -34 t-126.5 -10.5h-257q-80 0 -137 9t-93.5 31t-53.5 60t-17 97v18t1 19h203z"/>
<glyph glyph-name="six" horiz-adv-x="977" unicode="6" d="M594 157q51 0 74.5 17t23.5 55q0 39 -23.5 53.5t-74.5 14.5h-209q-51 0 -74.5 -16.5t-23.5 -54.5q0 -40 23 -54.5t75 -14.5h209zM78 505q0 69 19 113.5t61.5 71t110.5 36.5t166 10h196q134 0 196.5 -42.5t62.5 -137.5v-20t-2 -21h-194q-4 35 -28 48.5t-72 13.5h-193 q-60 0 -86 -19.5t-26 -69.5v-81q23 32 65.5 43.5t109.5 11.5h160q71 0 123.5 -8t87 -26.5t51.5 -49.5t17 -77v-145q0 -85 -54.5 -125t-166.5 -40h-327q-144 0 -210.5 54t-66.5 175v285z"/>
<glyph glyph-name="seven" horiz-adv-x="977" unicode="7" d="M186 0l447 544h-551v183h819v-171l-459 -556h-256z"/>
<glyph glyph-name="eight" horiz-adv-x="977" unicode="8" d="M382 580q-51 0 -74.5 -15t-23.5 -50q0 -37 23.5 -50.5t74.5 -13.5h219q51 0 74.5 15.5t23.5 50.5q0 37 -23.5 50t-74.5 13h-219zM379 298q-51 0 -74.5 -16.5t-23.5 -55.5q0 -40 23 -54.5t75 -14.5h224q51 0 75 17t24 55q0 39 -23.5 54t-75.5 15h-224zM192 370 q-64 9 -92 51.5t-28 124.5q0 58 13 95t41.5 58t74.5 29t112 8h356q66 0 112 -8t74.5 -29t41.5 -58t13 -95q0 -82 -27.5 -124.5t-91.5 -51.5q35 -7 58.5 -20.5t37.5 -34.5t20 -51.5t6 -70.5q0 -64 -15.5 -103.5t-49 -61.5t-88 -29.5t-132.5 -7.5h-274q-79 0 -134 7t-91 33 q-32 23 -45.5 62.5t-13.5 99.5q0 40 6 70.5t20 51.5t37.5 34.5t58.5 20.5z"/>
<glyph glyph-name="nine" horiz-adv-x="977" unicode="9" d="M906 221q0 -69 -20 -113.5t-64 -70.5t-114 -36t-171 -10h-201q-138 0 -202.5 43t-64.5 140q0 9 0.5 18.5t1.5 19.5h200q4 -34 28 -48t74 -14h209q60 0 86 18.5t26 69.5v81q-23 -32 -65.5 -43.5t-109.5 -11.5h-158q-71 0 -123.5 8t-87 26.5t-51.5 49.5t-17 78v144 q0 166 221 166h325q144 0 211 -54.5t67 -175.5v-285zM390 570q-51 0 -75 -17t-24 -55q0 -40 24 -54.5t75 -14.5h208q51 0 74.5 16.5t23.5 55.5q0 40 -23 54.5t-75 14.5h-208z"/>
<glyph glyph-name="colon" horiz-adv-x="488" unicode=":" d="M139 0v206h211v-206h-211zM139 308v206h211v-206h-211z"/>
<glyph glyph-name="less" horiz-adv-x="833" unicode="&lt;" d="M704 469l-417 -171l417 -170v-124l-575 237v114l575 238v-124z"/>
<glyph glyph-name="equal" horiz-adv-x="833" unicode="=" d="M709 464v-113h-585v113h585zM709 245v-112h-585v112h585z"/>
<glyph glyph-name="greater" horiz-adv-x="833" unicode="&gt;" d="M704 355v-114l-575 -237v124l417 170l-417 171v124z"/>
<glyph glyph-name="question" horiz-adv-x="806" unicode="?" d="M265 0v191h201v-191h-201zM272 248q-1 12 -1.5 23.5t-0.5 22.5q0 64 22 98.5t73 44.5l151 28q32 6 46.5 20t14.5 40q0 38 -29.5 51.5t-94.5 13.5h-110q-32 0 -54 -4.5t-35.5 -16.5t-19 -32.5t-5.5 -51.5v-14h-183q-3 20 -4 37.5t-1 33.5q0 56 17 93t53.5 59.5t93.5 31.5 t137 9h160q137 0 198 -35.5t61 -121.5v-109q0 -60 -33 -98t-93 -47l-123 -19q-30 -5 -42 -14t-12 -35v-8h-186z"/>
<glyph glyph-name="at" horiz-adv-x="1000" unicode="@" d="M585 340q-5 38 -25 57t-53 19q-25 0 -48 -16t-40.5 -43t-28 -63t-10.5 -77q0 -42 17 -63.5t48 -21.5q40 0 71.5 28t43.5 78zM567 128q-28 -41 -62 -59t-82 -18q-80 0 -121 42t-41 126q0 60 19 111t51.5 87.5t76 57.5t93.5 21q74 0 112 -60l25 45h101l-75 -298 q-1 -5 -1.5 -8.5t-0.5 -7.5q0 -29 31 -29q33 0 63.5 19t53.5 51t37 74.5t14 89.5q0 57 -22.5 105.5t-64 84t-99.5 55t-130 19.5q-145 0 -246 -71q-76 -54 -117 -134t-41 -174q0 -74 26 -133.5t73.5 -101.5t115 -65t150.5 -23q80 0 154 23t137 68l47 -66q-152 -114 -338 -114 q-96 0 -174.5 24t-139.5 71q-152 118 -152 314q0 167 102 292q72 89 174.5 135.5t229.5 46.5q86 0 158.5 -23t124.5 -64q66 -52 99 -117.5t33 -150.5q0 -82 -32 -150t-93 -117q-35 -28 -76 -42t-85 -14q-104 0 -108 78z"/>
<glyph glyph-name="A" horiz-adv-x="1072" unicode="A" d="M2 0l397 727h283l390 -727h-244l-70 121h-443l-71 -121h-242zM678 296l-141 257l-138 -257h279z"/>
<glyph glyph-name="B" horiz-adv-x="1051" unicode="B" d="M73 0v727h655q242 0 242 -203q0 -59 -26 -96t-81 -58q69 -11 100.5 -53t31.5 -120q0 -105 -56 -151t-177 -46h-689zM685 444q57 0 57 60q0 27 -15.5 43.5t-41.5 16.5h-390v-120h390zM705 165q61 0 61 67q0 29 -16.5 46.5t-44.5 17.5h-410v-131h410z"/>
<glyph glyph-name="C" horiz-adv-x="1050" unicode="C" d="M769 472q0 44 -28.5 63t-88.5 19h-178q-54 0 -88.5 -5t-55 -20t-28 -43.5t-7.5 -74.5v-101q0 -43 9.5 -69.5t31 -41.5t55.5 -20.5t83 -5.5h129q46 0 78.5 3.5t53.5 14t30.5 30t9.5 52.5v8h225q1 -14 1.5 -27t0.5 -26q0 -68 -17 -113.5t-56 -74.5q-42 -31 -107.5 -40 t-161.5 -9h-248q-43 0 -80 1.5t-69 7t-59 16.5t-51 29q-46 36 -65 87t-19 126v198q0 82 18.5 136t60 86t106.5 45t158 13h248q96 0 161 -8t105 -39q35 -27 51 -72t16 -111v-20t-1 -21h-223v7z"/>
<glyph glyph-name="D" horiz-adv-x="1087" unicode="D" d="M713 727q162 0 240 -57t78 -187v-250q0 -121 -60.5 -177t-192.5 -56h-703v727h638zM297 548v-371h376q71 0 103.5 28.5t32.5 90.5v128q0 65 -40 94.5t-124 29.5h-348z"/>
<glyph glyph-name="E" horiz-adv-x="930" unicode="E" d="M295 550v-110h539v-153h-539v-111h581v-176h-803v727h794v-177h-572z"/>
<glyph glyph-name="F" horiz-adv-x="879" unicode="F" d="M295 550v-130h539v-176h-539v-244h-222v727h794v-177h-572z"/>
<glyph glyph-name="G" horiz-adv-x="1052" unicode="G" d="M762 467q0 30 -10 47.5t-30 26t-52 11t-75 2.5h-129q-54 0 -88.5 -5t-54.5 -20t-27.5 -43.5t-7.5 -74.5v-101q0 -43 9.5 -69.5t31 -41.5t55.5 -20.5t83 -5.5h128q43 0 75 3.5t52.5 12t30.5 23.5t10 38q0 5 -0.5 10.5t-1.5 11.5h-261v147h492v-239q0 -55 -20.5 -91.5 t-62.5 -58t-106 -30.5t-151 -9h-247q-43 0 -80 1.5t-69.5 7t-59.5 16.5t-51 29q-46 36 -65 87t-19 126v198q0 82 18.5 136t60 86t106.5 45t158 13h248q96 0 161.5 -8t105.5 -39q35 -27 51 -72t16 -111v-20t-1 -21h-223v2z"/>
<glyph glyph-name="H" horiz-adv-x="1050" unicode="H" d="M75 0v727h222v-267h455v267h223v-727h-223v284h-455v-284h-222z"/>
<glyph glyph-name="I" horiz-adv-x="388" unicode="I" d="M83 0v727h222v-727h-222z"/>
<glyph glyph-name="J" horiz-adv-x="829" unicode="J" d="M754 205q0 -48 -16 -88t-42 -66q-38 -36 -94.5 -47.5t-138.5 -11.5h-155q-81 0 -136 10.5t-88.5 37t-47.5 70t-14 109.5v96h208q0 -7 -0.5 -13.5t-0.5 -12.5q0 -33 5 -55.5t17 -36t33 -19t54 -5.5h100q30 0 48.5 6t28.5 18.5t13.5 32t3.5 46.5v451h222v-522z"/>
<glyph glyph-name="K" horiz-adv-x="1026" unicode="K" d="M393 457l291 270h295l-393 -359l445 -368h-309l-329 275h-93v-275h-222v727h222v-270h93z"/>
<glyph glyph-name="L" horiz-adv-x="808" unicode="L" d="M795 176v-176h-706v727h222v-551h484z"/>
<glyph glyph-name="M" horiz-adv-x="1324" unicode="M" d="M75 0v727h328l259 -454l264 454h323v-727h-215v518l-300 -518h-145l-298 518v-518h-216z"/>
<glyph glyph-name="N" horiz-adv-x="1128" unicode="N" d="M733 0l-436 529v-529h-222v727h329l433 -533v533h221v-727h-325z"/>
<glyph glyph-name="O" horiz-adv-x="1100" unicode="O" d="M621 173q53 0 90 5t60.5 20t34 42.5t10.5 71.5v103q0 44 -10.5 71.5t-34 42.5t-60.5 20t-90 5h-142q-54 0 -91 -5t-60.5 -20.5t-33.5 -43.5t-10 -74v-101q0 -43 11 -70t34.5 -42t60.5 -20t90 -5h141zM420 -9q-49 0 -90.5 1.5t-76.5 6.5t-64 15.5t-52 27.5q-45 33 -62 85 t-17 131v198q0 85 17 140t62 89q45 33 113.5 42t168.5 9h261q100 0 169.5 -9t113.5 -42q42 -32 60 -85.5t18 -134.5v-203q0 -81 -18 -134.5t-60 -85.5q-45 -34 -114.5 -42.5t-168.5 -8.5h-260z"/>
<glyph glyph-name="P" horiz-adv-x="975" unicode="P" d="M634 727q64 0 111 -6t82 -24q59 -31 82 -89.5t23 -153.5q0 -73 -11.5 -125t-37 -85t-67.5 -48t-102 -15h-415v-181h-223v727h558zM299 546v-184h327q47 0 63.5 22.5t16.5 76.5q0 44 -18.5 64.5t-61.5 20.5h-327z"/>
<glyph glyph-name="Q" horiz-adv-x="1100" unicode="Q" d="M62 454q0 85 17 139.5t62 88.5q45 33 113.5 42t168.5 9h261q100 0 169 -9t114 -42q44 -32 61 -85.5t17 -133.5v-161q0 -30 -1.5 -55.5t-7.5 -47.5l86 -52l-76 -143l-79 50q-18 -21 -44.5 -33.5t-61 -19t-79 -8.5t-98.5 -2h-260q-98 0 -167.5 8.5t-115.5 42.5 q-45 33 -62 84.5t-17 129.5v198zM773 185q-12 4 -28 13t-36 21l-165 98l79 125l143 -84q35 -21 65 -44q0 23 -0.5 39t-0.5 26v35q0 44 -10.5 71t-34 42t-60.5 20t-90 5h-152q-54 0 -91 -5t-60.5 -20.5t-33.5 -43.5t-10 -74v-101q0 -69 34 -102.5t108 -33.5h221q44 0 74 2.5 t48 10.5z"/>
<glyph glyph-name="R" horiz-adv-x="1027" unicode="R" d="M662 727q82 0 139 -10.5t92.5 -37.5t51 -73t15.5 -117q0 -90 -26.5 -138t-94.5 -64q115 -27 115 -138v-149h-222v111q0 23 -5.5 37.5t-17.5 23t-31 11.5t-46 3h-331v-186h-223v727h584zM301 546v-178h353q47 0 63.5 22t16.5 74q0 42 -18.5 62t-61.5 20h-353z"/>
<glyph glyph-name="S" horiz-adv-x="1024" unicode="S" d="M284 242v-13q0 -23 5.5 -36.5t17.5 -21t32 -10t49 -2.5h279q40 0 58 13.5t18 46.5q0 20 -6.5 32t-20 18.5t-33.5 9t-47 3.5l-349 11q-63 2 -106 12.5t-69 35t-37 65.5t-11 104q0 60 11.5 101t39.5 69q40 38 101 47t149 9h339q124 0 180.5 -45t56.5 -150q0 -9 -0.5 -19 t-1.5 -21h-214v3q0 72 -73 72h-256q-52 0 -78.5 -9.5t-26.5 -47.5q0 -34 20.5 -46t66.5 -14l365 -9q63 -2 106 -15t70 -41t39 -72t12 -108q0 -69 -16.5 -113t-65.5 -75q-34 -22 -89.5 -28.5t-135.5 -6.5h-296q-84 0 -142.5 8t-94.5 29t-52 58.5t-16 97.5q0 13 3 58h219z"/>
<glyph glyph-name="T" horiz-adv-x="878" unicode="T" d="M328 0v549h-304v178h830v-178h-304v-549h-222z"/>
<glyph glyph-name="U" horiz-adv-x="1050" unicode="U" d="M295 727v-431q0 -40 8.5 -64.5t29.5 -37.5t55.5 -17.5t85.5 -4.5h126q43 0 72.5 5t48.5 18.5t27.5 37.5t8.5 63v431h222v-500q0 -68 -18 -113t-55.5 -72.5t-95.5 -39t-139 -11.5h-248q-97 0 -163.5 11t-108 38t-60 72.5t-18.5 114.5v500h222z"/>
<glyph glyph-name="V" horiz-adv-x="1047" unicode="V" d="M815 727h236l-388 -727h-269l-384 727h242l273 -522z"/>
<glyph glyph-name="W" horiz-adv-x="1309" unicode="W" d="M241 0l-232 727h221l150 -517l186 517h204l176 -517l160 517h221l-243 -727h-250l-168 501l-171 -501h-254z"/>
<glyph glyph-name="X" horiz-adv-x="1060" unicode="X" d="M362 369l-331 358h277l226 -255l228 255h268l-321 -358l349 -369h-286l-238 255l-241 -255h-289z"/>
<glyph glyph-name="Y" horiz-adv-x="1027" unicode="Y" d="M398 0v261l-401 466h273l239 -289l250 289h263l-402 -466v-261h-222z"/>
<glyph glyph-name="Z" horiz-adv-x="928" unicode="Z" d="M38 0v178l518 373h-499v176h824v-176l-515 -373h527v-178h-855z"/>
<glyph glyph-name="bracketleft" horiz-adv-x="468" unicode="[" d="M410 556h-117v-385h117v-171h-318v726h318v-170z"/>
<glyph glyph-name="backslash" horiz-adv-x="364" unicode="\" d="M59 736l386 -829h-111l-386 829h111z"/>
<glyph glyph-name="bracketright" horiz-adv-x="468" unicode="]" d="M397 726v-726h-318v171h117v385h-117v170h318z"/>
<glyph glyph-name="asciicircum" horiz-adv-x="1000" unicode="^" d="M570 714l227 -275h-129l-168 167l-169 -167h-129l227 275h141z"/>
<glyph glyph-name="underscore" d="M500 -119v-117h-500v117h500z" unicode="_"/>
<glyph glyph-name="grave" d="M262 574l-231 139h194l131 -139h-94z" unicode="`"/>
<glyph glyph-name="a" horiz-adv-x="756" unicode="a" d="M520 0v62q-29 -37 -88.5 -53t-151.5 -16q-68 0 -115.5 8t-76.5 27.5t-42 53t-13 83.5q0 51 14 84t45.5 51.5t80.5 26t120 7.5q81 0 137 -10t90 -34v55q0 56 -72 56h-151q-54 0 -54 -39h-186v6q0 85 63.5 119t197.5 34h181q105 0 155.5 -41t50.5 -129v-351h-185zM313 222 q-48 0 -70 -11t-22 -42t22 -40t70 -9h113q48 0 70 11t22 42t-22 40t-70 9h-113z"/>
<glyph glyph-name="b" horiz-adv-x="810" unicode="b" d="M257 419q16 57 72 76t160 19q73 0 124 -9.5t83 -31.5t46.5 -56.5t14.5 -83.5v-170q0 -48 -15 -81t-48 -53.5t-84.5 -29t-123.5 -8.5q-56 0 -97.5 5t-70 16.5t-43.5 31t-18 48.5v-92h-185v727h185v-308zM455 133q61 0 89 18.5t28 68.5v64q0 48 -27.5 68t-89.5 20h-84 q-66 0 -91.5 -19.5t-25.5 -71.5v-62q0 -48 27 -67t90 -19h84z"/>
<glyph glyph-name="c" horiz-adv-x="780" unicode="c" d="M299 -7q-64 0 -110.5 10.5t-76.5 33t-44.5 58.5t-14.5 87v140q0 55 12.5 93t41 61.5t76 34t116.5 10.5h175q128 0 187.5 -41.5t59.5 -134.5q0 -20 -3 -42h-175v3q0 42 -24 59t-78 17h-91q-63 0 -87 -20t-24 -74v-66q0 -49 25.5 -69.5t85.5 -20.5h81q31 0 52.5 3t35 12 t19.5 25.5t6 43.5h184q1 -8 1 -16v-16q0 -53 -14.5 -89.5t-45 -59t-78 -32.5t-114.5 -10h-178z"/>
<glyph glyph-name="d" horiz-adv-x="810" unicode="d" d="M553 727h185v-727h-185v92q-3 -29 -18 -48.5t-43.5 -31t-70 -16.5t-97.5 -5q-72 0 -123.5 8.5t-84.5 29t-48 53.5t-15 81v170q0 49 14.5 83.5t46.5 56.5t83 31.5t124 9.5q52 0 91.5 -4t68 -15t46.5 -29.5t26 -46.5v308zM439 133q63 0 90 19t27 67v62q0 52 -25.5 71.5 t-91.5 19.5h-84q-62 0 -89.5 -20t-27.5 -68v-64q0 -50 28 -68.5t89 -18.5h84z"/>
<glyph glyph-name="e" horiz-adv-x="756" unicode="e" d="M523 325v2q0 38 -24.5 52.5t-79.5 14.5h-76q-55 0 -80 -14.5t-25 -52.5v-2h285zM701 171v-8q0 -93 -57 -131.5t-180 -38.5h-172q-118 0 -178.5 49t-60.5 140v140q0 97 61 148t177 51h173q117 0 177.5 -51t60.5 -148v-110h-464q0 -4 -0.5 -7.5t-0.5 -6.5q0 -45 26 -64 t84 -19h78q24 0 41.5 1.5t29.5 7t19.5 16.5t11.5 31h174z"/>
<glyph glyph-name="f" horiz-adv-x="463" unicode="f" d="M107 0v374h-90v140h90v17q0 55 12.5 93t40 60.5t70.5 32.5t105 10h118v-128q-14 1 -26 1.5t-23 0.5q-59 0 -85.5 -15.5t-26.5 -54.5v-8t1 -9h170v-140h-170v-374h-186z"/>
<glyph glyph-name="g" horiz-adv-x="807" unicode="g" d="M554 87q-17 -29 -65 -39.5t-129 -10.5q-79 0 -135.5 7t-92.5 25.5t-53 51t-17 83.5v141q0 95 63 135.5t200 40.5q96 0 152 -19.5t77 -65.5v78h185v-512q0 -85 -64.5 -130.5t-185.5 -45.5h-171q-68 0 -117 5t-80 21.5t-45.5 46t-14.5 79.5v8h185q2 -26 25.5 -33t71.5 -7 h105q57 0 82.5 25.5t25.5 83.5q0 8 -0.5 15.5t-1.5 16.5zM440 170q60 0 87 16.5t27 64.5v59q0 45 -27 63t-87 18h-82q-32 0 -54 -4t-35.5 -14t-19 -26t-5.5 -40v-57q0 -45 26.5 -62.5t87.5 -17.5h82z"/>
<glyph glyph-name="h" horiz-adv-x="807" unicode="h" d="M72 0v727h185v-295q18 27 40.5 44t50.5 26.5t62.5 13t77.5 3.5q251 0 251 -187v-332h-185v259q0 31 -5.5 52.5t-21.5 34.5t-45 18.5t-76 5.5q-78 0 -113.5 -27t-35.5 -90v-253h-185z"/>
<glyph glyph-name="i" horiz-adv-x="340" unicode="i" d="M78 0v514h185v-514h-185zM78 576v151h185v-151h-185z"/>
<glyph glyph-name="j" horiz-adv-x="342" unicode="j" d="M269 -29q0 -42 -9 -70t-30 -44.5t-55.5 -23.5t-85.5 -7q-17 0 -36.5 1.5t-39.5 3.5v130q7 -1 13.5 -2t12.5 -1q24 0 34.5 13.5t10.5 42.5v500h185v-543zM84 576v151h185v-151h-185z"/>
<glyph glyph-name="k" horiz-adv-x="745" unicode="k" d="M306 348l160 166h243l-246 -240l280 -274h-234l-203 205h-44v-205h-186v727h186v-379h44z"/>
<glyph glyph-name="l" horiz-adv-x="340" unicode="l" d="M78 0v727h185v-727h-185z"/>
<glyph glyph-name="m" horiz-adv-x="1217" unicode="m" d="M72 0v511h185v-79q16 26 35 43t43.5 26.5t55 13.5t68.5 4q97 0 152 -27t73 -90q27 63 77.5 90t134.5 27q129 0 191.5 -45.5t62.5 -141.5v-332h-185v259q0 30 -4.5 51.5t-18.5 34.5t-39 19t-67 6q-69 0 -99 -27t-30 -90v-253h-185v259q0 30 -4.5 51.5t-18.5 34.5t-40 19 t-69 6q-70 0 -101.5 -27t-31.5 -90v-253h-185z"/>
<glyph glyph-name="n" horiz-adv-x="806" unicode="n" d="M72 0v511h185v-79q18 27 40.5 44t50.5 26.5t62.5 13t77.5 3.5q251 0 251 -187v-332h-185v259q0 31 -5.5 52.5t-21.5 34.5t-45 18.5t-76 5.5q-81 0 -115 -28t-34 -94v-248h-185z"/>
<glyph glyph-name="o" horiz-adv-x="804" unicode="o" d="M310 -7q-66 0 -114.5 10t-80 32t-47 58t-15.5 89v140q0 54 13.5 92t43.5 61.5t79 34.5t120 11h186q68 0 116.5 -11t79.5 -34t45.5 -60t14.5 -88v-143q0 -54 -15 -91t-46 -59.5t-79.5 -32t-115.5 -9.5h-185zM446 132q63 0 91.5 19.5t28.5 71.5v68q0 51 -28 71t-92 20h-87 q-34 0 -57 -4.5t-37.5 -15.5t-20.5 -29t-6 -45v-66q0 -51 28.5 -70.5t92.5 -19.5h87z"/>
<glyph glyph-name="p" horiz-adv-x="810" unicode="p" d="M371 379q-63 0 -90 -19t-27 -67v-62q0 -52 25.5 -71t91.5 -19h84q62 0 89.5 19.5t27.5 67.5v64q0 50 -28 68.5t-89 18.5h-84zM257 -174h-185v688h185v-94q6 58 61.5 79.5t167.5 21.5q72 0 123.5 -8.5t84.5 -29t48 -53.5t15 -81v-170q0 -95 -64 -136.5t-204 -41.5 q-52 0 -91.5 3.5t-68 14t-46.5 28t-26 46.5v-267z"/>
<glyph glyph-name="q" horiz-adv-x="810" unicode="q" d="M355 379q-61 0 -89 -18.5t-28 -68.5v-64q0 -48 27.5 -67.5t89.5 -19.5h84q66 0 91.5 19t25.5 71v62q0 48 -27 67t-90 19h-84zM553 93q-8 -29 -26 -46.5t-46.5 -28t-68 -14t-91.5 -3.5q-140 0 -204 41.5t-64 136.5v170q0 48 15 81t48 53.5t84.5 29t123.5 8.5 q112 0 167.5 -21.5t61.5 -79.5v94h185v-688h-185v267z"/>
<glyph glyph-name="r" horiz-adv-x="656" unicode="r" d="M263 418q29 57 73 80.5t115 23.5q53 0 90.5 -10.5t61 -34.5t34.5 -61.5t11 -91.5q0 -12 -0.5 -24.5t-1.5 -26.5h-163v8q0 88 -103 88q-56 0 -86.5 -25t-30.5 -70v-274h-185v514h185v-96z"/>
<glyph glyph-name="s" horiz-adv-x="778" unicode="s" d="M241 163v-2q0 -25 25 -35.5t76 -10.5h135q39 0 56.5 8.5t17.5 31.5q0 39 -76 40l-183 3q-62 1 -108 8.5t-76.5 25t-45.5 47t-15 76.5q0 46 15 78t45.5 51.5t78 28t112.5 8.5h210q101 0 149 -37t49 -115h-185q-14 30 -92 30h-129q-34 0 -50.5 -6.5t-16.5 -26.5 q0 -22 21 -27.5t66 -6.5l226 -3q99 -2 145 -40t46 -123q0 -50 -13.5 -83.5t-41.5 -53.5t-72 -28t-104 -8h-188q-72 0 -123 6.5t-84 25.5t-49 52t-17 86h196z"/>
<glyph glyph-name="t" horiz-adv-x="657" unicode="t" d="M21 380v134h104v123h185v-123h289v-134h-289v-175q0 -39 15.5 -56t56.5 -17q45 0 62.5 16t17.5 58q0 7 -0.5 14.5t-1.5 15.5h164q2 -12 2 -23v-22q0 -53 -15 -90.5t-47 -61.5t-81 -35t-118 -11q-65 0 -111 9t-74.5 30t-41.5 55t-13 84v209h-104z"/>
<glyph glyph-name="u" horiz-adv-x="806" unicode="u" d="M734 514v-514h-185v79q-18 -27 -40.5 -44t-50.5 -26.5t-62.5 -12.5t-77.5 -3q-130 0 -191 46t-61 146v329h185v-262q0 -30 5 -50.5t20 -34t42.5 -19.5t72.5 -6q43 0 73 5.5t49 19.5t27.5 37.5t8.5 58.5v251h185z"/>
<glyph glyph-name="v" horiz-adv-x="732" unicode="v" d="M253 0l-247 514h208l154 -360l160 360h205l-247 -514h-233z"/>
<glyph glyph-name="w" horiz-adv-x="1096" unicode="w" d="M8 514h204l121 -364l134 364h166l129 -364l130 364h197l-200 -514h-240l-101 285l-107 -285h-238z"/>
<glyph glyph-name="x" horiz-adv-x="731" unicode="x" d="M11 0l208 270l-201 244h245l99 -134l98 134h238l-190 -238l224 -276h-241l-126 170l-120 -170h-234z"/>
<glyph glyph-name="y" horiz-adv-x="709" unicode="y" d="M236 25l-225 489h204l143 -334l148 334h202l-257 -554q-19 -42 -39 -69t-46 -42q-23 -13 -52.5 -18t-67.5 -5q-19 0 -40 1t-44 3v122q22 -3 40 -3q45 0 69.5 18t33.5 58h-69z"/>
<glyph glyph-name="z" horiz-adv-x="633" unicode="z" d="M27 0v130l311 243h-293v141h553v-142l-294 -232h304v-140h-581z"/>
<glyph glyph-name="braceleft" d="M436 603q-5 0 -10 0.5t-10 0.5q-26 0 -41.5 -4.5t-24.5 -14.5t-12 -27.5t-3 -42.5v-117q0 -32 -4.5 -55.5t-16 -40t-31.5 -27t-51 -16.5q31 -6 51.5 -16.5t31.5 -27t15.5 -39.5t4.5 -55v-118q0 -25 3 -42t12 -27t24.5 -14.5t40.5 -4.5q5 0 10.5 0.5t10.5 0.5v-118 q-11 0 -20.5 -0.5t-19.5 -0.5q-48 0 -84 5t-62 19q-35 19 -43.5 52t-8.5 85v125q0 65 -23.5 91.5t-82.5 26.5q-4 0 -8.5 -0.5t-9.5 -0.5v118q5 0 9 -0.5t9 -0.5q59 0 82.5 27.5t23.5 91.5v124q0 52 8.5 85.5t43.5 52.5q26 14 62.5 19t84.5 5q9 0 18.5 -0.5t20.5 -0.5v-118z " unicode="{"/>
<glyph glyph-name="bar" d="M309 764v-1000h-117v1000h117z" unicode="|"/>
<glyph glyph-name="braceright" d="M65 721q11 0 20.5 0.5t18.5 0.5q48 0 84.5 -5t62.5 -19q35 -19 43.5 -52.5t8.5 -85.5v-124q0 -65 23.5 -92t82.5 -27q5 0 9 0.5t9 0.5v-118q-5 0 -9 0.5t-9 0.5q-59 0 -82.5 -27t-23.5 -91v-125q0 -52 -8.5 -85.5t-43.5 -52.5q-25 -14 -60 -18.5t-82 -4.5q-11 0 -22 0.5 t-22 0.5v118q6 0 11 -0.5t10 -0.5q25 0 41 4.5t24.5 14.5t11.5 27t3 42v118q0 31 4.5 54.5t15.5 40t31 27t52 16.5q-32 6 -52 16.5t-31 27t-15.5 40t-4.5 55.5v117q0 25 -3 42t-11.5 27.5t-23.5 15t-40 4.5q-5 0 -11 -0.5t-12 -0.5v118z" unicode="}"/>
<glyph glyph-name="asciitilde" horiz-adv-x="833" unicode="~" d="M747 276q-48 -33 -93.5 -50t-90.5 -17t-84 14q-54 19 -104 34.5t-101 15.5q-45 0 -89.5 -19.5t-97.5 -57.5v124q54 35 100.5 52.5t88.5 17.5t77 -8.5t67 -19.5q36 -12 71.5 -24t74.5 -12q44 0 87.5 19t93.5 55v-124z"/>
<glyph glyph-name="exclamdown" horiz-adv-x="488" unicode="¡" d="M347 727v-206h-206v206h206zM341 431l6 -250v-181h-206v181l11 250h189z"/>
<glyph glyph-name="cent" horiz-adv-x="977" unicode="¢" d="M528 130h19q31 0 52.5 3t34.5 12t19 25t6 43h185q1 -8 1 -15.5v-15.5q0 -53 -14.5 -89.5t-45 -59t-78 -32.5t-114.5 -10h-105l-34 -129h-113l36 130q-62 7 -102.5 22.5t-64 41.5t-32.5 65t-9 94v87q0 56 13.5 97t43 67.5t76 39t113.5 12.5h111l30 105h109l-31 -108 q106 -5 154.5 -46t48.5 -126q0 -20 -3 -42h-175q0 68 -64 74zM467 379q-32 0 -53.5 -4.5t-34.5 -15t-18.5 -29t-5.5 -45.5v-66q0 -78 63 -84l69 244h-20z"/>
<glyph glyph-name="sterling" horiz-adv-x="977" unicode="£" d="M56 0v168q33 0 50 13t17 35v67h-80v137h80v104q0 103 65.5 157.5t193.5 54.5h266q140 0 205.5 -56.5t65.5 -178.5v-3h-199v6q0 37 -18 51.5t-61 14.5h-237q-38 0 -54 -13t-16 -48v-89h313v-137h-313q-1 -37 -12 -65.5t-35 -51.5h644v-166h-875z"/>
<glyph glyph-name="currency" horiz-adv-x="606" unicode="¤" d="M186 607q24 17 53 26.5t64 9.5q68 0 119 -36l98 98l58 -57l-98 -100q34 -52 34 -116t-34 -116l98 -99l-58 -58l-98 99q-26 -19 -55 -27.5t-63 -8.5q-66 0 -118 36l-99 -99l-57 58l98 99q-35 52 -35 116q0 66 35 116l-98 100l57 57zM304 559q-26 0 -49.5 -10t-40.5 -27.5 t-27 -40.5t-10 -49t10 -49.5t27 -40.5t40 -27t50 -10q26 0 49 10t40.5 27t27.5 40.5t10 49.5t-10 49t-27.5 40.5t-40.5 27.5t-49 10z"/>
<glyph glyph-name="yen" horiz-adv-x="991" unicode="¥" d="M391 0v261l-17 19h-364v79h296l-73 86h-223v79h154l-175 203h242l266 -322l274 322h229l-175 -203h157v-79h-225l-75 -86h300v-79h-368l-15 -19v-261h-208z"/>
<glyph glyph-name="brokenbar" d="M309 699v-370h-117v370h117zM309 199v-370h-117v370h117z" unicode="¦"/>
<glyph glyph-name="section" horiz-adv-x="808" unicode="§" d="M572 302q28 21 28 45q0 25 -20.5 37.5t-65.5 20.5l-280 50q-22 -21 -22 -45q0 -28 18.5 -41t60.5 -20zM257 154q0 -26 13 -37t42 -11h186q44 0 44 35q0 18 -12.5 25.5t-40.5 12.5l-239 40q-45 7 -77 17.5t-53 26.5t-31 39.5t-10 56.5q0 48 26.5 78t76.5 38 q-71 44 -71 125q0 40 13.5 66t41 41.5t69 22t96.5 6.5h188q85 0 123 -28.5t38 -99.5v-15h-149q-5 21 -18 29.5t-38 8.5h-146q-32 0 -46.5 -6.5t-14.5 -25.5q0 -20 18.5 -25.5t60.5 -11.5l212 -31q87 -13 128.5 -47t41.5 -94q0 -100 -101 -112q78 -53 78 -135 q0 -45 -13.5 -74t-41 -46.5t-69 -24.5t-97.5 -7h-215q-87 0 -125.5 31t-38.5 107q0 8 0.5 17t1.5 18h149v-10z"/>
<glyph glyph-name="dieresis" d="M53 707h160v-128h-160v128zM287 707h160v-128h-160v128z" unicode="¨"/>
<glyph glyph-name="copyright" horiz-adv-x="833" unicode="©" d="M416 725q75 0 141 -27t119 -80q52 -52 78.5 -117.5t26.5 -140.5t-26.5 -140t-77.5 -116q-54 -54 -121.5 -81.5t-139.5 -27.5t-138 27.5t-119 80.5t-80 118.5t-27 138.5q0 72 27.5 138.5t80.5 120.5q51 52 116 79t140 27zM417 659q-125 0 -210 -87q-43 -44 -66 -98 t-23 -114q0 -59 23 -113t66 -97t96.5 -65.5t113.5 -22.5q59 0 113.5 22.5t99.5 66.5q42 42 63.5 94.5t21.5 114.5q0 61 -22 115t-64 96q-43 43 -96.5 65.5t-115.5 22.5zM492 435q-3 33 -23 51t-53 18q-39 0 -62.5 -36.5t-23.5 -106.5q0 -139 91 -139q32 0 51.5 19.5 t22.5 56.5h105q-3 -70 -52 -112.5t-129 -42.5q-46 0 -83 14.5t-63.5 42.5t-40.5 67.5t-14 89.5q0 51 14 91.5t40.5 69t63.5 44t82 15.5q78 0 126 -39t52 -103h-104z"/>
<glyph glyph-name="ordfeminine" horiz-adv-x="567" unicode="ª" d="M390 367v43q-22 -26 -66.5 -37t-113.5 -11q-51 0 -86.5 5.5t-57 19.5t-31.5 37t-10 58q0 36 10.5 59t34 36.5t60.5 18.5t90 5q61 0 102.5 -7t67.5 -24v38q0 40 -54 40h-113q-41 0 -41 -28h-139v5q0 60 47 83.5t149 23.5h135q155 0 155 -119v-246h-139zM235 522 q-35 0 -52 -7.5t-17 -29.5q0 -21 16.5 -27.5t52.5 -6.5h85q35 0 52 7.5t17 29.5t-16.5 28t-52.5 6h-85z"/>
<glyph glyph-name="guillemotleft" horiz-adv-x="581" unicode="«" d="M191 259l115 -153h-152l-115 153l115 157h152zM427 259l114 -153h-152l-114 153l114 157h152z"/>
<glyph glyph-name="logicalnot" horiz-adv-x="833" unicode="¬" d="M709 423v-245h-112v134h-473v111h585z"/>
<glyph glyph-name="registered" horiz-adv-x="833" unicode="®" d="M416 725q76 0 143 -28t120 -82q51 -51 76.5 -116.5t25.5 -138.5q0 -76 -27.5 -142t-80.5 -117q-54 -52 -120 -79t-137 -27q-74 0 -140 28.5t-119 82.5q-51 53 -78 117.5t-27 136.5q0 73 28.5 140.5t82.5 121.5q51 51 115 77t138 26zM417 659q-122 0 -208 -84 q-45 -45 -67.5 -100t-22.5 -115q0 -59 21.5 -111.5t63.5 -95.5q43 -45 97.5 -68t114.5 -23q59 0 113 22t98 64q43 42 65.5 96t22.5 116q0 60 -21 113.5t-63 95.5q-44 45 -98 67.5t-116 22.5zM423 568q87 0 130 -29.5t43 -86.5q0 -39 -22 -67.5t-63 -40.5l89 -176h-121 l-75 159h-32v-159h-110v400h161zM372 392h39q72 0 72 52q0 29 -19 42t-59 13h-33v-107z"/>
<glyph glyph-name="degree" horiz-adv-x="329" unicode="°" d="M165 716q31 0 58.5 -12t48.5 -32.5t33 -48t12 -59.5q0 -31 -12 -58.5t-32.5 -48.5t-48.5 -33t-60 -12t-59.5 12t-47.5 32.5t-32 48t-12 59.5t12 60t32.5 48.5t48 32t59.5 11.5zM165 645q-33 0 -57 -23t-24 -57t23 -57.5t58 -23.5q34 0 57 24t23 57t-23 56.5t-57 23.5z "/>
<glyph glyph-name="plusminus" horiz-adv-x="833" unicode="±" d="M475 606v-156h234v-113h-234v-156h-116v156h-235v113h235v156h116zM709 104v-113h-585v113h585z"/>
<glyph glyph-name="twosuperior" horiz-adv-x="645" unicode="²" d="M48 291v154q0 35 30.5 59t85.5 29l226 17q35 2 52 8.5t17 23.5v22q0 29 -65 29h-125q-45 0 -64.5 -12t-19.5 -46v-7h-137q0 8 -0.5 15.5t-0.5 14.5q0 40 10.5 66t33 41.5t59 21.5t88.5 6h195q86 0 125.5 -25t39.5 -80v-72q0 -41 -29 -67.5t-86 -30.5l-257 -20 q-43 -3 -43 -46v-2h420v-99h-555z"/>
<glyph glyph-name="threesuperior" horiz-adv-x="645" unicode="³" d="M177 449q-1 -5 -1 -8.5v-6.5q0 -30 15 -39t53 -9h172q46 0 46 34q0 22 -13.5 31t-42.5 9h-144v99h149q38 0 38 35q0 22 -13.5 30t-45.5 8h-154q-31 0 -42.5 -9t-11.5 -38v-5h-136q0 7 -0.5 14t-0.5 14q0 69 42.5 97t136.5 28h199q90 0 127.5 -20.5t37.5 -71.5v-51 q0 -38 -15.5 -55t-59.5 -24q48 -7 68 -22.5t20 -49.5v-55q0 -51 -39 -74.5t-120 -23.5h-205q-54 0 -91 4t-62 20q-23 14 -33.5 41t-10.5 68q0 8 0.5 15t1.5 15h135z"/>
<glyph glyph-name="acute" d="M275 713h194l-231 -139h-94z" unicode="´"/>
<glyph glyph-name="mu" horiz-adv-x="642" unicode="µ" d="M269 532l-39 -258q-6 -41 -6 -70q0 -83 70 -83q45 0 69 34.5t35 106.5l43 270h174l-85 -532h-157l9 61q-20 -36 -43.5 -52.5t-58.5 -16.5q-29 0 -52 15t-38 44l-40 -260h-172l116 741h175z"/>
<glyph glyph-name="mu" horiz-adv-x="642" unicode="μ" d="M269 532l-39 -258q-6 -41 -6 -70q0 -83 70 -83q45 0 69 34.5t35 106.5l43 270h174l-85 -532h-157l9 61q-20 -36 -43.5 -52.5t-58.5 -16.5q-29 0 -52 15t-38 44l-40 -260h-172l116 741h175z"/>
<glyph glyph-name="paragraph" d="M487 662h-52v-662h-85v662h-74v-662h-85v383q-41 1 -73.5 14.5t-55.5 35.5t-35.5 52.5t-12.5 66.5q0 37 13 68.5t37.5 54t60 35t79.5 12.5h283v-60z" unicode="¶"/>
<glyph glyph-name="cedilla" d="M250 0v-53h82q33 0 45.5 -17t12.5 -56v-26q0 -40 -12.5 -56.5t-46.5 -16.5h-213v67h163q19 0 19 20t-21 20h-66q-17 0 -21.5 9t-4.5 28v81h63z" unicode="¸"/>
<glyph glyph-name="onesuperior" horiz-adv-x="645" unicode="¹" d="M324 291v328l-162 -101l-69 91l210 118h162v-436h-141z"/>
<glyph glyph-name="ordmasculine" horiz-adv-x="603" unicode="º" d="M233 362q-100 0 -146.5 29t-46.5 103v98q0 38 10 64.5t32.5 43.5t59 24.5t90.5 7.5h139q103 0 147.5 -31.5t44.5 -103.5v-101q0 -75 -45.5 -104.5t-146.5 -29.5h-138zM335 459q48 0 69 14t21 50v48q0 35 -21 49t-69 14h-66q-51 0 -70.5 -13.5t-19.5 -51.5v-47 q0 -35 21 -49t69 -14h66z"/>
<glyph glyph-name="guillemotright" horiz-adv-x="581" unicode="»" d="M427 416l114 -157l-114 -153h-152l114 153l-114 157h152zM191 416l115 -157l-115 -153h-152l115 153l-115 157h152z"/>
<glyph glyph-name="onequarter" horiz-adv-x="1398" unicode="¼" d="M310 320v306l-155 -94l-67 85l201 110h155v-407h-134zM948 736l-405 -745h-95l405 745h95zM1163 309l-238 -133h238v133zM1163 0v82h-350v148l319 177h160v-231h70v-94h-70v-82h-129z"/>
<glyph glyph-name="onehalf" horiz-adv-x="1398" unicode="½" d="M310 320v306l-155 -94l-67 85l201 110h155v-407h-134zM948 736l-405 -745h-95l405 745h95zM827 0v143q0 33 29.5 56t82.5 27l215 15q34 3 50 9t16 22v20q0 27 -62 27h-120q-42 0 -61 -11t-19 -43v-7h-130q-1 8 -1 15v14q0 37 9.5 61t31.5 38.5t56.5 20t84.5 5.5h186 q82 0 120 -23t38 -74v-67q0 -38 -28 -63t-82 -29l-245 -19q-41 -3 -41 -42v-3h400v-92h-530z"/>
<glyph glyph-name="threequarters" horiz-adv-x="1398" unicode="¾" d="M169 467q-1 -4 -1 -7.5v-6.5q0 -28 14 -36.5t50 -8.5h166q43 0 43 32q0 20 -12.5 28.5t-41.5 8.5h-137v93h142q37 0 37 33q0 20 -13 28t-44 8h-147q-29 0 -40.5 -9t-11.5 -36v-5h-129q-1 7 -1 13.5v13.5q0 64 40.5 90t130.5 26h190q86 0 121.5 -19t35.5 -67v-47 q0 -35 -14.5 -51t-56.5 -23q45 -6 64 -20.5t19 -46.5v-51q0 -92 -152 -92h-195q-51 0 -86.5 4t-58.5 18t-33 39.5t-10 63.5q0 7 0.5 13.5t1.5 13.5h129zM949 736l-405 -745h-95l405 745h95zM1164 309l-238 -133h238v133zM1164 0v82h-350v148l319 177h160v-231h70v-94h-70 v-82h-129z"/>
<glyph glyph-name="questiondown" horiz-adv-x="806" unicode="¿" d="M534 476q1 -12 1.5 -23.5t0.5 -22.5q0 -64 -22 -98t-73 -44l-150 -28q-32 -6 -46.5 -20t-14.5 -40q0 -38 29 -51.5t94 -13.5h110q32 0 54 4.5t35.5 16.5t19 32t5.5 52v14h183q3 -20 4 -37.5t1 -33.5q0 -56 -17 -93t-53.5 -59.5t-93.5 -32t-137 -9.5h-160q-137 0 -198 36 t-61 122v109q0 60 33 97.5t93 46.5l123 19q32 5 43 14.5t11 34.5v8h186zM541 725v-191h-201v191h201z"/>
<glyph glyph-name="Agrave" horiz-adv-x="1072" unicode="À" d="M2 0l397 727h283l390 -727h-244l-70 121h-443l-71 -121h-242zM678 296l-141 257l-138 -257h279zM548 789l-231 139h194l131 -139h-94z"/>
<glyph glyph-name="Aacute" horiz-adv-x="1072" unicode="Á" d="M2 0l397 727h283l390 -727h-244l-70 121h-443l-71 -121h-242zM678 296l-141 257l-138 -257h279zM561 928h194l-231 -139h-94z"/>
<glyph glyph-name="Acircumflex" horiz-adv-x="1072" unicode="Â" d="M2 0l397 727h283l390 -727h-244l-70 121h-443l-71 -121h-242zM678 296l-141 257l-138 -257h279zM458 928h156l131 -139h-94l-115 73l-115 -73h-94z"/>
<glyph glyph-name="Atilde" horiz-adv-x="1072" unicode="Ã" d="M2 0l397 727h283l390 -727h-244l-70 121h-443l-71 -121h-242zM678 296l-141 257l-138 -257h279zM324 794q31 114 135 114q11 0 22.5 -1.5t23.5 -3.5l84 -16q16 -3 35 -3q45 0 57 37h67q-13 -57 -49.5 -86.5t-90.5 -29.5q-21 0 -40 4l-90 18q-7 2 -13 2h-13q-49 0 -61 -35 h-67z"/>
<glyph glyph-name="Adieresis" horiz-adv-x="1072" unicode="Ä" d="M2 0l397 727h283l390 -727h-244l-70 121h-443l-71 -121h-242zM678 296l-141 257l-138 -257h279zM339 922h160v-128h-160v128zM573 922h160v-128h-160v128z"/>
<glyph glyph-name="Aring" horiz-adv-x="1072" unicode="Å" d="M2 0l397 723h283l390 -723h-244l-70 121h-443l-71 -121h-242zM678 296l-141 269l-138 -269h279zM711 860q0 -50 -43 -76.5t-127 -26.5q-83 0 -126.5 27.5t-43.5 75.5q0 49 43.5 76t126.5 27q84 0 127 -26.5t43 -76.5zM609 860q0 54 -68 54t-68 -54t68 -54t68 54z"/>
<glyph glyph-name="AE" horiz-adv-x="1317" unicode="Æ" d="M618 571h-36l-176 -284h212v284zM-32 0l471 727h808v-177h-423v-110h410v-153h-410v-111h423v-176h-629v141h-310l-94 -141h-246z"/>
<glyph glyph-name="Ccedilla" horiz-adv-x="1050" unicode="Ç" d="M769 472q0 44 -28.5 63t-88.5 19h-178q-54 0 -88.5 -5t-55 -20t-28 -43.5t-7.5 -74.5v-101q0 -43 9.5 -69.5t31 -41.5t55.5 -20.5t83 -5.5h129q46 0 78.5 3.5t53.5 14t30.5 30t9.5 52.5v8h225q1 -14 1.5 -27t0.5 -26q0 -68 -17 -113.5t-56 -74.5q-42 -31 -107.5 -40 t-161.5 -9h-248q-43 0 -80 1.5t-69 7t-59 16.5t-51 29q-46 36 -65 87t-19 126v198q0 82 18.5 136t60 86t106.5 45t158 13h248q96 0 161 -8t105 -39q35 -27 51 -72t16 -111v-20t-1 -21h-223v7zM531 0v-53h82q33 0 45.5 -17t12.5 -56v-26q0 -40 -12.5 -56.5t-46.5 -16.5h-213 v67h163q19 0 19 20t-21 20h-66q-17 0 -21.5 9t-4.5 28v81h63z"/>
<glyph glyph-name="Egrave" horiz-adv-x="930" unicode="È" d="M295 550v-110h539v-153h-539v-111h581v-176h-803v727h794v-177h-572zM483 789l-231 139h194l131 -139h-94z"/>
<glyph glyph-name="Eacute" horiz-adv-x="930" unicode="É" d="M295 550v-110h539v-153h-539v-111h581v-176h-803v727h794v-177h-572zM496 928h194l-231 -139h-94z"/>
<glyph glyph-name="Ecircumflex" horiz-adv-x="930" unicode="Ê" d="M295 550v-110h539v-153h-539v-111h581v-176h-803v727h794v-177h-572zM393 928h156l131 -139h-94l-115 73l-115 -73h-94z"/>
<glyph glyph-name="Edieresis" horiz-adv-x="930" unicode="Ë" d="M295 550v-110h539v-153h-539v-111h581v-176h-803v727h794v-177h-572zM274 922h160v-128h-160v128zM508 922h160v-128h-160v128z"/>
<glyph glyph-name="Igrave" horiz-adv-x="388" unicode="Ì" d="M83 0v727h222v-727h-222zM207 789l-231 139h194l131 -139h-94z"/>
<glyph glyph-name="Iacute" horiz-adv-x="388" unicode="Í" d="M83 0v727h222v-727h-222zM220 928h194l-231 -139h-94z"/>
<glyph glyph-name="Icircumflex" horiz-adv-x="388" unicode="Î" d="M83 0v727h222v-727h-222zM117 928h156l131 -139h-94l-115 73l-115 -73h-94z"/>
<glyph glyph-name="Idieresis" horiz-adv-x="388" unicode="Ï" d="M83 0v727h222v-727h-222zM-2 922h160v-128h-160v128zM232 922h160v-128h-160v128z"/>
<glyph glyph-name="Eth" horiz-adv-x="1107" unicode="Ð" d="M315 548v-126h240v-116h-240v-129h376q71 0 103 28.5t32 90.5v128q0 65 -40 94.5t-124 29.5h-347zM731 727q162 0 240 -57t78 -187v-250q0 -121 -60.5 -177t-192.5 -56h-703v306h-93v116h93v305h638z"/>
<glyph glyph-name="Ntilde" horiz-adv-x="1128" unicode="Ñ" d="M733 0l-436 529v-529h-222v727h329l433 -533v533h221v-727h-325zM386 794q31 114 135 114q11 0 22.5 -1.5t23.5 -3.5l84 -16q16 -3 35 -3q45 0 57 37h67q-13 -57 -49.5 -86.5t-90.5 -29.5q-21 0 -40 4l-90 18q-7 2 -13 2h-13q-49 0 -61 -35h-67z"/>
<glyph glyph-name="Ograve" horiz-adv-x="1100" unicode="Ò" d="M621 173q53 0 90 5t60.5 20t34 42.5t10.5 71.5v103q0 44 -10.5 71.5t-34 42.5t-60.5 20t-90 5h-142q-54 0 -91 -5t-60.5 -20.5t-33.5 -43.5t-10 -74v-101q0 -43 11 -70t34.5 -42t60.5 -20t90 -5h141zM420 -9q-49 0 -90.5 1.5t-76.5 6.5t-64 15.5t-52 27.5q-45 33 -62 85 t-17 131v198q0 85 17 140t62 89q45 33 113.5 42t168.5 9h261q100 0 169.5 -9t113.5 -42q42 -32 60 -85.5t18 -134.5v-203q0 -81 -18 -134.5t-60 -85.5q-45 -34 -114.5 -42.5t-168.5 -8.5h-260zM562 789l-231 139h194l131 -139h-94z"/>
<glyph glyph-name="Oacute" horiz-adv-x="1100" unicode="Ó" d="M621 173q53 0 90 5t60.5 20t34 42.5t10.5 71.5v103q0 44 -10.5 71.5t-34 42.5t-60.5 20t-90 5h-142q-54 0 -91 -5t-60.5 -20.5t-33.5 -43.5t-10 -74v-101q0 -43 11 -70t34.5 -42t60.5 -20t90 -5h141zM420 -9q-49 0 -90.5 1.5t-76.5 6.5t-64 15.5t-52 27.5q-45 33 -62 85 t-17 131v198q0 85 17 140t62 89q45 33 113.5 42t168.5 9h261q100 0 169.5 -9t113.5 -42q42 -32 60 -85.5t18 -134.5v-203q0 -81 -18 -134.5t-60 -85.5q-45 -34 -114.5 -42.5t-168.5 -8.5h-260zM575 928h194l-231 -139h-94z"/>
<glyph glyph-name="Ocircumflex" horiz-adv-x="1100" unicode="Ô" d="M621 173q53 0 90 5t60.5 20t34 42.5t10.5 71.5v103q0 44 -10.5 71.5t-34 42.5t-60.5 20t-90 5h-142q-54 0 -91 -5t-60.5 -20.5t-33.5 -43.5t-10 -74v-101q0 -43 11 -70t34.5 -42t60.5 -20t90 -5h141zM420 -9q-49 0 -90.5 1.5t-76.5 6.5t-64 15.5t-52 27.5q-45 33 -62 85 t-17 131v198q0 85 17 140t62 89q45 33 113.5 42t168.5 9h261q100 0 169.5 -9t113.5 -42q42 -32 60 -85.5t18 -134.5v-203q0 -81 -18 -134.5t-60 -85.5q-45 -34 -114.5 -42.5t-168.5 -8.5h-260zM472 928h156l131 -139h-94l-115 73l-115 -73h-94z"/>
<glyph glyph-name="Otilde" horiz-adv-x="1100" unicode="Õ" d="M621 173q53 0 90 5t60.5 20t34 42.5t10.5 71.5v103q0 44 -10.5 71.5t-34 42.5t-60.5 20t-90 5h-142q-54 0 -91 -5t-60.5 -20.5t-33.5 -43.5t-10 -74v-101q0 -43 11 -70t34.5 -42t60.5 -20t90 -5h141zM420 -9q-49 0 -90.5 1.5t-76.5 6.5t-64 15.5t-52 27.5q-45 33 -62 85 t-17 131v198q0 85 17 140t62 89q45 33 113.5 42t168.5 9h261q100 0 169.5 -9t113.5 -42q42 -32 60 -85.5t18 -134.5v-203q0 -81 -18 -134.5t-60 -85.5q-45 -34 -114.5 -42.5t-168.5 -8.5h-260zM338 794q31 114 135 114q11 0 22.5 -1.5t23.5 -3.5l84 -16q16 -3 35 -3 q45 0 57 37h67q-13 -57 -49.5 -86.5t-90.5 -29.5q-21 0 -40 4l-90 18q-7 2 -13 2h-13q-49 0 -61 -35h-67z"/>
<glyph glyph-name="Odieresis" horiz-adv-x="1100" unicode="Ö" d="M621 173q53 0 90 5t60.5 20t34 42.5t10.5 71.5v103q0 44 -10.5 71.5t-34 42.5t-60.5 20t-90 5h-142q-54 0 -91 -5t-60.5 -20.5t-33.5 -43.5t-10 -74v-101q0 -43 11 -70t34.5 -42t60.5 -20t90 -5h141zM420 -9q-49 0 -90.5 1.5t-76.5 6.5t-64 15.5t-52 27.5q-45 33 -62 85 t-17 131v198q0 85 17 140t62 89q45 33 113.5 42t168.5 9h261q100 0 169.5 -9t113.5 -42q42 -32 60 -85.5t18 -134.5v-203q0 -81 -18 -134.5t-60 -85.5q-45 -34 -114.5 -42.5t-168.5 -8.5h-260zM353 922h160v-128h-160v128zM587 922h160v-128h-160v128z"/>
<glyph glyph-name="multiply" horiz-adv-x="833" unicode="×" d="M425 378l215 215l79 -79l-215 -216l215 -215l-79 -79l-215 215l-215 -215l-79 79l215 215l-215 216l79 79z"/>
<glyph glyph-name="Oslash" horiz-adv-x="1100" unicode="Ø" d="M694 557q-13 2 -29 2h-36h-145q-56 0 -94.5 -5.5t-62.5 -21.5t-34.5 -45t-10.5 -76v-104q0 -15 1 -30.5t5 -30.5zM367 176q19 -5 42 -6.5t49 -1.5h168q54 0 92 5t62 20.5t35 43.5t11 74v106q0 70 -23 96zM424 -9q-91 0 -152.5 7t-97.5 26l-90 -71l-61 88l70 55 q-31 77 -31 162v197q0 85 17 140t62 89t113.5 43t168.5 9h261q146 0 218 -20l91 73l61 -82l-61 -47q28 -33 40.5 -81.5t12.5 -114.5v-202q0 -81 -18.5 -134.5t-60.5 -85.5q-45 -34 -114.5 -42.5t-168.5 -8.5h-260z"/>
<glyph glyph-name="Ugrave" horiz-adv-x="1050" unicode="Ù" d="M295 727v-431q0 -40 8.5 -64.5t29.5 -37.5t55.5 -17.5t85.5 -4.5h126q43 0 72.5 5t48.5 18.5t27.5 37.5t8.5 63v431h222v-500q0 -68 -18 -113t-55.5 -72.5t-95.5 -39t-139 -11.5h-248q-97 0 -163.5 11t-108 38t-60 72.5t-18.5 114.5v500h222zM537 789l-231 139h194 l131 -139h-94z"/>
<glyph glyph-name="Uacute" horiz-adv-x="1050" unicode="Ú" d="M295 727v-431q0 -40 8.5 -64.5t29.5 -37.5t55.5 -17.5t85.5 -4.5h126q43 0 72.5 5t48.5 18.5t27.5 37.5t8.5 63v431h222v-500q0 -68 -18 -113t-55.5 -72.5t-95.5 -39t-139 -11.5h-248q-97 0 -163.5 11t-108 38t-60 72.5t-18.5 114.5v500h222zM550 928h194l-231 -139h-94z "/>
<glyph glyph-name="Ucircumflex" horiz-adv-x="1050" unicode="Û" d="M295 727v-431q0 -40 8.5 -64.5t29.5 -37.5t55.5 -17.5t85.5 -4.5h126q43 0 72.5 5t48.5 18.5t27.5 37.5t8.5 63v431h222v-500q0 -68 -18 -113t-55.5 -72.5t-95.5 -39t-139 -11.5h-248q-97 0 -163.5 11t-108 38t-60 72.5t-18.5 114.5v500h222zM447 928h156l131 -139h-94 l-115 73l-115 -73h-94z"/>
<glyph glyph-name="Udieresis" horiz-adv-x="1050" unicode="Ü" d="M295 727v-431q0 -40 8.5 -64.5t29.5 -37.5t55.5 -17.5t85.5 -4.5h126q43 0 72.5 5t48.5 18.5t27.5 37.5t8.5 63v431h222v-500q0 -68 -18 -113t-55.5 -72.5t-95.5 -39t-139 -11.5h-248q-97 0 -163.5 11t-108 38t-60 72.5t-18.5 114.5v500h222zM328 922h160v-128h-160v128z M562 922h160v-128h-160v128z"/>
<glyph glyph-name="Yacute" horiz-adv-x="1027" unicode="Ý" d="M398 0v261l-401 466h273l239 -289l250 289h263l-402 -466v-261h-222zM539 928h194l-231 -139h-94z"/>
<glyph glyph-name="Thorn" horiz-adv-x="975" unicode="Þ" d="M634 641q64 0 111 -6t82 -24q59 -31 82 -89.5t23 -153.5q0 -73 -11.5 -125t-37 -85t-67.5 -48t-102 -15h-415v-95h-223v727h223v-86h335zM299 460v-184h327q45 0 62.5 21.5t17.5 72.5q0 46 -17.5 68t-62.5 22h-327z"/>
<glyph glyph-name="germandbls" horiz-adv-x="806" unicode="ß" d="M72 0v515q0 61 15.5 103t47.5 67.5t81 36.5t117 11h159q119 0 172 -45t53 -145q0 -50 -18 -80.5t-61 -50.5q119 -32 119 -138v-93q0 -54 -14.5 -90.5t-44.5 -58t-75.5 -31t-106.5 -9.5q-38 0 -77 2t-78 6v145q55 -9 96 -9q57 0 86 20t29 51v66q0 59 -109 59h-101v126h91 q41 0 60 15.5t19 50.5q0 70 -72 70h-91q-32 0 -53.5 -3.5t-34.5 -14.5t-18 -32.5t-5 -57.5v-486h-186z"/>
<glyph glyph-name="agrave" horiz-adv-x="756" unicode="à" d="M520 0v62q-29 -37 -88.5 -53t-151.5 -16q-68 0 -115.5 8t-76.5 27.5t-42 53t-13 83.5q0 51 14 84t45.5 51.5t80.5 26t120 7.5q81 0 137 -10t90 -34v55q0 56 -72 56h-151q-54 0 -54 -39h-186v6q0 85 63.5 119t197.5 34h181q105 0 155.5 -41t50.5 -129v-351h-185zM313 222 q-48 0 -70 -11t-22 -42t22 -40t70 -9h113q48 0 70 11t22 42t-22 40t-70 9h-113zM390 574l-231 139h194l131 -139h-94z"/>
<glyph glyph-name="aacute" horiz-adv-x="756" unicode="á" d="M520 0v62q-29 -37 -88.5 -53t-151.5 -16q-68 0 -115.5 8t-76.5 27.5t-42 53t-13 83.5q0 51 14 84t45.5 51.5t80.5 26t120 7.5q81 0 137 -10t90 -34v55q0 56 -72 56h-151q-54 0 -54 -39h-186v6q0 85 63.5 119t197.5 34h181q105 0 155.5 -41t50.5 -129v-351h-185zM313 222 q-48 0 -70 -11t-22 -42t22 -40t70 -9h113q48 0 70 11t22 42t-22 40t-70 9h-113zM403 713h194l-231 -139h-94z"/>
<glyph glyph-name="acircumflex" horiz-adv-x="756" unicode="â" d="M520 0v62q-29 -37 -88.5 -53t-151.5 -16q-68 0 -115.5 8t-76.5 27.5t-42 53t-13 83.5q0 51 14 84t45.5 51.5t80.5 26t120 7.5q81 0 137 -10t90 -34v55q0 56 -72 56h-151q-54 0 -54 -39h-186v6q0 85 63.5 119t197.5 34h181q105 0 155.5 -41t50.5 -129v-351h-185zM313 222 q-48 0 -70 -11t-22 -42t22 -40t70 -9h113q48 0 70 11t22 42t-22 40t-70 9h-113zM300 713h156l131 -139h-94l-115 73l-115 -73h-94z"/>
<glyph glyph-name="atilde" horiz-adv-x="756" unicode="ã" d="M520 0v62q-29 -37 -88.5 -53t-151.5 -16q-68 0 -115.5 8t-76.5 27.5t-42 53t-13 83.5q0 51 14 84t45.5 51.5t80.5 26t120 7.5q81 0 137 -10t90 -34v55q0 56 -72 56h-151q-54 0 -54 -39h-186v6q0 85 63.5 119t197.5 34h181q105 0 155.5 -41t50.5 -129v-351h-185zM313 222 q-48 0 -70 -11t-22 -42t22 -40t70 -9h113q48 0 70 11t22 42t-22 40t-70 9h-113zM166 579q31 114 135 114q11 0 22.5 -1.5t23.5 -3.5l84 -16q16 -3 35 -3q45 0 57 37h67q-13 -57 -49.5 -86.5t-90.5 -29.5q-21 0 -40 4l-90 18q-7 2 -13 2h-13q-49 0 -61 -35h-67z"/>
<glyph glyph-name="adieresis" horiz-adv-x="756" unicode="ä" d="M520 0v62q-29 -37 -88.5 -53t-151.5 -16q-68 0 -115.5 8t-76.5 27.5t-42 53t-13 83.5q0 51 14 84t45.5 51.5t80.5 26t120 7.5q81 0 137 -10t90 -34v55q0 56 -72 56h-151q-54 0 -54 -39h-186v6q0 85 63.5 119t197.5 34h181q105 0 155.5 -41t50.5 -129v-351h-185zM313 222 q-48 0 -70 -11t-22 -42t22 -40t70 -9h113q48 0 70 11t22 42t-22 40t-70 9h-113zM181 707h160v-128h-160v128zM415 707h160v-128h-160v128z"/>
<glyph glyph-name="aring" horiz-adv-x="756" unicode="å" d="M520 0v62q-29 -37 -88.5 -53t-151.5 -16q-68 0 -115.5 8t-76.5 27.5t-42 53t-13 83.5q0 51 14 84t45.5 51.5t80.5 26t120 7.5q81 0 137 -10t90 -34v55q0 56 -72 56h-151q-54 0 -54 -39h-186v6q0 85 63.5 119t197.5 34h181q105 0 155.5 -41t50.5 -129v-351h-185zM313 222 q-48 0 -70 -11t-22 -42t22 -40t70 -9h113q48 0 70 11t22 42t-22 40t-70 9h-113zM454 655q0 52 -65 52t-65 -52t65 -52t65 52zM548 655q0 -47 -40.5 -72t-118.5 -25t-118.5 25t-40.5 72t40.5 72t118.5 25t118.5 -25t40.5 -72z"/>
<glyph glyph-name="ae" horiz-adv-x="1196" unicode="æ" d="M986 326v2q0 38 -25 52.5t-80 14.5h-75q-55 0 -80 -14.5t-25 -52.5v-2h285zM610 61q-17 -26 -43 -40t-62 -20.5t-81.5 -8t-102.5 -1.5q-64 0 -113 4t-84 15q-81 26 -81 155q0 51 13.5 83.5t43.5 51t78 26t117 7.5q76 0 132 -9.5t96 -35.5v57q0 26 -19.5 41t-54.5 15h-150 q-52 0 -53 -39h-180v6q0 85 61 119t192 34h126q63 0 106 -20.5t63 -57.5q18 42 60 59.5t113 17.5h157q106 0 161.5 -50.5t55.5 -147.5v-110h-460q0 -4 -0.5 -7.5t-0.5 -6.5q0 -46 25.5 -65t82.5 -19h77q47 0 70 9.5t30 47.5h176v-6q0 -94 -52 -133t-165 -39h-156 q-131 0 -178 68zM323 222q-48 0 -70 -11.5t-22 -42.5t22 -40t70 -9h113q48 0 70 11.5t22 42.5t-22 40t-70 9h-113z"/>
<glyph glyph-name="ccedilla" horiz-adv-x="780" unicode="ç" d="M299 -7q-64 0 -110.5 10.5t-76.5 33t-44.5 58.5t-14.5 87v140q0 55 12.5 93t41 61.5t76 34t116.5 10.5h175q128 0 187.5 -41.5t59.5 -134.5q0 -20 -3 -42h-175v3q0 42 -24 59t-78 17h-91q-63 0 -87 -20t-24 -74v-66q0 -49 25.5 -69.5t85.5 -20.5h81q31 0 52.5 3t35 12 t19.5 25.5t6 43.5h184q1 -8 1 -16v-16q0 -53 -14.5 -89.5t-45 -59t-78 -32.5t-114.5 -10h-178zM390 0v-53h82q33 0 45.5 -17t12.5 -56v-26q0 -40 -12.5 -56.5t-46.5 -16.5h-213v67h163q19 0 19 20t-21 20h-66q-17 0 -21.5 9t-4.5 28v81h63z"/>
<glyph glyph-name="egrave" horiz-adv-x="756" unicode="è" d="M523 325v2q0 38 -24.5 52.5t-79.5 14.5h-76q-55 0 -80 -14.5t-25 -52.5v-2h285zM701 171v-8q0 -93 -57 -131.5t-180 -38.5h-172q-118 0 -178.5 49t-60.5 140v140q0 97 61 148t177 51h173q117 0 177.5 -51t60.5 -148v-110h-464q0 -4 -0.5 -7.5t-0.5 -6.5q0 -45 26 -64 t84 -19h78q24 0 41.5 1.5t29.5 7t19.5 16.5t11.5 31h174zM393 574l-231 139h194l131 -139h-94z"/>
<glyph glyph-name="eacute" horiz-adv-x="756" unicode="é" d="M523 325v2q0 38 -24.5 52.5t-79.5 14.5h-76q-55 0 -80 -14.5t-25 -52.5v-2h285zM701 171v-8q0 -93 -57 -131.5t-180 -38.5h-172q-118 0 -178.5 49t-60.5 140v140q0 97 61 148t177 51h173q117 0 177.5 -51t60.5 -148v-110h-464q0 -4 -0.5 -7.5t-0.5 -6.5q0 -45 26 -64 t84 -19h78q24 0 41.5 1.5t29.5 7t19.5 16.5t11.5 31h174zM406 713h194l-231 -139h-94z"/>
<glyph glyph-name="ecircumflex" horiz-adv-x="756" unicode="ê" d="M523 325v2q0 38 -24.5 52.5t-79.5 14.5h-76q-55 0 -80 -14.5t-25 -52.5v-2h285zM701 171v-8q0 -93 -57 -131.5t-180 -38.5h-172q-118 0 -178.5 49t-60.5 140v140q0 97 61 148t177 51h173q117 0 177.5 -51t60.5 -148v-110h-464q0 -4 -0.5 -7.5t-0.5 -6.5q0 -45 26 -64 t84 -19h78q24 0 41.5 1.5t29.5 7t19.5 16.5t11.5 31h174zM303 713h156l131 -139h-94l-115 73l-115 -73h-94z"/>
<glyph glyph-name="edieresis" horiz-adv-x="756" unicode="ë" d="M523 325v2q0 38 -24.5 52.5t-79.5 14.5h-76q-55 0 -80 -14.5t-25 -52.5v-2h285zM701 171v-8q0 -93 -57 -131.5t-180 -38.5h-172q-118 0 -178.5 49t-60.5 140v140q0 97 61 148t177 51h173q117 0 177.5 -51t60.5 -148v-110h-464q0 -4 -0.5 -7.5t-0.5 -6.5q0 -45 26 -64 t84 -19h78q24 0 41.5 1.5t29.5 7t19.5 16.5t11.5 31h174zM184 707h160v-128h-160v128zM418 707h160v-128h-160v128z"/>
<glyph glyph-name="igrave" horiz-adv-x="340" unicode="ì" d="M78 0v514h185v-514h-185zM183 574l-231 139h194l131 -139h-94z"/>
<glyph glyph-name="iacute" horiz-adv-x="340" unicode="í" d="M78 0v514h185v-514h-185zM196 713h194l-231 -139h-94z"/>
<glyph glyph-name="icircumflex" horiz-adv-x="340" unicode="î" d="M78 0v514h185v-514h-185zM93 713h156l131 -139h-94l-115 73l-115 -73h-94z"/>
<glyph glyph-name="idieresis" horiz-adv-x="340" unicode="ï" d="M78 0v514h185v-514h-185zM-26 707h160v-128h-160v128zM208 707h160v-128h-160v128z"/>
<glyph glyph-name="eth" horiz-adv-x="804" unicode="ð" d="M310 -7q-66 0 -114.5 9.5t-80 30.5t-47 55.5t-15.5 85.5v135q0 52 13.5 88.5t43.5 59t79 33t120 10.5h80q74 0 132 -43l-121 125l-226 -32l-12 86l165 22l-67 70h200l43 -44l180 26l13 -88l-115 -16l79 -76q25 -24 42.5 -46.5t28 -49t15.5 -58t5 -73.5v-125 q0 -52 -15 -87.5t-46 -57t-79.5 -31t-115.5 -9.5h-185zM446 133q63 0 91.5 17.5t28.5 65.5v62q0 47 -28.5 65.5t-91.5 18.5h-87q-67 0 -94 -18t-27 -68v-61q0 -47 28.5 -64.5t92.5 -17.5h87z"/>
<glyph glyph-name="ntilde" horiz-adv-x="806" unicode="ñ" d="M72 0v511h185v-79q18 27 40.5 44t50.5 26.5t62.5 13t77.5 3.5q251 0 251 -187v-332h-185v259q0 31 -5.5 52.5t-21.5 34.5t-45 18.5t-76 5.5q-81 0 -115 -28t-34 -94v-248h-185zM201 579q31 114 135 114q11 0 22.5 -1.5t23.5 -3.5l84 -16q16 -3 35 -3q45 0 57 37h67 q-13 -57 -49.5 -86.5t-90.5 -29.5q-21 0 -40 4l-90 18q-7 2 -13 2h-13q-49 0 -61 -35h-67z"/>
<glyph glyph-name="ograve" horiz-adv-x="804" unicode="ò" d="M310 -7q-66 0 -114.5 10t-80 32t-47 58t-15.5 89v140q0 54 13.5 92t43.5 61.5t79 34.5t120 11h186q68 0 116.5 -11t79.5 -34t45.5 -60t14.5 -88v-143q0 -54 -15 -91t-46 -59.5t-79.5 -32t-115.5 -9.5h-185zM446 132q63 0 91.5 19.5t28.5 71.5v68q0 51 -28 71t-92 20h-87 q-34 0 -57 -4.5t-37.5 -15.5t-20.5 -29t-6 -45v-66q0 -51 28.5 -70.5t92.5 -19.5h87zM414 574l-231 139h194l131 -139h-94z"/>
<glyph glyph-name="oacute" horiz-adv-x="804" unicode="ó" d="M310 -7q-66 0 -114.5 10t-80 32t-47 58t-15.5 89v140q0 54 13.5 92t43.5 61.5t79 34.5t120 11h186q68 0 116.5 -11t79.5 -34t45.5 -60t14.5 -88v-143q0 -54 -15 -91t-46 -59.5t-79.5 -32t-115.5 -9.5h-185zM446 132q63 0 91.5 19.5t28.5 71.5v68q0 51 -28 71t-92 20h-87 q-34 0 -57 -4.5t-37.5 -15.5t-20.5 -29t-6 -45v-66q0 -51 28.5 -70.5t92.5 -19.5h87zM427 713h194l-231 -139h-94z"/>
<glyph glyph-name="ocircumflex" horiz-adv-x="804" unicode="ô" d="M310 -7q-66 0 -114.5 10t-80 32t-47 58t-15.5 89v140q0 54 13.5 92t43.5 61.5t79 34.5t120 11h186q68 0 116.5 -11t79.5 -34t45.5 -60t14.5 -88v-143q0 -54 -15 -91t-46 -59.5t-79.5 -32t-115.5 -9.5h-185zM446 132q63 0 91.5 19.5t28.5 71.5v68q0 51 -28 71t-92 20h-87 q-34 0 -57 -4.5t-37.5 -15.5t-20.5 -29t-6 -45v-66q0 -51 28.5 -70.5t92.5 -19.5h87zM324 713h156l131 -139h-94l-115 73l-115 -73h-94z"/>
<glyph glyph-name="otilde" horiz-adv-x="804" unicode="õ" d="M310 -7q-66 0 -114.5 10t-80 32t-47 58t-15.5 89v140q0 54 13.5 92t43.5 61.5t79 34.5t120 11h186q68 0 116.5 -11t79.5 -34t45.5 -60t14.5 -88v-143q0 -54 -15 -91t-46 -59.5t-79.5 -32t-115.5 -9.5h-185zM446 132q63 0 91.5 19.5t28.5 71.5v68q0 51 -28 71t-92 20h-87 q-34 0 -57 -4.5t-37.5 -15.5t-20.5 -29t-6 -45v-66q0 -51 28.5 -70.5t92.5 -19.5h87zM190 579q31 114 135 114q11 0 22.5 -1.5t23.5 -3.5l84 -16q16 -3 35 -3q45 0 57 37h67q-13 -57 -49.5 -86.5t-90.5 -29.5q-21 0 -40 4l-90 18q-7 2 -13 2h-13q-49 0 -61 -35h-67z"/>
<glyph glyph-name="odieresis" horiz-adv-x="804" unicode="ö" d="M310 -7q-66 0 -114.5 10t-80 32t-47 58t-15.5 89v140q0 54 13.5 92t43.5 61.5t79 34.5t120 11h186q68 0 116.5 -11t79.5 -34t45.5 -60t14.5 -88v-143q0 -54 -15 -91t-46 -59.5t-79.5 -32t-115.5 -9.5h-185zM446 132q63 0 91.5 19.5t28.5 71.5v68q0 51 -28 71t-92 20h-87 q-34 0 -57 -4.5t-37.5 -15.5t-20.5 -29t-6 -45v-66q0 -51 28.5 -70.5t92.5 -19.5h87zM205 707h160v-128h-160v128zM439 707h160v-128h-160v128z"/>
<glyph glyph-name="divide" horiz-adv-x="833" unicode="÷" d="M417 577q16 0 30.5 -6.5t25.5 -17.5t17.5 -25.5t6.5 -31.5q0 -16 -6 -30.5t-17 -25.5t-26 -17.5t-32 -6.5q-34 0 -57 23.5t-23 56.5q0 34 24 57.5t57 23.5zM709 355v-113h-585v113h585zM417 181q33 0 56.5 -23.5t23.5 -57.5q0 -32 -22.5 -56t-57.5 -24q-33 0 -57 23 t-24 57t24 57.5t57 23.5z"/>
<glyph glyph-name="oslash" horiz-adv-x="804" unicode="ø" d="M313 -7q-64 0 -109.5 8t-75.5 26l-75 -52l-52 75l68 48q-6 21 -9.5 41.5t-3.5 41.5v141q0 54 13.5 91.5t44 61.5t79.5 34.5t120 10.5h185q53 0 92 -5.5t65 -17.5l77 52l50 -74l-53 -36q26 -35 26 -111v-143q0 -54 -15 -91t-46.5 -59.5t-80 -32t-115.5 -9.5h-185zM487 383 q-12 1 -20.5 1.5t-13.5 0.5h-91q-35 0 -59 -5t-38.5 -16t-21 -30t-6.5 -47v-75zM288 137q11 -4 29.5 -6.5t42.5 -2.5h90q66 0 95.5 20t29.5 74v71q0 7 -1 16t-4 21z"/>
<glyph glyph-name="ugrave" horiz-adv-x="806" unicode="ù" d="M734 514v-514h-185v79q-18 -27 -40.5 -44t-50.5 -26.5t-62.5 -12.5t-77.5 -3q-130 0 -191 46t-61 146v329h185v-262q0 -30 5 -50.5t20 -34t42.5 -19.5t72.5 -6q43 0 73 5.5t49 19.5t27.5 37.5t8.5 58.5v251h185zM410 574l-231 139h194l131 -139h-94z"/>
<glyph glyph-name="uacute" horiz-adv-x="806" unicode="ú" d="M734 514v-514h-185v79q-18 -27 -40.5 -44t-50.5 -26.5t-62.5 -12.5t-77.5 -3q-130 0 -191 46t-61 146v329h185v-262q0 -30 5 -50.5t20 -34t42.5 -19.5t72.5 -6q43 0 73 5.5t49 19.5t27.5 37.5t8.5 58.5v251h185zM423 713h194l-231 -139h-94z"/>
<glyph glyph-name="ucircumflex" horiz-adv-x="806" unicode="û" d="M734 514v-514h-185v79q-18 -27 -40.5 -44t-50.5 -26.5t-62.5 -12.5t-77.5 -3q-130 0 -191 46t-61 146v329h185v-262q0 -30 5 -50.5t20 -34t42.5 -19.5t72.5 -6q43 0 73 5.5t49 19.5t27.5 37.5t8.5 58.5v251h185zM320 713h156l131 -139h-94l-115 73l-115 -73h-94z"/>
<glyph glyph-name="udieresis" horiz-adv-x="806" unicode="ü" d="M734 514v-514h-185v79q-18 -27 -40.5 -44t-50.5 -26.5t-62.5 -12.5t-77.5 -3q-130 0 -191 46t-61 146v329h185v-262q0 -30 5 -50.5t20 -34t42.5 -19.5t72.5 -6q43 0 73 5.5t49 19.5t27.5 37.5t8.5 58.5v251h185zM201 707h160v-128h-160v128zM435 707h160v-128h-160v128z "/>
<glyph glyph-name="yacute" horiz-adv-x="709" unicode="ý" d="M236 25l-225 489h204l143 -334l148 334h202l-257 -554q-19 -42 -39 -69t-46 -42q-23 -13 -52.5 -18t-67.5 -5q-19 0 -40 1t-44 3v122q22 -3 40 -3q45 0 69.5 18t33.5 58h-69zM380 713h194l-231 -139h-94z"/>
<glyph glyph-name="thorn" horiz-adv-x="810" unicode="þ" d="M257 727v-307q6 58 61.5 79.5t167.5 21.5q72 0 123.5 -8.5t84.5 -29t48 -53.5t15 -81v-170q0 -95 -64 -136.5t-204 -41.5q-52 0 -91.5 3.5t-68 14t-46.5 28t-26 46.5v-267h-185v901h185zM371 379q-63 0 -90 -19t-27 -67v-62q0 -52 25.5 -71t91.5 -19h84q62 0 89.5 19.5 t27.5 67.5v64q0 50 -28 68.5t-89 18.5h-84z"/>
<glyph glyph-name="dotlessi" horiz-adv-x="340" unicode="ı" d="M78 0v514h185v-514h-185z"/>
<glyph glyph-name="OE" horiz-adv-x="1315" unicode="Œ" d="M691 81q-17 -28 -34.5 -45.5t-38.5 -27.5t-46.5 -13.5t-56.5 -3.5h-141q-93 0 -157 8.5t-108 42.5q-42 32 -58.5 84t-16.5 130v198q0 85 16 140t58 88t107 42t158 9h142q68 0 109 -21t67 -76v90h594v-176h-409v-110h396v-153h-396v-111h409v-176h-594v81zM399 552 q-44 0 -73.5 -5.5t-47.5 -21t-26 -43.5t-8 -73v-101q0 -42 8.5 -68.5t27 -41.5t48 -20.5t71.5 -5.5h118q43 0 72.5 5.5t47.5 21t26 42.5t8 70v103q0 43 -8 70t-26 42t-47.5 20.5t-72.5 5.5h-118z"/>
<glyph glyph-name="oe" horiz-adv-x="1245" unicode="œ" d="M442 144q63 0 91.5 17.5t28.5 67.5v64q0 48 -28.5 66.5t-91.5 18.5h-87q-34 0 -57 -4t-37.5 -14.5t-20.5 -27.5t-6 -42v-63q0 -48 28.5 -65.5t92.5 -17.5h87zM1030 329v2q0 38 -24.5 52.5t-79.5 14.5h-76q-55 0 -80 -14.5t-25 -52.5v-2h285zM651 73q-14 -26 -32.5 -41.5 t-43.5 -24t-56.5 -11.5t-70.5 -3h-167q-60 0 -104 10t-72 32t-41.5 58t-13.5 88v140q0 54 12 91.5t39 61t71 34.5t109 11h167q77 0 126 -11.5t77 -49.5q30 34 73 48t104 14h161q109 0 165 -50t56 -148v-110h-462q0 -4 -0.5 -7.5t-0.5 -6.5q0 -46 26 -65t83 -19h77 q47 0 70 9.5t30 47.5h176v-8q0 -92 -52.5 -131t-167.5 -39h-160q-79 0 -121.5 17.5t-56.5 62.5z"/>
<glyph glyph-name="Scaron" horiz-adv-x="1024" unicode="Š" d="M284 242v-13q0 -23 5.5 -36.5t17.5 -21t32 -10t49 -2.5h279q40 0 58 13.5t18 46.5q0 20 -6.5 32t-20 18.5t-33.5 9t-47 3.5l-349 11q-63 2 -106 12.5t-69 35t-37 65.5t-11 104q0 60 11.5 101t39.5 69q40 38 101 47t149 9h339q124 0 180.5 -45t56.5 -150q0 -9 -0.5 -19 t-1.5 -21h-214v3q0 72 -73 72h-256q-52 0 -78.5 -9.5t-26.5 -47.5q0 -34 20.5 -46t66.5 -14l365 -9q63 -2 106 -15t70 -41t39 -72t12 -108q0 -69 -16.5 -113t-65.5 -75q-34 -22 -89.5 -28.5t-135.5 -6.5h-296q-84 0 -142.5 8t-94.5 29t-52 58.5t-16 97.5q0 13 3 58h219z M397 927l115 -72l115 72h94l-131 -138h-156l-131 138h94z"/>
<glyph glyph-name="scaron" horiz-adv-x="778" unicode="š" d="M241 163v-2q0 -25 25 -35.5t76 -10.5h135q39 0 56.5 8.5t17.5 31.5q0 39 -76 40l-183 3q-62 1 -108 8.5t-76.5 25t-45.5 47t-15 76.5q0 46 15 78t45.5 51.5t78 28t112.5 8.5h210q101 0 149 -37t49 -115h-185q-14 30 -92 30h-129q-34 0 -50.5 -6.5t-16.5 -26.5 q0 -22 21 -27.5t66 -6.5l226 -3q99 -2 145 -40t46 -123q0 -50 -13.5 -83.5t-41.5 -53.5t-72 -28t-104 -8h-188q-72 0 -123 6.5t-84 25.5t-49 52t-17 86h196zM274 712l115 -72l115 72h94l-131 -138h-156l-131 138h94z"/>
<glyph glyph-name="Ydieresis" horiz-adv-x="1027" unicode="Ÿ" d="M398 0v261l-401 466h273l239 -289l250 289h263l-402 -466v-261h-222zM317 922h160v-128h-160v128zM551 922h160v-128h-160v128z"/>
<glyph glyph-name="circumflex" d="M172 713h156l131 -139h-94l-115 73l-115 -73h-94z" unicode="ˆ"/>
<glyph glyph-name="caron" d="M135 712l115 -72l115 72h94l-131 -138h-156l-131 138h94z" unicode="ˇ"/>
<glyph glyph-name="tilde" d="M38 579q31 114 135 114q11 0 22.5 -1.5t23.5 -3.5l84 -16q16 -3 35 -3q45 0 57 37h67q-13 -57 -49.5 -86.5t-90.5 -29.5q-21 0 -40 4l-90 18q-7 2 -13 2h-13q-49 0 -61 -35h-67z" unicode="˜"/>
<glyph glyph-name="endash" d="M0 200v122h500v-122h-500z" unicode="–"/>
<glyph glyph-name="emdash" horiz-adv-x="1000" unicode="—" d="M0 322h1000v-122h-1000v122z"/>
<glyph glyph-name="quoteleft" horiz-adv-x="488" unicode="‘" d="M350 337h-211v243q0 83 41 119t135 36q30 0 66 -3v-111h-14q-71 0 -71 -46v-45h54v-193z"/>
<glyph glyph-name="quotesinglbase" horiz-adv-x="488" unicode="‚" d="M139 205h211v-243q0 -84 -41.5 -120t-136.5 -36q-31 0 -65 3v112h15q71 0 71 46v45h-54v193z"/>
<glyph glyph-name="quotedblleft" horiz-adv-x="784" unicode="“" d="M644 337h-210v242q0 84 41.5 120t135.5 36q30 0 65 -3v-112h-15q-36 0 -53.5 -10.5t-17.5 -34.5v-45h54v-193zM349 337h-210v242q0 84 41.5 120t135.5 36q30 0 65 -3v-112h-15q-36 0 -53.5 -10.5t-17.5 -34.5v-45h54v-193z"/>
<glyph glyph-name="quotedblright" horiz-adv-x="784" unicode="”" d="M139 727h210v-243q0 -84 -41.5 -120t-135.5 -36q-31 0 -65 3v112h15q36 0 53.5 10.5t17.5 34.5v46h-54v193zM434 727h210v-243q0 -84 -41.5 -120t-135.5 -36q-31 0 -65 3v112h15q36 0 53 10.5t17 34.5v46h-53v193z"/>
<glyph glyph-name="dagger" horiz-adv-x="729" unicode="†" d="M284 0v402h-218v146h218v179h163v-179h216v-146h-216v-402h-163z"/>
<glyph glyph-name="daggerdbl" horiz-adv-x="729" unicode="‡" d="M284 0v135h-192v146h192v175h-192v147h192v124h163v-124h190v-147h-190v-175h190v-146h-190v-135h-163z"/>
<glyph glyph-name="ellipsis" horiz-adv-x="1000" unicode="…" d="M64 0v206h206v-206h-206zM397 0v206h206v-206h-206zM731 0v206h206v-206h-206z"/>
<glyph glyph-name="perthousand" horiz-adv-x="1832" unicode="‰" d="M1084 438q73 0 105.5 -38t32.5 -122v-131q0 -80 -33 -118t-107 -38h-193q-76 0 -110.5 34.5t-34.5 121.5v131q0 82 32 121t108 39h200zM945 329q-45 0 -60.5 -19.5t-15.5 -65.5v-63q0 -25 4.5 -40.5t13.5 -24.5t23.5 -12t34.5 -3h74q42 0 60 16.5t18 63.5v63q0 51 -18 68 t-60 17h-74zM476 -9l243 745h93l-242 -745h-94zM1630 438q73 0 105 -38t32 -122v-131q0 -80 -33 -118t-107 -38h-193q-76 0 -110.5 34.5t-34.5 121.5v131q0 82 32 121t108 39h201zM1490 329q-45 0 -60.5 -19.5t-15.5 -65.5v-63q0 -25 4.5 -40.5t13.5 -24.5t23.5 -12t34.5 -3 h75q42 0 59.5 16.5t17.5 63.5v63q0 51 -17.5 68t-59.5 17h-75zM405 736q73 0 105.5 -38t32.5 -122v-132q0 -80 -33 -118t-107 -38h-193q-76 0 -110.5 34.5t-34.5 121.5v132q0 82 32 121t108 39h200zM266 627q-45 0 -60.5 -19.5t-15.5 -65.5v-63q0 -25 4.5 -40.5t13.5 -24.5 t23.5 -12.5t34.5 -3.5h74q42 0 60 17t18 64v63q0 51 -18 68t-60 17h-74z"/>
<glyph glyph-name="guilsinglleft" horiz-adv-x="346" unicode="‹" d="M191 259l115 -153h-152l-114 153l114 157h152z"/>
<glyph glyph-name="guilsinglright" horiz-adv-x="346" unicode="›" d="M191 416l115 -157l-115 -153h-152l115 153l-115 157h152z"/>
<glyph glyph-name="trademark" horiz-adv-x="833" unicode="™" d="M337 715v-62h-80v-207h-85v207h-80v62h245zM498 715l55 -148l56 148h108v-269h-76v190l-71 -190h-32l-73 190v-190h-76v269h109z"/>
<glyph glyph-name="minus" horiz-adv-x="833" unicode="−" d="M709 356v-115h-585v115h585z"/>
</font>
</defs>
</svg>
