<?xml version="1.0" encoding="UTF-8" standalone="no"?>
<!DOCTYPE svg  PUBLIC '-//W3C//DTD SVG 1.1//EN'  'http://www.w3.org/Graphics/SVG/1.1/DTD/svg11.dtd'>
<svg xmlns="http://www.w3.org/2000/svg">
<defs>
<font id="Square721BT-RomanCondensed" horiz-adv-x="500">
<font-face underline-position="-46" font-weight="400" descent="-200" panose-1="2 0 5 6 8 0 0 2 0 3" units-per-em="1000" unicode-range="U+0020-2212" font-stretch="condensed" bbox="-54 -236 1113 963" x-height="507" underline-thickness="49" font-family="Square721BT" ascent="800" cap-height="725"/>
<missing-glyph horiz-adv-x="1000"/>
<glyph glyph-name=".notdef" horiz-adv-x="1000"/>
<glyph glyph-name=".null" horiz-adv-x="0"/>
<glyph glyph-name="nonmarkingreturn" horiz-adv-x="1000"/>
<glyph glyph-name="space" horiz-adv-x="250" unicode=" "/>
<glyph glyph-name="space" horiz-adv-x="250" unicode=" "/>
<glyph glyph-name="exclam" horiz-adv-x="250" unicode="!" d="M91 91h68v-91h-68v91zM91 725h68v-534h-68v534z"/>
<glyph glyph-name="quotedbl" horiz-adv-x="278" unicode='&quot;' d="M97 430h-49v270h49v-270zM231 430h-50v270h50v-270z"/>
<glyph glyph-name="numbersign" horiz-adv-x="769" unicode="#" d="M366 474h129l84 236h62l-83 -236h154l-18 -52h-155l-48 -136h166l-18 -52h-166l-83 -234h-63l84 234h-131l-84 -234h-62l83 234h-160l19 52h159l49 136h-172l17 52h173l84 236h62zM346 422l-47 -136h130l47 136h-130z"/>
<glyph glyph-name="dollar" d="M229 673q-54 -4 -74 -26t-20 -73v-76q0 -22 4.5 -37.5t15.5 -26t29 -16.5t45 -10v265zM278 52q27 2 45.5 8.5t29 19t15 31.5t4.5 46v81q0 47 -20.5 68t-73.5 26v-280zM229 -9q-49 2 -82 11.5t-53.5 29t-29 50t-8.5 74.5v61h70v-48q0 -33 4 -55t15.5 -36t30.5 -20t49 -6h4 v285q-47 5 -78 15t-49.5 28.5t-26 47.5t-7.5 72v16q0 63 4 104t27 66q20 23 52 33.5t78 14.5v61h49v-61q47 -4 78.5 -14.5t50 -30t26 -49t7.5 -71.5v-42h-70v29q0 32 -4 54t-14 35.5t-28 20t-46 7.5v-269q49 -7 80.5 -20.5t50 -36t26 -55.5t7.5 -80q0 -65 -4 -106.5 t-27 -66.5q-20 -23 -52.5 -34t-80.5 -14v-81h-49v81z" unicode="$"/>
<glyph glyph-name="percent" horiz-adv-x="815" unicode="%" d="M543 734h59l-331 -743h-59zM255 551q0 33 -1.5 55.5t-9 36.5t-22.5 20t-41 6t-41 -6t-22.5 -20t-9 -36.5t-1.5 -55.5v-99q0 -33 1.5 -55.5t9 -36.5t22.5 -20t41 -6t41 6t22.5 20t9 36.5t1.5 55.5v99zM318 446q0 -87 -22 -128t-88 -41h-54q-66 0 -88 41t-22 128v111 q0 87 22 128.5t88 41.5h54q66 0 88 -41.5t22 -128.5v-111zM707 273q0 33 -1.5 55.5t-9 36t-22.5 19.5t-41 6t-41 -6t-22.5 -19.5t-9 -36t-1.5 -55.5v-100q0 -33 1.5 -55.5t9 -36t22.5 -19.5t41 -6t41 6t22.5 19.5t9 36t1.5 55.5v100zM770 167q0 -87 -22 -128t-88 -41h-54 q-66 0 -88 41t-22 128v111q0 87 22 128.5t88 41.5h54q66 0 88 -41.5t22 -128.5v-111z"/>
<glyph glyph-name="ampersand" horiz-adv-x="519" unicode="&amp;" d="M427 86q-16 -53 -57.5 -74t-116.5 -21q-55 0 -93 8t-61.5 28t-34 53.5t-10.5 84.5v115q0 63 25.5 99.5t73.5 44.5l-28 37q-10 13 -18.5 25t-15 26.5t-10 33t-3.5 45.5q0 74 43 108.5t134 34.5q47 0 77.5 -8t48 -26t24.5 -48t7 -74v-41h-63v37q0 27 -3.5 45.5t-13.5 29.5 t-28.5 16t-47.5 5q-55 0 -80 -18.5t-25 -61.5q0 -37 25 -70l207 -273v160h62v-229l104 -132l-51 -50zM204 365q-2 0 -4.5 0.5t-5.5 0.5q-32 0 -49.5 -27.5t-17.5 -80.5v-69q0 -40 6 -66.5t21 -43t40.5 -23.5t63.5 -7q62 0 90 22t28 73v3z"/>
<glyph glyph-name="quotesingle" horiz-adv-x="144" unicode="&apos;" d="M97 430h-49v270h49v-270z"/>
<glyph glyph-name="parenleft" horiz-adv-x="315" unicode="(" d="M163 224q0 -46 2.5 -78t12 -52.5t28.5 -30t51 -9.5v-63h-5q-47 0 -78 14t-49 44t-25 77.5t-7 114.5v242q0 67 7 114.5t25 78t49 44.5t78 14h5v-64q-32 0 -51 -9.5t-28.5 -30t-12 -52.5t-2.5 -78v-276z"/>
<glyph glyph-name="parenright" horiz-adv-x="315" unicode=")" d="M139 500q0 46 -3 78t-12.5 52.5t-28.5 30t-51 9.5v64h5q47 0 78 -14t49 -44.5t25.5 -78t7.5 -114.5v-242q0 -67 -7.5 -114.5t-25.5 -77.5t-49 -44t-78 -14h-5v63q32 0 51 9.5t28.5 30t12.5 52.5t3 78v276z"/>
<glyph glyph-name="asterisk" horiz-adv-x="389" unicode="*" d="M14 511v60h122v-60h-122zM80 702l51 32l60 -121l-51 -32zM375 571v-60h-123v60h123zM193 613l60 121l51 -32l-60 -121zM305 381l-52 -32l-59 121l51 32zM190 470l-59 -121l-52 32l60 121z"/>
<glyph glyph-name="plus" horiz-adv-x="833" unicode="+" d="M441 322h268v-48h-268v-274h-48v274h-269v48h269v274h48v-274z"/>
<glyph glyph-name="comma" horiz-adv-x="250" unicode="," d="M83 -68q19 1 26 8.5t7 25.5v34h-28v97h74v-114q0 -47 -14 -69t-49 -22h-6.5t-9.5 1v39z"/>
<glyph glyph-name="hyphen" horiz-adv-x="301" unicode="-" d="M41 291h219v-63h-219v63z"/>
<glyph glyph-name="hyphen" horiz-adv-x="301" unicode="­" d="M41 291h219v-63h-219v63z"/>
<glyph glyph-name="period" horiz-adv-x="250" unicode="." d="M88 97h74v-97h-74v97z"/>
<glyph glyph-name="slash" horiz-adv-x="241" unicode="/" d="M198 734h55l-237 -827h-55z"/>
<glyph glyph-name="zero" d="M211 -9q-48 0 -79 14.5t-49 45t-25 76.5t-7 109v252q0 63 7 109.5t25 76.5t49 45t79 15h78q48 0 79 -15t49 -45t25 -76.5t7 -109.5v-252q0 -63 -7 -109t-25 -76.5t-49 -45t-79 -14.5h-78zM271 58q36 0 56.5 10t31 31t13.5 54.5t3 80.5v256q0 47 -3 80.5t-13.5 55 t-31 31.5t-56.5 10h-42q-36 0 -57 -10t-31.5 -31.5t-13 -55t-2.5 -80.5v-256q0 -47 2.5 -80.5t13 -54.5t31.5 -31t57 -10h42z" unicode="0"/>
<glyph glyph-name="one" d="M264 646l-150 -184l-45 43l180 220h84v-725h-69v646z" unicode="1"/>
<glyph glyph-name="two" d="M365 547q0 65 -22 92.5t-74 27.5h-39q-33 0 -52 -8t-29 -25.5t-13 -45.5t-3 -68v-25h-71v21q0 57 7 98t25 67.5t49 39.5t79 13h59q47 0 78 -12t49 -36.5t25 -63t7 -91.5v-73q0 -32 -5 -56.5t-19 -45.5q-14 -20 -33.5 -33t-44 -23t-53.5 -19.5t-62 -21.5q-32 -12 -52 -26 t-31 -33.5t-14.5 -45t-3.5 -59.5v-26h313v-69h-382v95q0 54 6.5 91t20.5 59q19 29 54.5 46.5t86.5 37.5q48 19 80.5 31.5t46.5 31.5q17 24 17 98v57z" unicode="2"/>
<glyph glyph-name="three" d="M358 547q0 65 -21 92.5t-71 27.5h-38q-31 0 -49.5 -8t-28 -25.5t-12 -45.5t-2.5 -68v-13h-69v9q0 56 7 97t24.5 68t47 40t75.5 13h56q45 0 74.5 -11.5t47 -36t25 -62t7.5 -89.5q0 -35 -3.5 -62t-13.5 -46t-28 -31.5t-47 -19.5q56 -20 77.5 -58t21.5 -104q0 -59 -7 -101 t-25 -69t-49.5 -40t-81.5 -13h-59q-48 0 -79.5 12.5t-49.5 39.5t-25.5 68t-7.5 98v29h72v-34q0 -40 3 -68t13.5 -45t29.5 -25t52 -8h39q53 0 75 27.5t22 92.5v56q0 30 -4.5 50t-16.5 32t-32.5 17t-51.5 5h-49v65h53q53 0 76 22t23 75v47z" unicode="3"/>
<glyph glyph-name="four" d="M330 166h-291v101l261 458h96v-491h67v-68h-67v-166h-66v166zM330 647l-236 -413h236v413z" unicode="4"/>
<glyph glyph-name="five" d="M436 214q0 -59 -6.5 -101t-24 -69t-48.5 -40t-80 -13h-59q-87 0 -122.5 47t-35.5 151v19h71v-16q0 -37 3.5 -62.5t13.5 -41.5t29 -23t49 -7h39q51 0 73 27.5t22 92.5v81q0 48 -3 80t-15 51.5t-35.5 27.5t-63.5 8q-93 0 -105 -67h-61v366h337v-68h-270v-217q31 53 124 53 q89 0 128.5 -46.5t39.5 -148.5v-84z" unicode="5"/>
<glyph glyph-name="six" d="M282 57q33 0 52 8t29.5 25.5t13.5 45t3 67.5v25q0 40 -3 68t-13.5 45t-29.5 25t-52 8h-59q-33 0 -52 -8t-29 -25t-13 -45t-3 -68v-25q0 -40 3 -67.5t13 -45t29 -25.5t52 -8h59zM449 209q0 -57 -7 -98t-25.5 -68t-49.5 -39.5t-79 -12.5h-73q-48 0 -79 12.5t-49.5 39.5 t-25.5 68t-7 98v307q0 57 7 98t25.5 68t49.5 39.5t79 12.5h69q78 0 115.5 -43.5t37.5 -133.5v-7h-68v9q0 60 -21 84t-72 24h-57q-33 0 -52 -8t-29 -25.5t-13 -45.5t-3 -68v-137q34 38 70 50t85 12q91 0 131.5 -38t40.5 -128v-70z" unicode="6"/>
<glyph glyph-name="seven" d="M364 657h-303v68h361v-110l-245 -615h-76z" unicode="7"/>
<glyph glyph-name="eight" d="M290 734q45 0 74.5 -11.5t47 -36t24.5 -62t7 -89.5q0 -35 -3.5 -62t-13.5 -46t-28 -31.5t-47 -19.5q56 -20 77.5 -58t21.5 -104q0 -59 -7 -101t-25 -69t-49.5 -40t-81.5 -13h-75q-50 0 -81.5 13t-49.5 40t-25 69t-7 101q0 66 21.5 104t77.5 58q-29 7 -47 19.5t-28 31.5 t-13.5 46t-3.5 62q0 52 7 89.5t24.5 62t47 36t74.5 11.5h81zM126 504q0 -52 23.5 -74t76.5 -22h47q53 0 76.5 22t23.5 74v70q0 52 -23.5 74t-76.5 22h-47q-53 0 -76.5 -22t-23.5 -74v-70zM125 176q0 -66 22.5 -94t76.5 -28h52q53 0 76 28.5t23 93.5v57q0 57 -24.5 81 t-83.5 24h-35q-59 0 -83 -24t-24 -81v-57z" unicode="8"/>
<glyph glyph-name="nine" d="M376 348q-34 -37 -69.5 -49t-84.5 -12q-92 0 -132.5 37.5t-40.5 126.5v65q0 57 7 98t25.5 68t49.5 39.5t79 12.5h73q48 0 79 -12.5t49.5 -39.5t25.5 -68t7 -98v-307q0 -57 -7 -98t-25.5 -68t-49.5 -39.5t-79 -12.5h-84q-78 0 -115.5 43t-37.5 133v8h69v-9q0 -59 20 -83.5 t72 -24.5h72q33 0 52 8t29 25t13 45t3 68v144zM216 667q-33 0 -52 -7.5t-29 -24t-13 -44t-3 -66.5v-25q0 -39 3 -66.5t13 -44.5t29 -24.5t52 -7.5h59q33 0 52 7.5t29 24.5t13 44.5t3 66.5v25q0 39 -3 66.5t-13 44t-29 24t-52 7.5h-59z" unicode="9"/>
<glyph glyph-name="colon" horiz-adv-x="273" unicode=":" d="M100 507h74v-97h-74v97zM100 97h74v-97h-74v97z"/>
<glyph glyph-name="less" horiz-adv-x="833" unicode="&lt;" d="M205 298l499 -202v-53l-575 235v40l575 236v-53z"/>
<glyph glyph-name="equal" horiz-adv-x="833" unicode="=" d="M709 365h-585v48h585v-48zM709 183h-585v48h585v-48z"/>
<glyph glyph-name="greater" horiz-adv-x="833" unicode="&gt;" d="M704 278l-575 -235v53l499 202l-499 203v53l575 -236v-40z"/>
<glyph glyph-name="question" horiz-adv-x="454" unicode="?" d="M150 91h68v-91h-68v91zM149 251q0 22 3 39t14 32q9 12 20 20.5t24.5 15.5t28.5 13.5t31 14.5q24 13 38 24t21 24t9 31t2 44v59q0 28 -4 47t-15 30.5t-30.5 16t-50.5 4.5h-50q-49 0 -70.5 -22t-21.5 -72v-71h-65v61q0 88 34 130t113 42h77q83 0 117.5 -38.5t34.5 -122.5 v-72q0 -60 -14.5 -98t-49.5 -60q-24 -15 -45 -23.5t-36 -15.5q-11 -5 -19.5 -9.5t-14 -11t-8.5 -16.5t-3 -25v-52h-70v61z"/>
<glyph glyph-name="at" horiz-adv-x="1000" unicode="@" d="M621 350q-9 46 -37 71.5t-68 25.5q-38 0 -70 -17.5t-55 -48.5t-35.5 -73t-12.5 -91q0 -55 26.5 -85t74.5 -30q52 0 92.5 34.5t54.5 92.5zM663 469h46l-68 -274q-4 -17 -6 -27.5t-2 -17.5q0 -21 13.5 -33t38.5 -12q24 0 50.5 10t52.5 30q47 37 73.5 98.5t26.5 139.5 q0 60 -25 112t-70 90t-108.5 59.5t-141.5 21.5q-171 0 -284 -97q-145 -124 -145 -319q0 -85 28.5 -148.5t90.5 -113.5q49 -40 118 -62.5t148 -22.5q85 0 164.5 24.5t145.5 69.5l19 -27q-144 -108 -319 -108q-187 0 -304 90q-76 58 -112 133.5t-36 176.5q0 100 42 186.5 t123 153.5q131 108 322 108q82 0 152.5 -22t119.5 -60q63 -49 95 -111.5t32 -136.5q0 -85 -30.5 -152t-88.5 -113q-69 -54 -151 -54q-94 0 -94 74q0 3 0.5 6.5t0.5 7.5q-25 -43 -62 -65.5t-82 -22.5q-75 0 -114 41t-39 119q0 57 18 106t48.5 84.5t72 56t88.5 20.5 q92 0 124 -80z"/>
<glyph glyph-name="A" horiz-adv-x="486" unicode="A" d="M350 223l-103 404l-112 -404h215zM207 725h84l196 -725h-78l-41 156h-252l-45 -156h-72z"/>
<glyph glyph-name="B" horiz-adv-x="514" unicode="B" d="M243 414q39 0 66 3t44.5 12.5t25 27t7.5 45.5v80q0 25 -8.5 39.5t-25.5 22.5t-44.5 10.5t-64.5 2.5h-111v-243h111zM471 164q0 -47 -11.5 -78.5t-36.5 -50.5t-64.5 -27t-94.5 -8h-204v725h190q56 0 95.5 -6t64 -22.5t36 -46t11.5 -77.5v-63q0 -53 -19.5 -82t-67.5 -46 q54 -14 77.5 -49.5t23.5 -99.5v-69zM398 238q0 34 -8.5 54.5t-26.5 32t-46.5 15.5t-68.5 4h-116v-277h116q40 0 68.5 3.5t46.5 15t26.5 32t8.5 54.5v66z"/>
<glyph glyph-name="C" horiz-adv-x="491" unicode="C" d="M461 244q1 -11 1 -21.5v-21.5q0 -107 -41 -158.5t-129 -51.5h-70q-47 0 -82.5 16.5t-55.5 46.5q-22 34 -26.5 74t-4.5 91v269q0 126 42.5 186t145.5 60h38q100 0 142 -49.5t42 -159.5v-16.5t-1 -17.5h-77v9q0 44 -4.5 74.5t-16.5 50t-33 28.5t-54 9h-39q-34 0 -55.5 -9.5 t-33.5 -30.5t-16 -54t-4 -80v-244q0 -53 3 -88t14 -56t32.5 -29.5t59.5 -8.5h39q36 0 57.5 7.5t32.5 26.5t14.5 50.5t3.5 79.5v18h76z"/>
<glyph glyph-name="D" horiz-adv-x="546" unicode="D" d="M60 725h182q72 0 120 -14t77 -45t41.5 -81.5t12.5 -122.5v-200q0 -72 -12.5 -122t-41.5 -81t-77 -45t-120 -14h-182v725zM228 67q59 0 96.5 9t58.5 33q23 28 28.5 65.5t5.5 90.5v195q0 53 -5.5 90.5t-28.5 65.5q-21 24 -58.5 33t-96.5 9h-96v-591h96z"/>
<glyph glyph-name="E" horiz-adv-x="410" unicode="E" d="M384 0h-324v725h324v-70h-252v-243h234v-70h-234v-272h252v-70z"/>
<glyph glyph-name="F" horiz-adv-x="382" unicode="F" d="M60 725h312v-70h-240v-253h221v-70h-221v-332h-72v725z"/>
<glyph glyph-name="G" horiz-adv-x="532" unicode="G" d="M129 244q0 -53 3 -88t14 -56t32.5 -29.5t59.5 -8.5h62q38 0 59.5 8.5t32.5 29.5t13.5 56t2.5 88v47h-127v70h203v-142q0 -51 -4.5 -91t-26.5 -74q-20 -30 -55.5 -46.5t-82.5 -16.5h-93q-47 0 -82.5 16.5t-55.5 46.5q-22 34 -26.5 74t-4.5 91v269q0 126 42.5 186t145.5 60 h54q98 0 140.5 -47.5t42.5 -152.5v-24h-77q0 42 -5.5 71t-17.5 47t-33 26t-52 8h-55q-34 0 -55.5 -9.5t-33.5 -30.5t-16 -54t-4 -80v-244z"/>
<glyph glyph-name="H" horiz-adv-x="553" unicode="H" d="M60 725h72v-315h289v315h72v-725h-72v340h-289v-340h-72v725z"/>
<glyph glyph-name="I" horiz-adv-x="197" unicode="I" d="M62 725h72v-725h-72v725z"/>
<glyph glyph-name="J" horiz-adv-x="424" unicode="J" d="M366 160q0 -48 -9 -80.5t-29.5 -52t-54.5 -28t-84 -8.5t-84 8.5t-54.5 28t-29.5 52t-9 80.5v84h72v-57q0 -35 4 -59.5t15.5 -39.5t32 -22t52.5 -7t52.5 7t32.5 22t16.5 39.5t4.5 59.5v538h72v-565z"/>
<glyph glyph-name="K" horiz-adv-x="491" unicode="K" d="M60 725h72v-312h37l232 312h80l-256 -344l289 -381h-90l-261 344h-31v-344h-72v725z"/>
<glyph glyph-name="L" horiz-adv-x="343" unicode="L" d="M60 725h72v-654h215v-71h-287v725z"/>
<glyph glyph-name="M" horiz-adv-x="764" unicode="M" d="M60 725h115l202 -638l217 638h110v-725h-66v663l-225 -663h-73l-214 663v-663h-66v725z"/>
<glyph glyph-name="N" horiz-adv-x="565" unicode="N" d="M60 725h106l269 -644v644h70v-725h-110l-265 633v-633h-70v725z"/>
<glyph glyph-name="O" horiz-adv-x="544" unicode="O" d="M303 734q103 0 145.5 -60t42.5 -186v-252q0 -126 -42.5 -185.5t-145.5 -59.5h-62q-103 0 -145.5 59.5t-42.5 185.5v252q0 126 42.5 186t145.5 60h62zM250 662q-38 0 -61 -9.5t-36.5 -30t-18 -53.5t-4.5 -81v-252q0 -48 4.5 -81t18 -53.5t36.5 -30t61 -9.5h44 q37 0 60.5 9.5t37 30t18 53.5t4.5 81v252q0 48 -4.5 81t-18 53.5t-37 30t-60.5 9.5h-44z"/>
<glyph glyph-name="P" horiz-adv-x="491" unicode="P" d="M132 657v-308h112q37 0 63.5 2.5t43.5 12.5t24.5 28t7.5 50v124q0 32 -7.5 50t-24.5 27t-43.5 11.5t-63.5 2.5h-112zM461 462q0 -57 -11 -92.5t-35 -55t-63.5 -26t-96.5 -6.5h-123v-282h-72v725h195q57 0 96.5 -7t63.5 -26.5t35 -54.5t11 -92v-83z"/>
<glyph glyph-name="Q" horiz-adv-x="544" unicode="Q" d="M303 734q103 0 145.5 -60t42.5 -186v-252q0 -33 -2 -62t-9 -55l59 -48l-36 -53l-49 41q-42 -68 -151 -68h-62q-103 0 -145.5 59.5t-42.5 185.5v252q0 126 42.5 186t145.5 60h62zM250 662q-38 0 -61 -9.5t-36.5 -30t-18 -53.5t-4.5 -81v-252q0 -48 4.5 -81t18 -53.5 t36.5 -30t61 -9.5h44q77 0 101 46l-161 133l37 52l141 -117q2 20 2 35v25v252q0 48 -4.5 81t-18 53.5t-37 30t-60.5 9.5h-44z"/>
<glyph glyph-name="R" horiz-adv-x="519" unicode="R" d="M132 657v-298h121q38 0 64.5 3.5t43 15t24 33.5t7.5 60v94q0 33 -8 51.5t-24.5 27.5t-43 11t-63.5 2h-121zM132 0h-72v725h204q57 0 96.5 -7t64 -26.5t35.5 -54.5t11 -92v-67q0 -70 -27 -106t-85 -44q54 -11 79 -47t25 -103v-178h-72v145q0 42 -5.5 69.5t-20.5 44 t-41.5 23.5t-67.5 7h-124v-289z"/>
<glyph glyph-name="S" d="M453 148q0 -81 -42 -119t-131 -38h-65q-53 0 -87 11.5t-54 36t-27.5 64t-7.5 95.5v37h75v-61q0 -62 21 -87t78 -25h71q53 0 72.5 21.5t19.5 75.5v62q0 18 -1.5 34.5t-9.5 32.5q-13 25 -52 33t-106 19q-35 6 -59.5 11t-39.5 14q-55 35 -55 122v90q0 81 42 119t131 38h52 q48 0 81.5 -10.5t54 -33t30 -57.5t9.5 -85v-21h-75v24q0 62 -20.5 86.5t-77.5 24.5h-59q-53 0 -72.5 -21t-19.5 -75v-78q0 -26 8.5 -40t25.5 -21t42.5 -10t59.5 -9q51 -8 86.5 -18.5t58 -27.5t33 -43.5t10.5 -66.5v-104z" unicode="S"/>
<glyph glyph-name="T" horiz-adv-x="396" unicode="T" d="M162 654h-155v70h382v-70h-155v-654h-72v654z"/>
<glyph glyph-name="U" horiz-adv-x="519" unicode="U" d="M272 62q39 0 62 6.5t35 23t16 43t4 67.5v523h72v-558q0 -93 -45 -134.5t-148 -41.5h-17q-104 0 -148.5 41.5t-44.5 134.5v558h72v-523q0 -41 4.5 -67.5t17.5 -43t36.5 -23t62.5 -6.5h21z"/>
<glyph glyph-name="V" horiz-adv-x="475" unicode="V" d="M6 725h77l150 -628l164 628h72l-196 -725h-84z"/>
<glyph glyph-name="W" horiz-adv-x="764" unicode="W" d="M381 581l-130 -581h-84l-157 725h72l129 -632l135 632h72l129 -632l134 632h72l-166 -725h-84z"/>
<glyph glyph-name="X" horiz-adv-x="449" unicode="X" d="M178 381l-164 344h77l137 -298l135 298h71l-163 -358l176 -367h-79l-148 321l-146 -321h-72z"/>
<glyph glyph-name="Y" horiz-adv-x="426" unicode="Y" d="M181 303l-190 422h79l147 -350l145 350h72l-182 -422v-303h-71v303z"/>
<glyph glyph-name="Z" horiz-adv-x="405" unicode="Z" d="M21 67l282 588h-272v70h346v-68l-282 -587h287v-70h-361v67z"/>
<glyph glyph-name="bracketleft" horiz-adv-x="315" unicode="[" d="M114 725h132v-58h-67v-609h67v-58h-132v725z"/>
<glyph glyph-name="backslash" horiz-adv-x="241" unicode="\" d="M280 -93h-55l-237 827h55z"/>
<glyph glyph-name="bracketright" horiz-adv-x="315" unicode="]" d="M201 0h-132v58h67v609h-67v58h132v-725z"/>
<glyph glyph-name="asciicircum" horiz-adv-x="1000" unicode="^" d="M793 440h-70l-223 222l-224 -222h-70l260 272h68z"/>
<glyph glyph-name="underscore" d="M500 -236h-500v49h500v-49z" unicode="_"/>
<glyph glyph-name="grave" d="M265 570l-137 171h87l102 -171h-52z" unicode="`"/>
<glyph glyph-name="a" horiz-adv-x="412" unicode="a" d="M292 46q-18 -32 -47 -44t-75 -12q-126 0 -126 129v68q0 130 134 130q40 0 68 -10.5t46 -33.5v79q0 31 -3.5 51.5t-13 32.5t-26.5 16.5t-44 4.5q-41 0 -60 -14t-19 -50v-24h-67v23q0 67 36 96.5t113 29.5q43 0 71.5 -7.5t45.5 -25t24 -46t7 -70.5v-369h-64v46zM195 50 q57 0 78 25.5t21 82.5q0 28 -4 47t-14.5 30.5t-28 16t-44.5 4.5q-28 0 -45.5 -5t-27.5 -17.5t-14 -33.5t-4 -53q0 -51 18 -74t65 -23z"/>
<glyph glyph-name="b" horiz-adv-x="428" unicode="b" d="M124 213q0 -41 4.5 -71.5t15.5 -50t31 -29t52 -9.5q52 0 69.5 38t17.5 119v87q0 81 -17.5 119t-69.5 38q-32 0 -52 -9.5t-31 -29t-15.5 -50t-4.5 -71.5v-81zM59 738h65v-286q42 64 121 64q78 0 108 -53t30 -163v-78q0 -119 -29 -175t-107 -56q-42 0 -72 16t-55 52v-59 h-61v738z"/>
<glyph glyph-name="c" horiz-adv-x="405" unicode="c" d="M373 166q0 -93 -38 -134t-121 -41q-47 0 -79 10.5t-51.5 34.5t-28 63t-8.5 95v120q0 56 8.5 94.5t28.5 62.5t52 34.5t79 10.5q80 0 113.5 -35t33.5 -115v-25h-65v9q0 56 -20 78.5t-69 22.5q-31 0 -49 -7t-27.5 -23t-12.5 -42.5t-3 -64.5v-121q0 -38 3 -64.5t13 -43 t28.5 -23.5t50.5 -7q29 0 47.5 6t29 19.5t14.5 34.5t4 52v20h67v-21z"/>
<glyph glyph-name="d" horiz-adv-x="428" unicode="d" d="M309 0v59q-25 -36 -55.5 -52t-72.5 -16q-78 0 -107 56t-29 175v78q0 110 30.5 163t108.5 53t120 -64v286h65v-738h-60zM304 294q0 41 -4.5 71.5t-15.5 50t-31.5 29t-51.5 9.5q-52 0 -69 -38t-17 -119v-87q0 -81 17 -119t69 -38q31 0 51.5 9.5t31.5 29t15.5 50t4.5 71.5 v81z"/>
<glyph glyph-name="e" horiz-adv-x="419" unicode="e" d="M116 193q0 -39 3 -65.5t13 -42t29.5 -22.5t52.5 -7q59 0 82.5 17.5t23.5 67.5v16h60v-17q0 -81 -39.5 -115t-126.5 -34q-47 0 -79 11t-51.5 35t-28 62.5t-8.5 94.5v120q0 56 8.5 94.5t28.5 62.5t52 34.5t79 10.5t78.5 -10.5t51 -34.5t28 -62.5t8.5 -94.5v-73h-265v-48z M316 304v32q0 34 -4.5 57t-15.5 37t-30.5 20t-49.5 6t-49 -6t-30.5 -20t-16 -37t-4.5 -57v-32h200z"/>
<glyph glyph-name="f" horiz-adv-x="241" unicode="f" d="M76 447h-62v60h62v90q0 74 32.5 107.5t104.5 33.5q9 0 18.5 -0.5t20.5 -1.5v-58q-10 2 -19 2h-17q-44 0 -59.5 -20t-15.5 -68v-85h111v-60h-111v-447h-65v447z"/>
<glyph glyph-name="g" horiz-adv-x="428" unicode="g" d="M369 -18q0 -92 -36.5 -130.5t-125.5 -38.5q-151 0 -151 105v26h67q0 -3 -0.5 -6t-0.5 -6q0 -32 20 -46t64 -14q34 0 53.5 7t29.5 22t12.5 39.5t2.5 59.5v84q-42 -64 -120 -64t-108.5 53t-30.5 163v49q0 119 29 175t107 56q42 0 72.5 -16.5t55.5 -52.5v60h60v-525z M304 294q0 41 -4.5 71.5t-15.5 50t-31.5 29t-51.5 9.5q-52 0 -69 -38t-17 -119v-58q0 -81 17 -119t69 -38q31 0 51.5 9.5t31.5 29t15.5 50t4.5 71.5v52z"/>
<glyph glyph-name="h" horiz-adv-x="433" unicode="h" d="M313 322q0 70 -16.5 102.5t-65.5 32.5q-31 0 -51 -10.5t-32 -32t-17 -54t-5 -76.5v-284h-65v738h65v-282q21 32 49.5 46t69.5 14q74 0 103.5 -42t29.5 -134v-340h-65v322z"/>
<glyph glyph-name="i" horiz-adv-x="171" unicode="i" d="M53 725h65v-85h-65v85zM53 507h65v-507h-65v507z"/>
<glyph glyph-name="j" horiz-adv-x="171" unicode="j" d="M55 507h65v-551q0 -39 -4 -66t-14.5 -44.5t-29.5 -25.5t-50 -8q-10 0 -23 3v59h10q33 0 39.5 18t6.5 63v552zM55 725h65v-85h-65v85z"/>
<glyph glyph-name="k" horiz-adv-x="366" unicode="k" d="M58 738h65v-430h31l130 199h71l-150 -228l180 -279h-77l-154 241h-31v-241h-65v738z"/>
<glyph glyph-name="l" horiz-adv-x="176" unicode="l" d="M56 738h65v-738h-65v738z"/>
<glyph glyph-name="m" horiz-adv-x="653" unicode="m" d="M352 441q37 75 122 75q71 0 99 -42t28 -134v-340h-65v322q0 69 -16 102t-62 33q-58 0 -77 -43.5t-19 -129.5v-284h-65v322q0 69 -15 102t-61 33q-58 0 -77.5 -43t-19.5 -130v-284h-65v507h60v-59q37 68 118 68q91 0 115 -75z"/>
<glyph glyph-name="n" horiz-adv-x="431" unicode="n" d="M311 322q0 70 -16.5 102.5t-65.5 32.5q-31 0 -51 -10.5t-32 -32t-17 -54t-5 -76.5v-284h-65v507h60v-59q38 68 124 68q74 0 103.5 -42t29.5 -134v-340h-65v322z"/>
<glyph glyph-name="o" horiz-adv-x="428" unicode="o" d="M381 194q0 -56 -8.5 -95t-28 -63t-51.5 -34.5t-79 -10.5t-79 11t-51.5 35t-28 62.5t-8.5 94.5v120q0 56 8.5 94.5t28.5 62.5t52 34.5t79 10.5t78.5 -10.5t51 -34.5t28 -62.5t8.5 -94.5v-120zM116 193q0 -39 3 -65t13.5 -42.5t30 -23.5t51.5 -7t51 7t29.5 23.5t14 42.5 t3.5 65v121q0 39 -3 65t-13.5 42t-30 23t-51.5 7t-51 -7t-29.5 -23t-14 -42t-3.5 -65v-121z"/>
<glyph glyph-name="p" horiz-adv-x="428" unicode="p" d="M383 207q0 -110 -30 -163t-108 -53q-79 0 -121 64v-243h-65v695h61v-60q25 36 55 52.5t72 16.5q78 0 107 -56t29 -175v-78zM124 213q0 -41 4.5 -71.5t15.5 -50t31 -29t52 -9.5q52 0 69.5 38t17.5 119v87q0 81 -17.5 119t-69.5 38q-32 0 -52 -9.5t-31 -29t-15.5 -50 t-4.5 -71.5v-81z"/>
<glyph glyph-name="q" horiz-adv-x="428" unicode="q" d="M302 294q0 41 -4.5 71.5t-15.5 50t-31.5 29t-51.5 9.5q-52 0 -69 -38t-17 -119v-87q0 -81 17 -119t69 -38q31 0 51.5 9.5t31.5 29t15.5 50t4.5 71.5v81zM302 55q-42 -64 -120 -64t-108 53t-30 163v78q0 60 6.5 103.5t22 72t41.5 42t65 13.5q42 0 72.5 -16.5t55.5 -52.5 v60h60v-695h-65v243z"/>
<glyph glyph-name="r" horiz-adv-x="345" unicode="r" d="M57 0v507h60v-66q19 39 48 57t71 18q57 0 81 -33t24 -105v-39h-60v24q0 51 -14 74t-50 23q-56 0 -75.5 -34t-19.5 -106v-320h-65z"/>
<glyph glyph-name="s" horiz-adv-x="398" unicode="s" d="M356 107q0 -116 -134 -116h-57q-36 0 -60 6t-38 20t-20 37t-6 56v52h64v-31q0 -22 2 -37.5t9 -25t20 -13.5t35 -4h45q40 0 56 14.5t16 49.5v48q0 22 -6 34.5t-19.5 19t-34.5 10t-52 8.5q-35 6 -59.5 11.5t-40 15.5t-22.5 26.5t-7 43.5v68q0 116 134 116h45q36 0 60 -6 t38 -20t20 -37t6 -56v-21h-64v14q0 37 -14 51.5t-52 14.5h-33q-40 0 -56 -14t-16 -49v-49q0 -18 7.5 -27t24 -14.5t44 -9.5t68.5 -10q53 -8 75 -33t22 -75v-68z"/>
<glyph glyph-name="t" horiz-adv-x="338" unicode="t" d="M18 447v60h53v123h65v-123h165v-60h-165v-290q0 -28 1.5 -48.5t7.5 -33.5t18.5 -19t33.5 -6q34 0 46.5 18.5t12.5 58.5v47h59v-36q0 -78 -28.5 -112.5t-97.5 -34.5q-36 0 -58.5 8.5t-36 26.5t-18.5 45.5t-5 65.5v310h-53z"/>
<glyph glyph-name="u" horiz-adv-x="431" unicode="u" d="M120 185q0 -70 17 -102.5t66 -32.5q61 0 82.5 42.5t21.5 130.5v284h65v-507h-60v59q-38 -68 -124 -68q-74 0 -103.5 42t-29.5 134v340h65v-322z"/>
<glyph glyph-name="v" horiz-adv-x="387" unicode="v" d="M17 507h68l110 -444l110 444h64l-130 -507h-92z"/>
<glyph glyph-name="w" horiz-adv-x="613" unicode="w" d="M445 65l89 442h67l-110 -507h-87l-98 452l-97 -452h-87l-111 507h67l89 -442l96 442h86z"/>
<glyph glyph-name="x" horiz-adv-x="377" unicode="x" d="M151 264l-136 243h74l100 -185l99 185h68l-134 -238l152 -269h-74l-115 204l-115 -204h-68z"/>
<glyph glyph-name="y" horiz-adv-x="387" unicode="y" d="M17 507h68l110 -444l110 444h64l-130 -507q-12 -46 -24 -81t-28 -59t-38 -36t-52 -12q-21 0 -44 5v61q6 -1 12 -1.5t12 -0.5q35 0 55.5 20t31.5 64l10 40h-27z"/>
<glyph glyph-name="z" horiz-adv-x="331" unicode="z" d="M24 67l214 380h-192v60h257v-66l-214 -381h214v-60h-279v67z"/>
<glyph glyph-name="braceleft" d="M399 669q-35 0 -56 -6.5t-33 -21t-16 -38t-4 -58.5v-118q0 -36 -4 -64t-14.5 -48t-29 -33.5t-48.5 -22.5q30 -9 48.5 -22.5t29 -34t14.5 -48t4 -63.5v-118q0 -35 4 -58.5t15 -38t32 -21t54 -6.5q5 0 10.5 0.5t11.5 0.5v-52h-23q-51 0 -83 9t-50 30t-24.5 55.5t-6.5 85.5 v119q0 74 -27.5 105.5t-95.5 31.5q-5 0 -10.5 -0.5t-11.5 -0.5v53q6 0 11.5 -0.5t10.5 -0.5q68 0 95.5 31.5t27.5 105.5v118q0 51 6.5 85.5t24.5 56t50 30.5t83 9h23v-52h-18z" unicode="{"/>
<glyph glyph-name="bar" d="M277 -236h-53v1000h53v-1000z" unicode="|"/>
<glyph glyph-name="braceright" d="M271 422q0 -74 27.5 -105.5t95.5 -31.5q5 0 10.5 0.5t11.5 0.5v-53q-6 0 -11.5 0.5t-10.5 0.5q-68 0 -95.5 -31.5t-27.5 -105.5v-119q0 -51 -6.5 -85.5t-24.5 -55.5t-50 -30t-83 -9h-23v52h19q34 0 55 6t33 20t16 38t4 59v118q0 36 3.5 63.5t14 48t29.5 34t49 22.5 q-30 9 -49 22.5t-29.5 33.5t-14 48t-3.5 64v118q0 35 -4 59t-15 38.5t-32 21t-54 6.5q-5 0 -10.5 -0.5t-11.5 -0.5v52h23q51 0 83 -9t50 -30.5t24.5 -56t6.5 -85.5v-118z" unicode="}"/>
<glyph glyph-name="asciitilde" horiz-adv-x="833" unicode="~" d="M747 311q-98 -70 -189 -70q-41 0 -75 11t-66 22q-35 13 -69 23.5t-72 10.5q-45 0 -90 -20t-99 -58v55q103 71 189 71q41 0 74.5 -10.5t66.5 -22.5q36 -13 70 -24t71 -11q45 0 90.5 20t98.5 58v-55z"/>
<glyph glyph-name="exclamdown" horiz-adv-x="250" unicode="¡" d="M159 0h-68v534h68v-534zM159 634h-68v91h68v-91z"/>
<glyph glyph-name="cent" d="M413 166q0 -97 -39.5 -136.5t-128.5 -39.5q-12 0 -22.5 1.5t-20.5 3.5l-33 -123h-48l37 136q-38 18 -55 64t-17 122v120q0 108 36 155.5t124 47.5q17 0 46 -3l30 112h49l-34 -125q35 -15 49.5 -47.5t14.5 -87.5v-25h-64v9q0 57 -20 77l-98 -370q15 -1 24 -1.5t11 -0.5 q52 0 72 25.5t20 86.5v20h67v-21zM276 450q-9 1 -16.5 1.5t-14.5 0.5q-29 0 -46.5 -7.5t-27 -24t-12.5 -43t-3 -63.5v-121q0 -48 4 -75.5t17 -37.5z" unicode="¢"/>
<glyph glyph-name="sterling" d="M462 0h-430v69q26 3 42 10t25 20.5t12 34t3 50.5v63l-3 41h-79v67h76l-6 154q0 8 -0.5 15t-0.5 14q0 97 36 142t128 45h32q45 0 75 -10t48 -30.5t25.5 -52t7.5 -75.5v-41h-67v28q0 32 -4 53.5t-14 35t-28.5 19.5t-46.5 6h-25q-30 0 -49 -7t-29.5 -22.5t-14.5 -40 t-4 -58.5v-23t1 -26l6 -126h185v-67h-182q3 -84 3 -99q0 -42 -9 -71t-35 -49h322v-69z" unicode="£"/>
<glyph glyph-name="currency" horiz-adv-x="606" unicode="¤" d="M176 591q58 44 127 44q72 0 128 -44l100 100l32 -32l-100 -100q43 -58 43 -127q0 -68 -43 -126l100 -101l-32 -32l-100 100q-58 -44 -128 -44q-68 0 -127 44l-100 -100l-32 32l100 101q-21 29 -32.5 60t-11.5 66t11.5 66.5t32.5 60.5l-100 100l32 32zM461 433 q0 32 -12 60.5t-33.5 50t-50 34t-61.5 12.5t-61.5 -12.5t-50.5 -34t-34.5 -50t-12.5 -60.5q0 -33 12.5 -61.5t34.5 -50.5t50.5 -34.5t61.5 -12.5t61.5 12.5t50 34.5t33.5 51t12 61z"/>
<glyph glyph-name="yen" d="M218 272h-202v42h197l-54 121h-143v42h124l-112 248h79l147 -350l145 350h73l-108 -248h120v-42h-137l-53 -121h190v-42h-195v-272h-71v272z" unicode="¥"/>
<glyph glyph-name="brokenbar" d="M277 329h-53v370h53v-370zM277 -171h-53v370h53v-370z" unicode="¦"/>
<glyph glyph-name="section" d="M145 120q0 -73 94 -73q51 0 77.5 18t26.5 50q0 18 -6 30.5t-18.5 23.5t-31.5 21.5t-44 22.5l-73 36q-58 28 -86 60.5t-28 82.5q0 73 63 124q-32 46 -32 92q0 126 166 126q75 0 110.5 -27.5t35.5 -86.5v-41h-63v25q0 36 -19 52t-61 16q-101 0 -101 -62q0 -18 6 -31 t18.5 -24t31 -21.5t44.5 -22.5l73 -36q58 -29 86 -60t28 -82q0 -73 -63 -124q32 -46 32 -93q0 -62 -42.5 -95t-123.5 -33q-85 0 -124 26.5t-39 89.5v53h63v-37zM161 482q-40 -31 -40 -86q0 -30 22.5 -50.5t65.5 -41.5l127 -62q41 32 41 87q0 32 -23 51t-65 40z" unicode="§"/>
<glyph glyph-name="dieresis" d="M133 693h78v-91h-78v91zM289 693h78v-91h-78v91z" unicode="¨"/>
<glyph glyph-name="copyright" horiz-adv-x="833" unicode="©" d="M416 711q73 0 138.5 -27t116.5 -78t77 -116t26 -137q0 -74 -26 -137.5t-77 -113.5q-53 -52 -118.5 -79.5t-136.5 -27.5t-135.5 27t-116.5 79q-51 51 -78 115.5t-27 136.5t27.5 137t79.5 118q50 51 113.5 77t136.5 26zM735 353q0 65 -23.5 122.5t-68.5 102.5 q-46 46 -103.5 70t-123.5 24q-65 0 -121.5 -23.5t-101.5 -68.5q-47 -48 -71 -106t-24 -121t24 -120.5t70 -103.5t103.5 -70t120.5 -24t121.5 24t106.5 71q45 44 68 100.5t23 122.5zM524 447q-9 39 -36.5 60.5t-69.5 21.5q-59 0 -92.5 -45.5t-33.5 -131.5q0 -83 34 -128 t92 -45q44 0 74 24.5t38 67.5h56q-3 -30 -16.5 -55.5t-36 -44t-53 -29t-65.5 -10.5q-85 0 -135.5 58.5t-50.5 164.5q0 51 14 91.5t39.5 69t60.5 43.5t77 15q66 0 110.5 -35t50.5 -92h-57z"/>
<glyph glyph-name="ordfeminine" horiz-adv-x="309" unicode="ª" d="M219 402q-14 -22 -35.5 -30.5t-55.5 -8.5q-95 0 -95 90v48q0 91 101 91q29 0 50 -7t35 -24v55q0 43 -12 58.5t-53 15.5q-31 0 -45 -9.5t-14 -35.5v-17h-51v16q0 48 27.5 68.5t84.5 20.5q64 0 87.5 -23.5t23.5 -81.5v-258h-48v32zM146 405q43 0 59 17.5t16 58.5 q0 40 -14 54t-55 14t-54.5 -16t-13.5 -60q0 -35 13.5 -51.5t48.5 -16.5z"/>
<glyph glyph-name="guillemotleft" horiz-adv-x="384" unicode="«" d="M47 253l87 158h70l-86 -158l86 -157h-70zM192 253l88 158h70l-87 -158l87 -157h-70z"/>
<glyph glyph-name="logicalnot" horiz-adv-x="833" unicode="¬" d="M709 174h-47v196h-538v49h585v-245z"/>
<glyph glyph-name="registered" horiz-adv-x="833" unicode="®" d="M416 711q74 0 139 -26.5t116 -78.5q51 -51 77 -116t26 -137q0 -74 -26 -137.5t-77 -113.5q-53 -52 -118.5 -79.5t-136.5 -27.5q-72 0 -136.5 27t-115.5 79q-51 51 -78 115.5t-27 136.5q0 71 27.5 136.5t79.5 118.5q50 51 113.5 77t136.5 26zM735 352q0 66 -23 123.5 t-68 102.5q-46 46 -104 70t-124 24q-65 0 -121 -23.5t-101 -68.5q-47 -48 -71.5 -106t-24.5 -121t24 -120.5t70 -103.5t103.5 -70t120.5 -24t121.5 24t106.5 71q45 44 68 100t23 122zM427 565q86 0 128 -27t42 -87q0 -43 -26 -72.5t-71 -35.5l92 -190h-71l-87 181h-96v-181 h-62v412h151zM338 523v-148h77q61 0 89.5 15t28.5 57t-28.5 59t-89.5 17h-77z"/>
<glyph glyph-name="degree" horiz-adv-x="329" unicode="°" d="M165 709q28 0 52.5 -10.5t43 -29t29 -43.5t10.5 -53t-10.5 -52.5t-29 -43t-43.5 -29.5t-53 -11q-29 0 -53.5 10.5t-42.5 29t-28.5 43t-10.5 53.5q0 28 10.5 53t29 43.5t43.5 29t53 10.5zM266 573q0 21 -8 39.5t-21.5 32.5t-32 22t-39.5 8t-39.5 -8t-32.5 -22t-22 -32.5 t-8 -39.5t8 -39.5t22 -32t32.5 -21.5t39.5 -8t39.5 8t32 21.5t21.5 32t8 39.5z"/>
<glyph glyph-name="plusminus" horiz-adv-x="833" unicode="±" d="M441 401h268v-48h-268v-170h-48v170h-269v48h269v170h48v-170zM709 25h-585v48h585v-48z"/>
<glyph glyph-name="twosuperior" horiz-adv-x="330" unicode="²" d="M241 618q0 39 -14.5 55.5t-48.5 16.5h-26q-22 0 -34.5 -5t-19 -15.5t-8.5 -27t-2 -40.5v-15h-47v13q0 67 21.5 98.5t84.5 31.5h38q31 0 51.5 -7t32.5 -21.5t16.5 -37.5t4.5 -55v-44q0 -19 -3 -34t-12 -27q-19 -24 -51.5 -34t-76.5 -25q-21 -7 -34 -15.5t-20 -20 t-9.5 -26.5t-2.5 -36v-16h206v-41h-252v57q0 66 18 90q12 17 36 28t57 22q32 11 53.5 19t30.5 19q11 14 11 59v34z"/>
<glyph glyph-name="threesuperior" horiz-adv-x="330" unicode="³" d="M236 618q0 39 -14 55.5t-46 16.5h-26q-20 0 -32 -5t-18 -15.5t-8 -27t-2 -40.5v-8h-46v6q0 34 4.5 58.5t16 40.5t31.5 23.5t50 7.5h37q59 0 80 -28t21 -91q0 -42 -11 -64.5t-49 -30.5q37 -13 51 -35.5t14 -62.5q0 -35 -4.5 -60.5t-16.5 -41.5t-32.5 -23.5t-53.5 -7.5h-39 q-32 0 -52.5 7.5t-32.5 23.5t-17 40.5t-5 58.5v18h47v-21q0 -24 2 -40.5t8.5 -27t19.5 -15t35 -4.5h26q35 0 49.5 16.5t14.5 55.5v33q0 36 -14.5 49.5t-55.5 13.5h-32v39h35q35 0 50 13t15 45v28z"/>
<glyph glyph-name="acute" d="M285 741h87l-137 -171h-52z" unicode="´"/>
<glyph glyph-name="mu" horiz-adv-x="542" unicode="µ" d="M107 231q-4 -17 -6 -34t-2 -34q0 -57 28 -88t82 -31q60 0 104 51t66 153l59 272h68l-80 -376q-5 -23 -8 -39t-3 -26q0 -32 33 -32h6t12 1l-10 -54q-11 -3 -22 -4t-20 -1q-67 0 -67 71v7q-20 -38 -58 -58.5t-88 -20.5q-45 0 -78.5 19.5t-52.5 56.5l-56 -272h-68l154 728 h68z"/>
<glyph glyph-name="mu" horiz-adv-x="542" unicode="μ" d="M107 231q-4 -17 -6 -34t-2 -34q0 -57 28 -88t82 -31q60 0 104 51t66 153l59 272h68l-80 -376q-5 -23 -8 -39t-3 -26q0 -32 33 -32h6t12 1l-10 -54q-11 -3 -22 -4t-20 -1q-67 0 -67 71v7q-20 -38 -58 -58.5t-88 -20.5q-45 0 -78.5 19.5t-52.5 56.5l-56 -272h-68l154 728 h68z"/>
<glyph glyph-name="paragraph" d="M397 688v-688h-40v688h-92v-688h-40v382q-87 4 -135.5 50.5t-48.5 119.5q0 37 13.5 68.5t38.5 54t60.5 35t79.5 12.5h226v-34h-62z" unicode="¶"/>
<glyph glyph-name="cedilla" d="M146 -164q39 -9 69 -13t51 -4q59 0 59 40q0 26 -16.5 37t-51.5 11h-12t-13 -1v94h36v-52h11q110 0 110 -86q0 -89 -121 -89q-24 0 -54 5.5t-68 15.5v42z" unicode="¸"/>
<glyph glyph-name="onesuperior" horiz-adv-x="330" unicode="¹" d="M174 678l-99 -111l-29 26l119 132h55v-435h-46v388z"/>
<glyph glyph-name="ordmasculine" horiz-adv-x="321" unicode="º" d="M286 506q0 -39 -6.5 -66.5t-21 -44t-38.5 -24t-59 -7.5t-59 7.5t-39 24t-21.5 44t-6.5 66.5v84q0 39 6.5 66t21.5 43.5t39 24t59 7.5t59 -7.5t38.5 -24t21 -43.5t6.5 -66v-84zM87 505q0 -27 2.5 -45.5t10 -30t22.5 -16.5t39 -5t38 5t22 16.5t10.5 30t2.5 45.5v85 q0 27 -2.5 45.5t-10 29.5t-22 16t-38.5 5t-38.5 -5t-22.5 -16t-10.5 -29.5t-2.5 -45.5v-85z"/>
<glyph glyph-name="guillemotright" horiz-adv-x="384" unicode="»" d="M192 253l-87 -157h-71l87 157l-87 158h71zM338 253l-88 -157h-70l87 157l-87 158h70z"/>
<glyph glyph-name="onequarter" horiz-adv-x="797" unicode="¼" d="M166 681l-95 -103l-28 24l113 123h53v-406h-43v362zM586 734h62l-437 -743h-63zM690 93h-183v57l164 256h60v-275h43v-38h-43v-93h-41v93zM690 362l-149 -231h149v231z"/>
<glyph glyph-name="onehalf" horiz-adv-x="797" unicode="½" d="M166 681l-95 -103l-28 24l113 123h53v-406h-43v362zM586 734h62l-437 -743h-63zM712 306q0 36 -14 52t-47 16h-24q-21 0 -33 -4.5t-18 -14.5t-8 -26t-2 -38v-14h-45v12q0 64 20.5 93t80.5 29h37q59 0 79.5 -27t20.5 -87v-41q0 -17 -3 -31t-12 -26q-9 -11 -21 -18 t-28 -12.5t-34 -11t-39 -12.5q-20 -7 -32.5 -15t-19.5 -18.5t-9 -25t-2 -33.5v-14h197v-39h-241v53q0 61 17 84q12 17 34.5 26.5t54.5 20.5q31 11 51.5 18t28.5 18q11 12 11 54v32z"/>
<glyph glyph-name="threequarters" horiz-adv-x="797" unicode="¾" d="M226 625q0 36 -13.5 52t-44.5 16h-24q-20 0 -31.5 -4.5t-17.5 -14.5t-7.5 -26t-1.5 -38v-7h-44v5q0 63 19.5 92.5t77.5 29.5h36q56 0 76.5 -26.5t20.5 -84.5q0 -40 -11 -60.5t-47 -28.5q35 -12 48.5 -33t13.5 -58q0 -33 -4.5 -56.5t-15.5 -39t-31.5 -22.5t-51.5 -7h-37 q-30 0 -50 7t-31.5 22t-16 38t-4.5 55v16h45v-19q0 -23 2 -38.5t8.5 -25t18.5 -14t33 -4.5h25q33 0 47 16t14 52v31q0 33 -13.5 45.5t-52.5 12.5h-31v37h33q33 0 48 12.5t15 41.5v26zM586 734h62l-437 -743h-63zM690 93h-183v57l164 256h60v-275h43v-38h-43v-93h-41v93z M690 362l-149 -231h149v231z"/>
<glyph glyph-name="questiondown" horiz-adv-x="454" unicode="¿" d="M304 643h-68v91h68v-91zM305 483q0 -22 -3 -39t-14 -32q-17 -24 -44.5 -36t-59.5 -29q-24 -13 -38 -24t-21 -24t-9 -31t-2 -44v-58q0 -29 4 -47.5t15 -30t30.5 -16t50.5 -4.5h50q49 0 70.5 22t21.5 72v70h65v-61q0 -88 -34 -129.5t-113 -41.5h-77q-83 0 -117.5 38.5 t-34.5 122.5v71q0 60 14.5 98t47.5 58q24 14 45 23t38 17q11 5 19.5 10t14 11.5t8.5 16.5t3 25v53h70v-61z"/>
<glyph glyph-name="Agrave" horiz-adv-x="486" unicode="À" d="M350 223l-103 404l-112 -404h215zM207 725h84l196 -725h-78l-41 156h-252l-45 -156h-72zM259 788l-137 171h87l102 -171h-52z"/>
<glyph glyph-name="Aacute" horiz-adv-x="486" unicode="Á" d="M350 223l-103 404l-112 -404h215zM207 725h84l196 -725h-78l-41 156h-252l-45 -156h-72zM279 959h87l-137 -171h-52z"/>
<glyph glyph-name="Acircumflex" horiz-adv-x="486" unicode="Â" d="M350 223l-103 404l-112 -404h215zM207 725h84l196 -725h-78l-41 156h-252l-45 -156h-72zM200 959h87l96 -171h-52l-87 119l-88 -119h-52z"/>
<glyph glyph-name="Atilde" horiz-adv-x="486" unicode="Ã" d="M350 223l-103 404l-112 -404h215zM207 725h84l196 -725h-78l-41 156h-252l-45 -156h-72zM386 919q-12 -47 -37 -70.5t-60 -23.5q-9 0 -16.5 1.5t-15.5 3.5l-39 13q-15 5 -26 5q-33 0 -47 -31h-43q21 91 97 91q14 0 29 -5l38 -13q17 -5 30 -5q35 0 47 34h43z"/>
<glyph glyph-name="Adieresis" horiz-adv-x="486" unicode="Ä" d="M350 223l-103 404l-112 -404h215zM207 725h84l196 -725h-78l-41 156h-252l-45 -156h-72zM127 911h78v-91h-78v91zM283 911h78v-91h-78v91z"/>
<glyph glyph-name="Aring" horiz-adv-x="486" unicode="Å" d="M350 223l-103 404l-112 -404h215zM203 714h91l193 -714h-78l-41 156h-252l-45 -156h-72zM138 854q0 23 8.5 43t23 34.5t34.5 23t43 8.5q24 0 44 -8.5t35 -23t23.5 -34.5t8.5 -43t-8.5 -43.5t-23.5 -35.5t-35.5 -23.5t-43.5 -8.5t-43 8.5t-34.5 23.5t-23 35.5t-8.5 43.5z M185 853q0 -27 18.5 -45t44.5 -18q27 0 45 18t18 45t-18 45.5t-45 18.5q-26 0 -44.5 -19t-18.5 -45z"/>
<glyph glyph-name="AE" horiz-adv-x="674" unicode="Æ" d="M324 291v364h-36l-133 -364h169zM648 0h-324v223h-193l-81 -223h-74l271 725h401v-70h-252v-245h234v-67h-234v-274h252v-69z"/>
<glyph glyph-name="Ccedilla" horiz-adv-x="491" unicode="Ç" d="M461 244q1 -11 1 -21.5v-21.5q0 -107 -41 -158.5t-129 -51.5h-70q-47 0 -82.5 16.5t-55.5 46.5q-22 34 -26.5 74t-4.5 91v269q0 126 42.5 186t145.5 60h38q100 0 142 -49.5t42 -159.5v-16.5t-1 -17.5h-77v9q0 44 -4.5 74.5t-16.5 50t-33 28.5t-54 9h-39q-34 0 -55.5 -9.5 t-33.5 -30.5t-16 -54t-4 -80v-244q0 -53 3 -88t14 -56t32.5 -29.5t59.5 -8.5h39q36 0 57.5 7.5t32.5 26.5t14.5 50.5t3.5 79.5v18h76zM151 -164q39 -9 69 -13t51 -4q59 0 59 40q0 26 -16.5 37t-51.5 11h-12t-13 -1v94h36v-52h11q110 0 110 -86q0 -89 -121 -89q-24 0 -54 5.5 t-68 15.5v42z"/>
<glyph glyph-name="Egrave" horiz-adv-x="410" unicode="È" d="M384 0h-324v725h324v-70h-252v-243h234v-70h-234v-272h252v-70zM238 788l-137 171h87l102 -171h-52z"/>
<glyph glyph-name="Eacute" horiz-adv-x="410" unicode="É" d="M384 0h-324v725h324v-70h-252v-243h234v-70h-234v-272h252v-70zM258 959h87l-137 -171h-52z"/>
<glyph glyph-name="Ecircumflex" horiz-adv-x="410" unicode="Ê" d="M384 0h-324v725h324v-70h-252v-243h234v-70h-234v-272h252v-70zM179 959h87l96 -171h-52l-87 119l-88 -119h-52z"/>
<glyph glyph-name="Edieresis" horiz-adv-x="410" unicode="Ë" d="M384 0h-324v725h324v-70h-252v-243h234v-70h-234v-272h252v-70zM106 911h78v-91h-78v91zM262 911h78v-91h-78v91z"/>
<glyph glyph-name="Igrave" horiz-adv-x="197" unicode="Ì" d="M62 725h72v-725h-72v725zM115 788l-137 171h87l102 -171h-52z"/>
<glyph glyph-name="Iacute" horiz-adv-x="197" unicode="Í" d="M62 725h72v-725h-72v725zM135 959h87l-137 -171h-52z"/>
<glyph glyph-name="Icircumflex" horiz-adv-x="197" unicode="Î" d="M62 725h72v-725h-72v725zM56 959h87l96 -171h-52l-87 119l-88 -119h-52z"/>
<glyph glyph-name="Idieresis" horiz-adv-x="197" unicode="Ï" d="M62 725h72v-725h-72v725zM-17 911h78v-91h-78v91zM139 911h78v-91h-78v91z"/>
<glyph glyph-name="Eth" horiz-adv-x="549" unicode="Ð" d="M62 349h-62v49h62v327h182q72 0 120 -14t77 -45t41.5 -81.5t12.5 -122.5v-200q0 -72 -12.5 -122t-41.5 -81t-77 -45t-120 -14h-182v349zM230 67q59 0 97 9t59 33q23 28 28 65.5t5 90.5v195q0 53 -5 90.5t-28 65.5q-21 24 -59 33t-97 9h-96v-260h150v-49h-150v-282h96z "/>
<glyph glyph-name="Ntilde" horiz-adv-x="565" unicode="Ñ" d="M60 725h106l269 -644v644h70v-725h-110l-265 633v-633h-70v725zM425 919q-12 -47 -37 -70.5t-60 -23.5q-9 0 -16.5 1.5t-15.5 3.5l-39 13q-15 5 -26 5q-33 0 -47 -31h-43q21 91 97 91q14 0 29 -5l38 -13q17 -5 30 -5q35 0 47 34h43z"/>
<glyph glyph-name="Ograve" horiz-adv-x="544" unicode="Ò" d="M303 734q103 0 145.5 -60t42.5 -186v-252q0 -126 -42.5 -185.5t-145.5 -59.5h-62q-103 0 -145.5 59.5t-42.5 185.5v252q0 126 42.5 186t145.5 60h62zM250 662q-38 0 -61 -9.5t-36.5 -30t-18 -53.5t-4.5 -81v-252q0 -48 4.5 -81t18 -53.5t36.5 -30t61 -9.5h44 q37 0 60.5 9.5t37 30t18 53.5t4.5 81v252q0 48 -4.5 81t-18 53.5t-37 30t-60.5 9.5h-44zM287 788l-137 171h87l102 -171h-52z"/>
<glyph glyph-name="Oacute" horiz-adv-x="544" unicode="Ó" d="M303 734q103 0 145.5 -60t42.5 -186v-252q0 -126 -42.5 -185.5t-145.5 -59.5h-62q-103 0 -145.5 59.5t-42.5 185.5v252q0 126 42.5 186t145.5 60h62zM250 662q-38 0 -61 -9.5t-36.5 -30t-18 -53.5t-4.5 -81v-252q0 -48 4.5 -81t18 -53.5t36.5 -30t61 -9.5h44 q37 0 60.5 9.5t37 30t18 53.5t4.5 81v252q0 48 -4.5 81t-18 53.5t-37 30t-60.5 9.5h-44zM307 959h87l-137 -171h-52z"/>
<glyph glyph-name="Ocircumflex" horiz-adv-x="544" unicode="Ô" d="M303 734q103 0 145.5 -60t42.5 -186v-252q0 -126 -42.5 -185.5t-145.5 -59.5h-62q-103 0 -145.5 59.5t-42.5 185.5v252q0 126 42.5 186t145.5 60h62zM250 662q-38 0 -61 -9.5t-36.5 -30t-18 -53.5t-4.5 -81v-252q0 -48 4.5 -81t18 -53.5t36.5 -30t61 -9.5h44 q37 0 60.5 9.5t37 30t18 53.5t4.5 81v252q0 48 -4.5 81t-18 53.5t-37 30t-60.5 9.5h-44zM228 959h87l96 -171h-52l-87 119l-88 -119h-52z"/>
<glyph glyph-name="Otilde" horiz-adv-x="544" unicode="Õ" d="M303 734q103 0 145.5 -60t42.5 -186v-252q0 -126 -42.5 -185.5t-145.5 -59.5h-62q-103 0 -145.5 59.5t-42.5 185.5v252q0 126 42.5 186t145.5 60h62zM250 662q-38 0 -61 -9.5t-36.5 -30t-18 -53.5t-4.5 -81v-252q0 -48 4.5 -81t18 -53.5t36.5 -30t61 -9.5h44 q37 0 60.5 9.5t37 30t18 53.5t4.5 81v252q0 48 -4.5 81t-18 53.5t-37 30t-60.5 9.5h-44zM414 919q-12 -47 -37 -70.5t-60 -23.5q-9 0 -16.5 1.5t-15.5 3.5l-39 13q-15 5 -26 5q-33 0 -47 -31h-43q21 91 97 91q14 0 29 -5l38 -13q17 -5 30 -5q35 0 47 34h43z"/>
<glyph glyph-name="Odieresis" horiz-adv-x="544" unicode="Ö" d="M303 734q103 0 145.5 -60t42.5 -186v-252q0 -126 -42.5 -185.5t-145.5 -59.5h-62q-103 0 -145.5 59.5t-42.5 185.5v252q0 126 42.5 186t145.5 60h62zM250 662q-38 0 -61 -9.5t-36.5 -30t-18 -53.5t-4.5 -81v-252q0 -48 4.5 -81t18 -53.5t36.5 -30t61 -9.5h44 q37 0 60.5 9.5t37 30t18 53.5t4.5 81v252q0 48 -4.5 81t-18 53.5t-37 30t-60.5 9.5h-44zM155 911h78v-91h-78v91zM311 911h78v-91h-78v91z"/>
<glyph glyph-name="multiply" horiz-adv-x="833" unicode="×" d="M653 567l34 -34l-235 -235l235 -235l-34 -34l-235 235l-235 -235l-34 34l235 235l-235 235l34 34l235 -235z"/>
<glyph glyph-name="Oslash" horiz-adv-x="544" unicode="Ø" d="M303 734q35 0 65.5 -8.5t53.5 -24.5l44 80l49 -21l-56 -106q20 -28 26 -68.5t6 -97.5v-252q0 -126 -42.5 -185.5t-145.5 -59.5h-62q-75 0 -118 33l-47 -90l-49 25l56 108q-21 44 -25.5 85t-4.5 84v252q0 126 42.5 186t145.5 60h62zM386 634q-9 14 -32.5 22.5t-59.5 8.5 h-44q-39 0 -63 -9.5t-37.5 -30.5t-18 -54.5t-4.5 -81.5v-254q0 -19 1.5 -38.5t3.5 -39.5zM157 89q17 -17 39 -23.5t54 -6.5h44q38 0 62 9t37.5 30t18.5 54.5t5 82.5v254q0 17 -1 36t-3 41z"/>
<glyph glyph-name="Ugrave" horiz-adv-x="519" unicode="Ù" d="M272 62q39 0 62 6.5t35 23t16 43t4 67.5v523h72v-558q0 -93 -45 -134.5t-148 -41.5h-17q-104 0 -148.5 41.5t-44.5 134.5v558h72v-523q0 -41 4.5 -67.5t17.5 -43t36.5 -23t62.5 -6.5h21zM275 788l-137 171h87l102 -171h-52z"/>
<glyph glyph-name="Uacute" horiz-adv-x="519" unicode="Ú" d="M272 62q39 0 62 6.5t35 23t16 43t4 67.5v523h72v-558q0 -93 -45 -134.5t-148 -41.5h-17q-104 0 -148.5 41.5t-44.5 134.5v558h72v-523q0 -41 4.5 -67.5t17.5 -43t36.5 -23t62.5 -6.5h21zM295 959h87l-137 -171h-52z"/>
<glyph glyph-name="Ucircumflex" horiz-adv-x="519" unicode="Û" d="M272 62q39 0 62 6.5t35 23t16 43t4 67.5v523h72v-558q0 -93 -45 -134.5t-148 -41.5h-17q-104 0 -148.5 41.5t-44.5 134.5v558h72v-523q0 -41 4.5 -67.5t17.5 -43t36.5 -23t62.5 -6.5h21zM216 959h87l96 -171h-52l-87 119l-88 -119h-52z"/>
<glyph glyph-name="Udieresis" horiz-adv-x="519" unicode="Ü" d="M272 62q39 0 62 6.5t35 23t16 43t4 67.5v523h72v-558q0 -93 -45 -134.5t-148 -41.5h-17q-104 0 -148.5 41.5t-44.5 134.5v558h72v-523q0 -41 4.5 -67.5t17.5 -43t36.5 -23t62.5 -6.5h21zM143 911h78v-91h-78v91zM299 911h78v-91h-78v91z"/>
<glyph glyph-name="Yacute" horiz-adv-x="426" unicode="Ý" d="M181 303l-190 422h79l147 -350l145 350h72l-182 -422v-303h-71v303zM249 959h87l-137 -171h-52z"/>
<glyph glyph-name="Thorn" horiz-adv-x="491" unicode="Þ" d="M132 584h123q57 0 96.5 -7t63.5 -26.5t35 -54.5t11 -92v-83q0 -57 -11 -92.5t-35 -55t-63.5 -26t-96.5 -6.5h-123v-141h-72v725h72v-141zM132 208h112q37 0 63.5 2.5t43.5 12.5t24.5 28t7.5 50v124q0 32 -8 50t-24.5 27t-43 11.5t-63.5 2.5h-112v-308z"/>
<glyph glyph-name="germandbls" horiz-adv-x="461" unicode="ß" d="M61 544q0 51 8 88t27.5 61t51 35t78.5 11q85 0 123 -44t38 -138q0 -70 -25.5 -106.5t-86.5 -47.5q73 -5 107 -44t34 -117v-75q0 -90 -36.5 -133t-114.5 -43q-46 0 -84 16v63q40 -18 78 -18q48 0 67.5 28.5t19.5 91.5v56q0 39 -7.5 65.5t-25 42.5t-46 23t-71.5 7h-15v60 q4 0 8 -0.5t8 -0.5q122 0 122 137q0 116 -91 116q-30 0 -50 -9t-31.5 -28t-16 -48t-4.5 -69v-524h-65v544z"/>
<glyph glyph-name="agrave" horiz-adv-x="412" unicode="à" d="M292 46q-18 -32 -47 -44t-75 -12q-126 0 -126 129v68q0 130 134 130q40 0 68 -10.5t46 -33.5v79q0 31 -3.5 51.5t-13 32.5t-26.5 16.5t-44 4.5q-41 0 -60 -14t-19 -50v-24h-67v23q0 67 36 96.5t113 29.5q43 0 71.5 -7.5t45.5 -25t24 -46t7 -70.5v-369h-64v46zM195 50 q57 0 78 25.5t21 82.5q0 28 -4 47t-14.5 30.5t-28 16t-44.5 4.5q-28 0 -45.5 -5t-27.5 -17.5t-14 -33.5t-4 -53q0 -51 18 -74t65 -23zM230 570l-137 171h87l102 -171h-52z"/>
<glyph glyph-name="aacute" horiz-adv-x="412" unicode="á" d="M292 46q-18 -32 -47 -44t-75 -12q-126 0 -126 129v68q0 130 134 130q40 0 68 -10.5t46 -33.5v79q0 31 -3.5 51.5t-13 32.5t-26.5 16.5t-44 4.5q-41 0 -60 -14t-19 -50v-24h-67v23q0 67 36 96.5t113 29.5q43 0 71.5 -7.5t45.5 -25t24 -46t7 -70.5v-369h-64v46zM195 50 q57 0 78 25.5t21 82.5q0 28 -4 47t-14.5 30.5t-28 16t-44.5 4.5q-28 0 -45.5 -5t-27.5 -17.5t-14 -33.5t-4 -53q0 -51 18 -74t65 -23zM250 741h87l-137 -171h-52z"/>
<glyph glyph-name="acircumflex" horiz-adv-x="412" unicode="â" d="M292 46q-18 -32 -47 -44t-75 -12q-126 0 -126 129v68q0 130 134 130q40 0 68 -10.5t46 -33.5v79q0 31 -3.5 51.5t-13 32.5t-26.5 16.5t-44 4.5q-41 0 -60 -14t-19 -50v-24h-67v23q0 67 36 96.5t113 29.5q43 0 71.5 -7.5t45.5 -25t24 -46t7 -70.5v-369h-64v46zM195 50 q57 0 78 25.5t21 82.5q0 28 -4 47t-14.5 30.5t-28 16t-44.5 4.5q-28 0 -45.5 -5t-27.5 -17.5t-14 -33.5t-4 -53q0 -51 18 -74t65 -23zM171 741h87l96 -171h-52l-87 119l-88 -119h-52z"/>
<glyph glyph-name="atilde" horiz-adv-x="412" unicode="ã" d="M292 46q-18 -32 -47 -44t-75 -12q-126 0 -126 129v68q0 130 134 130q40 0 68 -10.5t46 -33.5v79q0 31 -3.5 51.5t-13 32.5t-26.5 16.5t-44 4.5q-41 0 -60 -14t-19 -50v-24h-67v23q0 67 36 96.5t113 29.5q43 0 71.5 -7.5t45.5 -25t24 -46t7 -70.5v-369h-64v46zM195 50 q57 0 78 25.5t21 82.5q0 28 -4 47t-14.5 30.5t-28 16t-44.5 4.5q-28 0 -45.5 -5t-27.5 -17.5t-14 -33.5t-4 -53q0 -51 18 -74t65 -23zM357 701q-12 -47 -37 -70.5t-60 -23.5q-9 0 -16.5 1.5t-15.5 3.5l-39 13q-15 5 -26 5q-33 0 -47 -31h-43q21 91 97 91q14 0 29 -5l38 -13 q17 -5 30 -5q35 0 47 34h43z"/>
<glyph glyph-name="adieresis" horiz-adv-x="412" unicode="ä" d="M292 46q-18 -32 -47 -44t-75 -12q-126 0 -126 129v68q0 130 134 130q40 0 68 -10.5t46 -33.5v79q0 31 -3.5 51.5t-13 32.5t-26.5 16.5t-44 4.5q-41 0 -60 -14t-19 -50v-24h-67v23q0 67 36 96.5t113 29.5q43 0 71.5 -7.5t45.5 -25t24 -46t7 -70.5v-369h-64v46zM195 50 q57 0 78 25.5t21 82.5q0 28 -4 47t-14.5 30.5t-28 16t-44.5 4.5q-28 0 -45.5 -5t-27.5 -17.5t-14 -33.5t-4 -53q0 -51 18 -74t65 -23zM98 693h78v-91h-78v91zM254 693h78v-91h-78v91z"/>
<glyph glyph-name="aring" horiz-adv-x="412" unicode="å" d="M292 46q-18 -32 -47 -44t-75 -12q-126 0 -126 129v68q0 130 134 130q40 0 68 -10.5t46 -33.5v79q0 31 -3.5 51.5t-13 32.5t-26.5 16.5t-44 4.5q-41 0 -60 -14t-19 -50v-24h-67v23q0 67 36 96.5t113 29.5q43 0 71.5 -7.5t45.5 -25t24 -46t7 -70.5v-369h-64v46zM195 50 q57 0 78 25.5t21 82.5q0 28 -4 47t-14.5 30.5t-28 16t-44.5 4.5q-28 0 -45.5 -5t-27.5 -17.5t-14 -33.5t-4 -53q0 -51 18 -74t65 -23zM92 670q0 25 9.5 47.5t25.5 38.5t38 25.5t48 9.5q25 0 47.5 -9.5t38.5 -25.5t25.5 -38.5t9.5 -47.5q0 -26 -9.5 -48t-25.5 -38 t-38.5 -25.5t-47.5 -9.5q-26 0 -48 9.5t-38 25.5t-25.5 38t-9.5 48zM143 669q0 -29 20.5 -49t49.5 -20t49 20t20 49t-20 49.5t-49 20.5q-30 0 -50 -20.5t-20 -49.5z"/>
<glyph glyph-name="ae" horiz-adv-x="648" unicode="æ" d="M549 304v32q0 33 -4 56t-15 37.5t-29.5 20.5t-47.5 6t-47.5 -6t-29 -20t-15 -37t-4.5 -57v-32h192zM194 50q56 0 76.5 25.5t20.5 82.5q0 28 -4 47t-14 30.5t-27 16t-44 4.5t-44.5 -5t-27.5 -17.5t-14 -33.5t-4 -53q0 -51 18 -74t64 -23zM330 468q31 48 122 48 q45 0 76 -10.5t49.5 -34.5t26.5 -62.5t8 -94.5v-73h-255v-48q0 -39 3 -65t12.5 -42t28 -23t50.5 -7q28 0 47.5 4t31.5 13.5t17.5 26t5.5 41.5v16h58v-17q0 -81 -38 -115t-122 -34q-57 0 -90.5 16.5t-50.5 55.5q-23 -43 -55 -58t-85 -15q-65 0 -95 31.5t-30 97.5v68 q0 130 132 130q40 0 67 -10.5t45 -33.5v79q0 31 -3 51t-12.5 32t-26 17t-43.5 5q-40 0 -59 -14.5t-19 -49.5v-24h-67v23q0 66 35.5 96t110.5 30q48 0 77.5 -10t47.5 -40z"/>
<glyph glyph-name="ccedilla" horiz-adv-x="405" unicode="ç" d="M373 166q0 -93 -38 -134t-121 -41q-47 0 -79 10.5t-51.5 34.5t-28 63t-8.5 95v120q0 56 8.5 94.5t28.5 62.5t52 34.5t79 10.5q80 0 113.5 -35t33.5 -115v-25h-65v9q0 56 -20 78.5t-69 22.5q-31 0 -49 -7t-27.5 -23t-12.5 -42.5t-3 -64.5v-121q0 -38 3 -64.5t13 -43 t28.5 -23.5t50.5 -7q29 0 47.5 6t29 19.5t14.5 34.5t4 52v20h67v-21zM105 -164q39 -9 69 -13t51 -4q59 0 59 40q0 26 -16.5 37t-51.5 11h-12t-13 -1v94h36v-52h11q110 0 110 -86q0 -89 -121 -89q-24 0 -54 5.5t-68 15.5v42z"/>
<glyph glyph-name="egrave" horiz-adv-x="419" unicode="è" d="M116 193q0 -39 3 -65.5t13 -42t29.5 -22.5t52.5 -7q59 0 82.5 17.5t23.5 67.5v16h60v-17q0 -81 -39.5 -115t-126.5 -34q-47 0 -79 11t-51.5 35t-28 62.5t-8.5 94.5v120q0 56 8.5 94.5t28.5 62.5t52 34.5t79 10.5t78.5 -10.5t51 -34.5t28 -62.5t8.5 -94.5v-73h-265v-48z M316 304v32q0 34 -4.5 57t-15.5 37t-30.5 20t-49.5 6t-49 -6t-30.5 -20t-16 -37t-4.5 -57v-32h200zM236 570l-137 171h87l102 -171h-52z"/>
<glyph glyph-name="eacute" horiz-adv-x="419" unicode="é" d="M116 193q0 -39 3 -65.5t13 -42t29.5 -22.5t52.5 -7q59 0 82.5 17.5t23.5 67.5v16h60v-17q0 -81 -39.5 -115t-126.5 -34q-47 0 -79 11t-51.5 35t-28 62.5t-8.5 94.5v120q0 56 8.5 94.5t28.5 62.5t52 34.5t79 10.5t78.5 -10.5t51 -34.5t28 -62.5t8.5 -94.5v-73h-265v-48z M316 304v32q0 34 -4.5 57t-15.5 37t-30.5 20t-49.5 6t-49 -6t-30.5 -20t-16 -37t-4.5 -57v-32h200zM256 741h87l-137 -171h-52z"/>
<glyph glyph-name="ecircumflex" horiz-adv-x="419" unicode="ê" d="M116 193q0 -39 3 -65.5t13 -42t29.5 -22.5t52.5 -7q59 0 82.5 17.5t23.5 67.5v16h60v-17q0 -81 -39.5 -115t-126.5 -34q-47 0 -79 11t-51.5 35t-28 62.5t-8.5 94.5v120q0 56 8.5 94.5t28.5 62.5t52 34.5t79 10.5t78.5 -10.5t51 -34.5t28 -62.5t8.5 -94.5v-73h-265v-48z M316 304v32q0 34 -4.5 57t-15.5 37t-30.5 20t-49.5 6t-49 -6t-30.5 -20t-16 -37t-4.5 -57v-32h200zM177 741h87l96 -171h-52l-87 119l-88 -119h-52z"/>
<glyph glyph-name="edieresis" horiz-adv-x="419" unicode="ë" d="M116 193q0 -39 3 -65.5t13 -42t29.5 -22.5t52.5 -7q59 0 82.5 17.5t23.5 67.5v16h60v-17q0 -81 -39.5 -115t-126.5 -34q-47 0 -79 11t-51.5 35t-28 62.5t-8.5 94.5v120q0 56 8.5 94.5t28.5 62.5t52 34.5t79 10.5t78.5 -10.5t51 -34.5t28 -62.5t8.5 -94.5v-73h-265v-48z M316 304v32q0 34 -4.5 57t-15.5 37t-30.5 20t-49.5 6t-49 -6t-30.5 -20t-16 -37t-4.5 -57v-32h200zM104 693h78v-91h-78v91zM260 693h78v-91h-78v91z"/>
<glyph glyph-name="igrave" horiz-adv-x="171" unicode="ì" d="M55 507h65v-507h-65v507zM102 570l-137 171h87l102 -171h-52z"/>
<glyph glyph-name="iacute" horiz-adv-x="171" unicode="í" d="M55 507h65v-507h-65v507zM122 741h87l-137 -171h-52z"/>
<glyph glyph-name="icircumflex" horiz-adv-x="171" unicode="î" d="M55 507h65v-507h-65v507zM43 741h87l96 -171h-52l-87 119l-88 -119h-52z"/>
<glyph glyph-name="idieresis" horiz-adv-x="171" unicode="ï" d="M55 507h65v-507h-65v507zM-30 693h78v-91h-78v91zM126 693h78v-91h-78v91z"/>
<glyph glyph-name="eth" horiz-adv-x="428" unicode="ð" d="M47 314q0 105 34 153.5t115 48.5q37 0 60 -13.5t47 -48.5q-22 87 -76 171l-145 -52l-21 51l132 48l-37 55h73l22 -32l90 33l22 -52l-75 -28q41 -67 67 -147.5t26 -182.5v-124q0 -56 -8.5 -95t-28 -63t-51.5 -34.5t-79 -10.5t-79 11t-51.5 35t-28 62.5t-8.5 94.5v120z M116 193q0 -39 3 -65t13.5 -42.5t30 -23.5t51.5 -7t51 7t29.5 23.5t14 42.5t3.5 65v121q0 39 -3 65t-13.5 42t-30 23t-51.5 7t-51 -7t-29.5 -23t-14 -42t-3.5 -65v-121z"/>
<glyph glyph-name="ntilde" horiz-adv-x="431" unicode="ñ" d="M311 322q0 70 -16.5 102.5t-65.5 32.5q-31 0 -51 -10.5t-32 -32t-17 -54t-5 -76.5v-284h-65v507h60v-59q38 68 124 68q74 0 103.5 -42t29.5 -134v-340h-65v322zM359 701q-12 -47 -37 -70.5t-60 -23.5q-9 0 -16.5 1.5t-15.5 3.5l-39 13q-15 5 -26 5q-33 0 -47 -31h-43 q21 91 97 91q14 0 29 -5l38 -13q17 -5 30 -5q35 0 47 34h43z"/>
<glyph glyph-name="ograve" horiz-adv-x="428" unicode="ò" d="M381 194q0 -56 -8.5 -95t-28 -63t-51.5 -34.5t-79 -10.5t-79 11t-51.5 35t-28 62.5t-8.5 94.5v120q0 56 8.5 94.5t28.5 62.5t52 34.5t79 10.5t78.5 -10.5t51 -34.5t28 -62.5t8.5 -94.5v-120zM116 193q0 -39 3 -65t13.5 -42.5t30 -23.5t51.5 -7t51 7t29.5 23.5t14 42.5 t3.5 65v121q0 39 -3 65t-13.5 42t-30 23t-51.5 7t-51 -7t-29.5 -23t-14 -42t-3.5 -65v-121zM230 570l-137 171h87l102 -171h-52z"/>
<glyph glyph-name="oacute" horiz-adv-x="428" unicode="ó" d="M381 194q0 -56 -8.5 -95t-28 -63t-51.5 -34.5t-79 -10.5t-79 11t-51.5 35t-28 62.5t-8.5 94.5v120q0 56 8.5 94.5t28.5 62.5t52 34.5t79 10.5t78.5 -10.5t51 -34.5t28 -62.5t8.5 -94.5v-120zM116 193q0 -39 3 -65t13.5 -42.5t30 -23.5t51.5 -7t51 7t29.5 23.5t14 42.5 t3.5 65v121q0 39 -3 65t-13.5 42t-30 23t-51.5 7t-51 -7t-29.5 -23t-14 -42t-3.5 -65v-121zM250 741h87l-137 -171h-52z"/>
<glyph glyph-name="ocircumflex" horiz-adv-x="428" unicode="ô" d="M381 194q0 -56 -8.5 -95t-28 -63t-51.5 -34.5t-79 -10.5t-79 11t-51.5 35t-28 62.5t-8.5 94.5v120q0 56 8.5 94.5t28.5 62.5t52 34.5t79 10.5t78.5 -10.5t51 -34.5t28 -62.5t8.5 -94.5v-120zM116 193q0 -39 3 -65t13.5 -42.5t30 -23.5t51.5 -7t51 7t29.5 23.5t14 42.5 t3.5 65v121q0 39 -3 65t-13.5 42t-30 23t-51.5 7t-51 -7t-29.5 -23t-14 -42t-3.5 -65v-121zM171 741h87l96 -171h-52l-87 119l-88 -119h-52z"/>
<glyph glyph-name="otilde" horiz-adv-x="428" unicode="õ" d="M381 194q0 -56 -8.5 -95t-28 -63t-51.5 -34.5t-79 -10.5t-79 11t-51.5 35t-28 62.5t-8.5 94.5v120q0 56 8.5 94.5t28.5 62.5t52 34.5t79 10.5t78.5 -10.5t51 -34.5t28 -62.5t8.5 -94.5v-120zM116 193q0 -39 3 -65t13.5 -42.5t30 -23.5t51.5 -7t51 7t29.5 23.5t14 42.5 t3.5 65v121q0 39 -3 65t-13.5 42t-30 23t-51.5 7t-51 -7t-29.5 -23t-14 -42t-3.5 -65v-121zM357 701q-12 -47 -37 -70.5t-60 -23.5q-9 0 -16.5 1.5t-15.5 3.5l-39 13q-15 5 -26 5q-33 0 -47 -31h-43q21 91 97 91q14 0 29 -5l38 -13q17 -5 30 -5q35 0 47 34h43z"/>
<glyph glyph-name="odieresis" horiz-adv-x="428" unicode="ö" d="M381 194q0 -56 -8.5 -95t-28 -63t-51.5 -34.5t-79 -10.5t-79 11t-51.5 35t-28 62.5t-8.5 94.5v120q0 56 8.5 94.5t28.5 62.5t52 34.5t79 10.5t78.5 -10.5t51 -34.5t28 -62.5t8.5 -94.5v-120zM116 193q0 -39 3 -65t13.5 -42.5t30 -23.5t51.5 -7t51 7t29.5 23.5t14 42.5 t3.5 65v121q0 39 -3 65t-13.5 42t-30 23t-51.5 7t-51 -7t-29.5 -23t-14 -42t-3.5 -65v-121zM98 693h78v-91h-78v91zM254 693h78v-91h-78v91z"/>
<glyph glyph-name="divide" horiz-adv-x="833" unicode="÷" d="M417 523q22 0 37 -15.5t15 -37.5q0 -21 -14.5 -36.5t-37.5 -15.5t-37.5 15t-14.5 37t15.5 37.5t36.5 15.5zM709 274h-585v48h585v-48zM417 178q22 0 37 -15t15 -37q0 -21 -14.5 -36.5t-37.5 -15.5q-22 0 -37 15t-15 37t15.5 37t36.5 15z"/>
<glyph glyph-name="oslash" horiz-adv-x="428" unicode="ø" d="M69 59q-9 17 -15.5 51t-6.5 84v120q0 56 8.5 94.5t28.5 62.5t52 34.5t79 10.5q35 0 62.5 -6.5t49.5 -20.5l38 62l37 -22l-45 -77q11 -20 17.5 -54.5t6.5 -83.5v-120q0 -56 -8.5 -95t-28 -63t-51.5 -34.5t-79 -10.5q-82 0 -117 31l-46 -78l-37 23zM292 430 q-12 14 -31.5 18.5t-48.5 4.5q-32 0 -51.5 -7t-30 -23.5t-14 -43t-3.5 -65.5v-178zM133 81q20 -27 81 -27q33 0 53 7t30.5 23.5t14 43t3.5 65.5v121v22t-2 39z"/>
<glyph glyph-name="ugrave" horiz-adv-x="431" unicode="ù" d="M120 185q0 -70 17 -102.5t66 -32.5q61 0 82.5 42.5t21.5 130.5v284h65v-507h-60v59q-38 -68 -124 -68q-74 0 -103.5 42t-29.5 134v340h65v-322zM232 570l-137 171h87l102 -171h-52z"/>
<glyph glyph-name="uacute" horiz-adv-x="431" unicode="ú" d="M120 185q0 -70 17 -102.5t66 -32.5q61 0 82.5 42.5t21.5 130.5v284h65v-507h-60v59q-38 -68 -124 -68q-74 0 -103.5 42t-29.5 134v340h65v-322zM252 741h87l-137 -171h-52z"/>
<glyph glyph-name="ucircumflex" horiz-adv-x="431" unicode="û" d="M120 185q0 -70 17 -102.5t66 -32.5q61 0 82.5 42.5t21.5 130.5v284h65v-507h-60v59q-38 -68 -124 -68q-74 0 -103.5 42t-29.5 134v340h65v-322zM173 741h87l96 -171h-52l-87 119l-88 -119h-52z"/>
<glyph glyph-name="udieresis" horiz-adv-x="431" unicode="ü" d="M120 185q0 -70 17 -102.5t66 -32.5q61 0 82.5 42.5t21.5 130.5v284h65v-507h-60v59q-38 -68 -124 -68q-74 0 -103.5 42t-29.5 134v340h65v-322zM100 693h78v-91h-78v91zM256 693h78v-91h-78v91z"/>
<glyph glyph-name="yacute" horiz-adv-x="387" unicode="ý" d="M17 507h68l110 -444l110 444h64l-130 -507q-12 -46 -24 -81t-28 -59t-38 -36t-52 -12q-21 0 -44 5v61q6 -1 12 -1.5t12 -0.5q35 0 55.5 20t31.5 64l10 40h-27zM230 741h87l-137 -171h-52z"/>
<glyph glyph-name="thorn" horiz-adv-x="428" unicode="þ" d="M124 213q0 -41 4.5 -71.5t15.5 -50t31 -29t52 -9.5q52 0 69.5 38t17.5 119v87q0 81 -17.5 119t-69.5 38q-32 0 -52 -9.5t-31 -29t-15.5 -50t-4.5 -71.5v-81zM124 452q41 64 123 64q78 0 107 -56t29 -175v-78q0 -110 -30.5 -163t-107.5 -53q-80 0 -121 64v-243h-65v926h65 v-286z"/>
<glyph glyph-name="dotlessi" horiz-adv-x="171" unicode="ı" d="M55 507h65v-507h-65v507z"/>
<glyph glyph-name="OE" horiz-adv-x="697" unicode="Œ" d="M671 0h-287v52q-40 -61 -119 -61h-50q-89 0 -125.5 59.5t-36.5 185.5v252q0 126 36.5 186t125.5 60h50q79 0 119 -63v54h287v-70h-224v-245h205v-67h-205v-274h224v-69zM231 662q-32 0 -52 -9.5t-31 -30.5t-14.5 -54t-3.5 -80v-252q0 -47 3.5 -80t14.5 -54t31 -30.5 t52 -9.5h36q32 0 52 9.5t31 30.5t14.5 54t3.5 80v252q0 46 -3.5 79t-14.5 54t-31 31t-52 10h-36z"/>
<glyph glyph-name="oe" horiz-adv-x="660" unicode="œ" d="M369 193q0 -39 3 -65t12.5 -42t28 -23t50.5 -7q55 0 78.5 17.5t23.5 67.5v16h57v-17q0 -81 -38 -115t-122 -34q-47 0 -77.5 11t-50.5 37q-17 -26 -48 -37t-79 -11q-45 0 -75.5 11t-49.5 35t-27 62.5t-8 94.5v120q0 56 8.5 94.5t27 62.5t49.5 34.5t76 10.5q47 0 78 -11 t50 -37q17 26 48 37t79 11q45 0 76 -11t50 -35t27 -62.5t8 -93.5v-73h-255v-48zM561 304v32q0 33 -4 56t-14.5 37.5t-29.5 20.5t-48 6t-47.5 -6t-29.5 -20t-15.5 -37t-4.5 -57v-32h193zM113 193q0 -38 3 -64.5t13 -43t28.5 -23.5t49.5 -7t49.5 7t28.5 23.5t13 43t3 64.5v121 q0 38 -3 64.5t-13 42.5t-28.5 23t-49.5 7t-49.5 -7t-28.5 -23t-13 -42.5t-3 -64.5v-121z"/>
<glyph glyph-name="Scaron" d="M453 148q0 -81 -42 -119t-131 -38h-65q-53 0 -87 11.5t-54 36t-27.5 64t-7.5 95.5v37h75v-61q0 -62 21 -87t78 -25h71q53 0 72.5 21.5t19.5 75.5v62q0 18 -1.5 34.5t-9.5 32.5q-13 25 -52 33t-106 19q-35 6 -59.5 11t-39.5 14q-55 35 -55 122v90q0 81 42 119t131 38h52 q48 0 81.5 -10.5t54 -33t30 -57.5t9.5 -85v-21h-75v24q0 62 -20.5 86.5t-77.5 24.5h-59q-53 0 -72.5 -21t-19.5 -75v-78q0 -26 8.5 -40t25.5 -21t42.5 -10t59.5 -9q51 -8 86.5 -18.5t58 -27.5t33 -43.5t10.5 -66.5v-104zM162 959l88 -119l87 119h52l-96 -171h-87l-96 171h52 z" unicode="Š"/>
<glyph glyph-name="scaron" horiz-adv-x="398" unicode="š" d="M356 107q0 -116 -134 -116h-57q-36 0 -60 6t-38 20t-20 37t-6 56v52h64v-31q0 -22 2 -37.5t9 -25t20 -13.5t35 -4h45q40 0 56 14.5t16 49.5v48q0 22 -6 34.5t-19.5 19t-34.5 10t-52 8.5q-35 6 -59.5 11.5t-40 15.5t-22.5 26.5t-7 43.5v68q0 116 134 116h45q36 0 60 -6 t38 -20t20 -37t6 -56v-21h-64v14q0 37 -14 51.5t-52 14.5h-33q-40 0 -56 -14t-16 -49v-49q0 -18 7.5 -27t24 -14.5t44 -9.5t68.5 -10q53 -8 75 -33t22 -75v-68zM112 741l88 -119l87 119h52l-96 -171h-87l-96 171h52z"/>
<glyph glyph-name="Ydieresis" horiz-adv-x="426" unicode="Ÿ" d="M181 303l-190 422h79l147 -350l145 350h72l-182 -422v-303h-71v303zM97 911h78v-91h-78v91zM253 911h78v-91h-78v91z"/>
<glyph glyph-name="circumflex" d="M206 741h87l96 -171h-52l-87 119l-88 -119h-52z" unicode="ˆ"/>
<glyph glyph-name="caron" d="M162 741l88 -119l87 119h52l-96 -171h-87l-96 171h52z" unicode="ˇ"/>
<glyph glyph-name="tilde" d="M392 701q-12 -47 -37 -70.5t-60 -23.5q-9 0 -16.5 1.5t-15.5 3.5l-39 13q-15 5 -26 5q-33 0 -47 -31h-43q21 91 97 91q14 0 29 -5l38 -13q17 -5 30 -5q35 0 47 34h43z" unicode="˜"/>
<glyph glyph-name="endash" d="M0 284h500v-49h-500v49z" unicode="–"/>
<glyph glyph-name="emdash" horiz-adv-x="1000" unicode="—" d="M1000 284v-49h-1000v49h1000z"/>
<glyph glyph-name="quoteleft" horiz-adv-x="250" unicode="‘" d="M86 643q0 47 14 69t49 22h6t9 -1v-39q-19 -1 -26 -8.5t-7 -25.5v-45h28v-97h-73v125z"/>
<glyph glyph-name="quotesinglbase" horiz-adv-x="250" unicode="‚" d="M161 -28q0 -47 -14 -69t-49 -22h-6t-9 1v40q19 1 26 8t7 25v45h-28v97h73v-125z"/>
<glyph glyph-name="quotedblleft" horiz-adv-x="389" unicode="“" d="M86 643q0 47 14 69t49 22h6t9 -1v-39q-19 -1 -26 -8.5t-7 -25.5v-45h28v-97h-73v125zM225 643q0 47 13.5 69t48.5 22h6.5t9.5 -1v-39q-19 -1 -26 -8.5t-7 -25.5v-45h28v-97h-73v125z"/>
<glyph glyph-name="quotedblright" horiz-adv-x="389" unicode="”" d="M164 600q0 -47 -14 -69t-49 -22h-6t-9 1v39q19 1 25.5 8.5t6.5 25.5v44h-27v98h73v-125zM303 600q0 -47 -14 -69t-49 -22h-6t-9 1v39q19 1 25.5 8.5t6.5 25.5v44h-28v98h74v-125z"/>
<glyph glyph-name="dagger" horiz-adv-x="389" unicode="†" d="M228 725v-206h113v-60h-113v-468h-67v468h-113v60h113v206h67z"/>
<glyph glyph-name="daggerdbl" horiz-adv-x="389" unicode="‡" d="M161 185h-97v60h97v242h-97v60h97v178h67v-178h97v-60h-97v-242h97v-60h-97v-194h-67v194z"/>
<glyph glyph-name="ellipsis" horiz-adv-x="1000" unicode="…" d="M130 97h74v-97h-74v97zM463 97h74v-97h-74v97zM797 97h74v-97h-74v97z"/>
<glyph glyph-name="perthousand" horiz-adv-x="1157" unicode="‰" d="M543 734h59l-331 -743h-59zM255 551q0 33 -1.5 55.5t-9 36.5t-22.5 20t-41 6t-41 -6t-22.5 -20t-9 -36.5t-1.5 -55.5v-99q0 -33 1.5 -55.5t9 -36.5t22.5 -20t41 -6t41 6t22.5 20t9 36.5t1.5 55.5v99zM318 446q0 -87 -22 -128t-88 -41h-54q-66 0 -88 41t-22 128v111 q0 87 22 128.5t88 41.5h54q66 0 88 -41.5t22 -128.5v-111zM707 273q0 33 -1.5 55.5t-9 36t-22.5 19.5t-41 6t-41 -6t-22.5 -19.5t-9 -36t-1.5 -55.5v-100q0 -33 1.5 -55.5t9 -36t22.5 -19.5t41 -6t41 6t22.5 19.5t9 36t1.5 55.5v100zM770 167q0 -87 -22 -128t-88 -41h-54 q-66 0 -88 41t-22 128v111q0 87 22 128.5t88 41.5h54q66 0 88 -41.5t22 -128.5v-111zM1050 273q0 33 -1.5 55.5t-9 36t-22.5 19.5t-41 6t-41 -6t-22.5 -19.5t-9 -36t-1.5 -55.5v-100q0 -33 1.5 -55.5t9 -36t22.5 -19.5t41 -6t41 6t22.5 19.5t9 36t1.5 55.5v100zM1113 167 q0 -87 -22 -128t-88 -41h-54q-66 0 -88 41t-22 128v111q0 87 22 128.5t88 41.5h54q66 0 88 -41.5t22 -128.5v-111z"/>
<glyph glyph-name="guilsinglleft" horiz-adv-x="238" unicode="‹" d="M47 253l87 158h70l-86 -158l86 -157h-70z"/>
<glyph glyph-name="guilsinglright" horiz-adv-x="238" unicode="›" d="M192 253l-87 -157h-71l87 157l-87 158h71z"/>
<glyph glyph-name="trademark" horiz-adv-x="833" unicode="™" d="M339 682h-84v-231h-40v231h-86v28h210v-28zM539 504l76 206h57v-259h-35v228l-86 -228h-24l-91 228v-228h-35v259h57z"/>
<glyph glyph-name="minus" horiz-adv-x="833" unicode="−" d="M709 274h-585v48h585v-48z"/>
</font>
</defs>
</svg>
