<?xml version="1.0" encoding="UTF-8" standalone="no"?>
<!DOCTYPE svg  PUBLIC '-//W3C//DTD SVG 1.1//EN'  'http://www.w3.org/Graphics/SVG/1.1/DTD/svg11.dtd'>
<svg xmlns="http://www.w3.org/2000/svg">
<defs>
<font id="Square721Blk-Italic" horiz-adv-x="729">
<font-face underline-position="-140" font-weight="700" descent="-200" panose-1="2 11 9 4 2 2 2 13 2 4" units-per-em="1000" unicode-range="U+0020-25CA" bbox="-16 -242 1296 969" x-height="514" underline-thickness="40" font-family="Square721Blk" ascent="800" font-style="italic" cap-height="727"/>
<missing-glyph horiz-adv-x="1000"/>
<glyph glyph-name=".notdef" horiz-adv-x="1000"/>
<glyph glyph-name=".null" horiz-adv-x="0"/>
<glyph glyph-name="nonmarkingreturn" horiz-adv-x="1000"/>
<glyph glyph-name="space" horiz-adv-x="277" unicode=" "/>
<glyph glyph-name="exclam" horiz-adv-x="383" unicode="!" d="M306 189l-23 -189h-180l23 189h180zM372 727l-54 -445h-180l54 445h180z"/>
<glyph glyph-name="quotedbl" horiz-adv-x="469" unicode='&quot;' d="M283 730l-16 -130l-58 -130h-54l-26 130l16 130h138zM519 730l-16 -130l-58 -130h-54l-26 130l16 130h138z"/>
<glyph glyph-name="numbersign" horiz-adv-x="550" unicode="#" d="M358 380h-104l-24 -124h102zM562 380h-98l-24 -124h94v-112h-118l-34 -174h-106l34 174h-102l-32 -174h-106l32 174h-90v112h112l24 124h-96v114h118l38 202h106l-38 -202h100l40 202h104l-38 -202h80v-114z"/>
<glyph glyph-name="dollar" horiz-adv-x="723" unicode="$" d="M724 560l-7 -58h-207l2 17q1 5 1 10q0 19 -11 28t-46 9h-45q-39 0 -55.5 -7.5t-19.5 -30.5l-4 -29v-5q0 -22 24 -27q12 -3 42 -6l142 -16q173 -19 173 -153q0 -7 -1 -15.5t-1 -13.5l-8 -68q-11 -93 -76 -148.5t-166 -55.5h-62l-16 -130h-80l16 130h-17 q-119 0 -175.5 37.5t-56.5 117.5l2 34l7 59h207l-2 -17q-1 -9 -1 -12q0 -26 17.5 -36.5t61.5 -10.5h49q70 0 75 43l4 31v6q0 23 -22 30q-13 4 -42 7l-156 16q-158 18 -158 155q0 18 3 41l6 44q6 53 28 93t56.5 65.5t77 33.5t111.5 8h16l13 106h80l-13 -106h21 q214 0 214 -152q0 -16 -1 -24z"/>
<glyph glyph-name="percent" horiz-adv-x="909" unicode="%" d="M759 195q3 20 3 33q0 25 -30 25h-13q-24 0 -30.5 -11t-10.5 -47l-6 -52q-3 -20 -3 -32q0 -25 30 -25h13q23 0 30 11.5t11 45.5zM341 583q3 20 3 33q0 25 -30 25h-13q-24 0 -30.5 -11t-10.5 -47l-7 -52q-3 -20 -3 -32q0 -25 30 -25h13q23 0 30 11.5t11 45.5zM883 203 l-8 -67q-10 -78 -45.5 -109.5t-113.5 -31.5h-45q-68 0 -97.5 23.5t-29.5 78.5q0 18 3 39l8 67q10 78 45.5 109.5t113.5 31.5h45q68 0 97.5 -23.5t29.5 -78.5q0 -18 -3 -39zM810 736l-515 -730h-80l507 730h88zM465 591l-9 -67q-9 -78 -44.5 -109.5t-113.5 -31.5h-45 q-70 0 -98.5 23.5t-28.5 80.5q0 24 2 37l9 67q9 78 44.5 109.5t114.5 31.5h45q69 0 97.5 -23.5t28.5 -80.5v-13z"/>
<glyph glyph-name="ampersand" horiz-adv-x="774" unicode="&amp;" d="M479 165l-178 171q-15 -3 -19 -15.5t-8 -46.5l-8 -64q-1 -4 -1 -12q0 -43 62 -43h114q25 0 38 10zM787 101l-119 -119l-73 70q-34 -31 -80 -43.5t-116 -12.5h-93q-124 0 -182.5 37.5t-58.5 118.5v15q2 11 2 16l11 89q16 129 128 156q-36 41 -36 91v11q2 8 2 12l4 37 q10 84 71 120.5t184 36.5h56q113 0 166 -30.5t53 -99.5q0 -7 -1 -15t-1 -12l-10 -85h-180l7 60q3 26 -38 26h-75q-42 0 -45 -26l-3 -22q-2 -17 8 -24l185 -181l8 65h178l-15 -125q-3 -28 -8 -46t-16 -36z"/>
<glyph glyph-name="quotesingle" horiz-adv-x="237" unicode="&apos;" d="M283 730l-16 -130l-58 -130h-54l-26 130l16 130h138z"/>
<glyph glyph-name="parenleft" horiz-adv-x="331" unicode="(" d="M400 730q-74 -105 -123 -216q-55 -125 -70 -242q-6 -48 -6 -98q0 -102 23 -202.5t61 -173.5h-100q-42 89 -56 124q-26 63 -41 127.5t-15 133.5q0 14 0.5 26.5t4.5 54.5q12 98 50 190q32 77 82 153q25 37 90 123h100z"/>
<glyph glyph-name="parenright" horiz-adv-x="331" unicode=")" d="M324 264q-11 -90 -43 -172q-26 -67 -77 -148q-32 -51 -101 -146h-100q71 91 125 221t69 253q6 47 6 91q0 95 -24 193q-20 82 -61 174h100q38 -74 50 -103q29 -66 43 -125q18 -74 18 -153q0 -20 -1 -41.5t-4 -43.5z"/>
<glyph glyph-name="asterisk" horiz-adv-x="386" unicode="*" d="M426 574l-112 -38l66 -96l-71 -54l-62 96l-80 -96l-57 54l88 96l-104 38l35 72l98 -38l15 122h78l-15 -122l104 38z"/>
<glyph glyph-name="plus" horiz-adv-x="578" unicode="+" d="M542 172h-182v-182h-120v182h-182v120h182v182h120v-182h182v-120z"/>
<glyph glyph-name="comma" horiz-adv-x="383" unicode="," d="M305 175l-24 -197q-5 -46 -50 -75.5t-118 -29.5h-25l11 87h13q41 0 46 29v4h-55l22 182h180z"/>
<glyph glyph-name="hyphen" horiz-adv-x="331" unicode="-" d="M306 208h-272v136h272v-136z"/>
<glyph glyph-name="hyphen" horiz-adv-x="331" unicode="­" d="M306 208h-272v136h272v-136z"/>
<glyph glyph-name="period" horiz-adv-x="383" unicode="." d="M304 174l-21 -174h-180l21 174h180z"/>
<glyph glyph-name="slash" horiz-adv-x="277" unicode="/" d="M282 730l-210 -730h-64l210 730h64z"/>
<glyph glyph-name="zero" d="M521 432q2 20 4 38t2 29q0 33 -16 46.5t-59 13.5h-31q-57 0 -74.5 -24.5t-27.5 -102.5l-17 -136q-5 -41 -5 -49v-14q0 -37 15.5 -50.5t60.5 -13.5h31q58 0 76 27q14 21 24 100zM730 438l-18 -148q-20 -165 -86.5 -232t-215.5 -67h-87q-128 0 -181 47t-53 160q0 41 6 92 l18 148q20 165 85.5 231.5t215.5 66.5h87q127 0 181 -48t54 -161q0 -39 -6 -89z" unicode="0"/>
<glyph glyph-name="one" d="M664 727l-89 -727h-203l63 515l-178 -139l-107 134l285 216z" unicode="1"/>
<glyph glyph-name="two" d="M731 543l-8 -59q-19 -162 -164 -200l-213 -54q-35 -9 -39 -35l-2 -19h376l-22 -176h-586l22 178q19 159 149 195l219 62q29 8 41 18t15 33l3 28q1 5 1 9v6q0 25 -16 35t-52 10h-32q-39 0 -57.5 -13.5t-22.5 -46.5l-6 -49h-200l9 73q12 97 78.5 147.5t182.5 50.5h106 q105 0 162.5 -45t57.5 -123v-12q-2 -9 -2 -13z" unicode="2"/>
<glyph glyph-name="three" d="M719 549l-5 -46q-12 -93 -101 -127q81 -33 81 -117q0 -6 -1 -14t-1 -12l-7 -53q-11 -88 -81 -138.5t-187 -50.5h-110q-105 0 -163 44t-58 122q0 6 1 14.5t1 12.5l9 74h204l-6 -43q-1 -8 -1 -12q0 -48 70 -48h34q75 0 82 55l3 26q1 5 1 9q0 46 -69 46h-70l20 162h68 q68 0 74 53l2 18q1 5 1 9q0 42 -61 42h-31q-37 0 -54 -13t-22 -47l-4 -34h-202l7 58q12 94 82 145.5t190 51.5h79q227 0 227 -159q0 -7 -1 -15t-1 -13z" unicode="3"/>
<glyph glyph-name="four" d="M474 538l-205 -241h175zM732 297l-19 -161h-86l-17 -136h-202l17 136h-365l25 198l337 393h277l-53 -430h86z" unicode="4"/>
<glyph glyph-name="five" d="M718 727l-19 -159h-347l-11 -91q43 35 116 35h42q107 0 155.5 -38.5t48.5 -124.5q0 -21 -3 -47l-12 -101q-15 -117 -80 -163t-211 -46h-68q-114 0 -173.5 42.5t-59.5 120.5v12q2 9 2 13l6 48h201l-3 -22q-1 -8 -1 -12q0 -23 16 -30.5t56 -7.5h27q48 0 64 11.5t21 51.5 l8 70q0 6 1 14t1 11q0 25 -14.5 32t-56.5 7h-27q-36 0 -42 -1q-29 -5 -36 -36h-192l50 411h541z" unicode="5"/>
<glyph glyph-name="six" d="M497 251q1 5 1 13q0 20 -13.5 25t-54.5 5h-39q-45 0 -59.5 -7t-18.5 -36l-7 -53q-1 -4 -1 -7.5v-4.5q0 -21 14 -27t55 -6h39q46 0 59.5 7.5t17.5 37.5zM721 567l-7 -53h-202l2 19q1 5 1 13q0 17 -11 23t-39 6h-48q-40 0 -53.5 -9.5t-17.5 -42.5l-12 -102q47 33 113 33h71 q184 0 184 -157q0 -21 -3 -45l-8 -65q-24 -196 -276 -196h-86q-120 0 -171 47t-51 157q0 18 1 36.5t6 58.5l18 148q20 165 82.5 231.5t205.5 66.5h86q216 0 216 -145q0 -16 -1 -24z" unicode="6"/>
<glyph glyph-name="seven" d="M737 727l-19 -152l-323 -575h-213l312 566h-348l20 161h571z" unicode="7"/>
<glyph glyph-name="eight" d="M488 238q1 5 1 9q0 47 -73 47h-20q-76 0 -83 -56l-3 -27q-1 -5 -1 -9q0 -47 72 -47h21q75 0 83 56zM514 523q1 5 1 10q0 43 -64 43h-17q-68 0 -76 -53l-2 -18v-9q0 -45 61 -45h19q70 0 76 54zM719 539l-5 -45q-10 -82 -102 -117q83 -33 83 -117q0 -7 -1 -15t-1 -12 l-7 -53q-11 -88 -81 -138.5t-187 -50.5h-94q-107 0 -165.5 44t-58.5 120v12q2 9 2 13l7 53q12 106 112 143q-70 28 -70 99q0 12 1 19l5 45q13 100 79.5 148.5t192.5 48.5h66q226 0 226 -163z" unicode="8"/>
<glyph glyph-name="nine" d="M524 530q1 5 1 13q0 21 -13.5 26.5t-53.5 5.5h-40q-46 0 -60 -7.5t-18 -37.5l-6 -53q-1 -4 -1 -8v-6q0 -19 14 -24t53 -5h40q45 0 59.5 7t18.5 36zM717 438l-18 -148q-21 -164 -84 -231.5t-205 -67.5h-86q-216 0 -216 144v12q2 9 2 13l6 54h202l-2 -19q-1 -8 -1 -12 q0 -18 11 -24t40 -6h48q40 0 53 9t17 43l13 102q-49 -33 -113 -33h-71q-96 0 -140.5 38.5t-44.5 119.5q0 20 3 43l8 65q24 196 276 196h86q122 0 172 -47t50 -158q0 -42 -6 -93z" unicode="9"/>
<glyph glyph-name="colon" horiz-adv-x="383" unicode=":" d="M306 187l-23 -187h-180l23 187h180zM345 507l-23 -186h-180l23 186h180z"/>
<glyph glyph-name="semicolon" horiz-adv-x="383" unicode=";" d="M306 184l-25 -203q-6 -48 -51 -78.5t-118 -30.5h-25l11 90h13q43 0 46 30l1 4h-55l23 188h180zM345 507l-23 -188h-180l23 188h180z"/>
<glyph glyph-name="less" horiz-adv-x="578" unicode="&lt;" d="M522 0l-480 240v120l480 210v-120l-330 -150l330 -180v-120z"/>
<glyph glyph-name="equal" horiz-adv-x="578" unicode="=" d="M542 52h-484v120h484v-120zM542 292h-484v120h484v-120z"/>
<glyph glyph-name="greater" horiz-adv-x="578" unicode="&gt;" d="M524 240l-480 -240v120l330 180l-330 150v120l480 -210v-120z"/>
<glyph glyph-name="question" horiz-adv-x="606" unicode="?" d="M393 189l-23 -189h-191l23 189h191zM628 579l-9 -70q-5 -45 -35 -87q-16 -22 -42 -40q-16 -11 -101 -55q-33 -16 -36 -41l-4 -33h-191l8 67q6 48 25.5 74.5t59.5 46.5l91 45q32 15 33 29l6 44q3 31 -35 31h-43q-47 0 -51 -34l-4 -36h-190l6 52q10 77 66.5 120.5 t152.5 43.5h115q86 0 132.5 -37.5t46.5 -99.5q0 -13 -1 -20z"/>
<glyph glyph-name="at" horiz-adv-x="964" unicode="@" d="M600 356q0 30 -20 57q-24 33 -62 33q-69 0 -117 -72q-41 -61 -41 -120q0 -49 21 -83.5t53 -34.5q84 0 130 80q36 63 36 140zM942 356q0 -103 -54 -188q-70 -110 -194 -110q-83 0 -118 68q-50 -41 -82 -56.5t-66 -15.5q-54 0 -102 39q-62 50 -62 137q0 101 72 190 q79 98 188 98q39 0 70.5 -20t39.5 -48l16 60h90l-84 -302q0 -37 8.5 -54.5t35.5 -17.5q63 0 110 83q44 78 44 169q0 111 -99.5 198.5t-230.5 87.5q-173 0 -286 -141q-98 -123 -98 -267q0 -152 127 -243q104 -75 221 -75q72 0 102.5 6t105.5 34l30 -80q-57 -24 -95 -32 q-58 -12 -155 -12q-172 0 -298 106q-134 113 -134 282q0 199 140 350q145 156 350 156q72 0 156 -34q107 -43 171 -123q81 -101 81 -245z"/>
<glyph glyph-name="A" horiz-adv-x="779" unicode="A" d="M496 287l-33 274l-100 -274h133zM764 0h-231l-18 124h-213l-48 -124h-231l304 727h316z"/>
<glyph glyph-name="B" horiz-adv-x="754" unicode="B" d="M513 248q1 5 1 9q0 15 -10 24t-37 9h-135l-14 -113h135q51 0 57 42zM535 512v6q0 33 -43 33h-128l-13 -106h128q48 0 52 39zM756 553l-6 -46q-12 -105 -106 -132q44 -17 66 -48t22 -75q0 -12 -1 -19l-6 -42q-13 -110 -82 -152q-64 -39 -214 -39h-347l89 727h352 q124 0 179.5 -32t55.5 -108z"/>
<glyph glyph-name="C" horiz-adv-x="736" unicode="C" d="M743 473l-3 -24h-214l3 23q1 7 1 19q0 32 -19.5 45.5t-64.5 13.5q-63 0 -84 -28q-17 -23 -27 -100l-15 -117q-5 -38 -5 -59q0 -39 17.5 -53.5t67.5 -14.5q53 0 75.5 18.5t29.5 69.5l3 26h218l-4 -30q-18 -145 -90 -208t-220 -63h-66q-140 0 -198.5 48.5t-58.5 164.5 q0 39 6 86l18 148q20 165 91.5 231.5t232.5 66.5h54q139 0 198 -43.5t59 -149.5q0 -19 -1 -30.5t-4 -39.5z"/>
<glyph glyph-name="D" horiz-adv-x="802" unicode="D" d="M583 422q4 28 4.5 35.5t0.5 25.5q0 38 -18.5 52.5t-69.5 14.5h-135l-46 -373h135q65 0 84.5 24.5t29.5 103.5zM803 435l-17 -143q-20 -161 -91.5 -226.5t-232.5 -65.5h-380l89 727h380q139 0 198.5 -48.5t59.5 -161.5q0 -37 -6 -82z"/>
<glyph glyph-name="E" horiz-adv-x="717" unicode="E" d="M737 727l-21 -177h-351l-13 -103h341l-19 -156h-341l-14 -114h359l-22 -177h-574l89 727h566z"/>
<glyph glyph-name="F" horiz-adv-x="644" unicode="F" d="M680 727l-21 -177h-294l-15 -118h277l-21 -175h-277l-32 -257h-215l89 727h509z"/>
<glyph glyph-name="G" horiz-adv-x="781" unicode="G" d="M795 527l-5 -40h-215q1 8 1 11q0 31 -19.5 41.5t-66.5 10.5h-49q-66 0 -88 -27q-18 -23 -28 -101l-15 -117q-2 -16 -3.5 -29t-1.5 -29q0 -40 18.5 -54.5t71.5 -14.5h54q51 0 73.5 12.5t26.5 47.5l2 17h-111l19 152h321l-16 -130q-18 -149 -92.5 -217.5t-221.5 -68.5h-132 q-227 0 -227 240v22t5 48l13 107q21 170 99 249t229 79h106q116 0 184.5 -53t68.5 -134q0 -15 -1 -22z"/>
<glyph glyph-name="H" horiz-adv-x="821" unicode="H" d="M835 727l-89 -727h-215l34 277h-234l-34 -277h-215l89 727h215l-32 -264h234l32 264h215z"/>
<glyph glyph-name="I" horiz-adv-x="389" unicode="I" d="M394 727l-89 -727h-217l89 727h217z"/>
<glyph glyph-name="J" horiz-adv-x="652" unicode="J" d="M666 727l-61 -500q-30 -235 -245 -235h-90q-108 0 -157.5 38.5t-49.5 128.5q0 12 1.5 28.5t2.5 25.5l14 110h210l-11 -90q-1 -7 -1.5 -14.5t-0.5 -10.5q0 -31 32 -31h35q23 0 31.5 12t12.5 44l60 494h217z"/>
<glyph glyph-name="K" horiz-adv-x="744" unicode="K" d="M827 727l-290 -352l225 -375h-265l-156 283h-9l-35 -283h-215l89 727h215l-32 -265l217 265h256z"/>
<glyph glyph-name="L" horiz-adv-x="643" unicode="L" d="M649 184l-23 -184h-542l89 727h217l-66 -543h325z"/>
<glyph glyph-name="M" horiz-adv-x="1042" unicode="M" d="M1059 727l-89 -727h-210l56 456l-184 -456h-211l-72 462l-57 -462h-210l89 727h303l82 -484l200 484h303z"/>
<glyph glyph-name="N" horiz-adv-x="878" unicode="N" d="M893 727l-89 -727h-307l-149 492l-60 -492h-206l89 727h306l150 -487l60 487h206z"/>
<glyph glyph-name="O" horiz-adv-x="784" unicode="O" d="M565 422q5 40 5 60q0 39 -18.5 53.5t-70.5 14.5h-36q-66 0 -85.5 -24.5t-29.5 -103.5l-15 -117q-3 -20 -4 -36.5t-1 -22.5q0 -39 18.5 -53.5t70.5 -14.5h36q66 0 85.5 24.5t29.5 102.5zM786 438l-18 -148q-20 -164 -92.5 -231.5t-233.5 -67.5h-96q-140 0 -198.5 48.5 t-58.5 164.5q0 39 6 86l18 148q20 165 91.5 231.5t232.5 66.5h96q140 0 199.5 -48.5t59.5 -164.5q0 -38 -6 -85z"/>
<glyph glyph-name="P" horiz-adv-x="748" unicode="P" d="M551 481q1 6 1 16q0 52 -70 52h-118l-22 -183h126q42 0 57.5 14.5t20.5 59.5zM770 482l-6 -47q-16 -133 -88.5 -189.5t-219.5 -56.5h-136l-23 -189h-215l89 727h351q132 0 192 -43.5t60 -146.5q0 -12 -1.5 -28.5t-2.5 -26.5z"/>
<glyph glyph-name="Q" horiz-adv-x="791" unicode="Q" d="M565 424q5 38 5 59q0 39 -18.5 53.5t-70.5 14.5h-36q-66 0 -85.5 -24.5t-29.5 -102.5l-14 -117q-5 -40 -5 -60q0 -38 18 -52t70 -14h35l-40 37l103 102l50 -46zM786 439l-18 -146q-9 -67 -19 -100q-13 -41 -38 -68l52 -46l-100 -105l-60 54q-30 -18 -71.5 -25t-97.5 -7 h-87q-139 0 -198.5 48.5t-59.5 164.5q0 37 6 84l18 146q20 164 91.5 230.5t232.5 66.5h96q140 0 199.5 -48.5t59.5 -164.5q0 -37 -6 -84z"/>
<glyph glyph-name="R" horiz-adv-x="747" unicode="R" d="M529 481q1 6 1 12v9q0 28 -14.5 38t-51.5 10h-99l-21 -164h99q42 0 60 14t23 54zM752 524l-7 -58q-15 -128 -126 -161q90 -28 90 -119q0 -7 -1 -16t-1 -14l-19 -156h-219l17 137q1 7 1 12.5v6.5q0 29 -15 40t-52 11h-98l-25 -207h-215l89 727h303q151 0 212 -32 q69 -36 69 -129q0 -19 -3 -42z"/>
<glyph glyph-name="S" horiz-adv-x="723" unicode="S" d="M724 560l-7 -58h-207l2 17q1 5 1 10q0 19 -11 28t-46 9h-45q-39 0 -55.5 -7.5t-19.5 -30.5l-4 -29v-5q0 -22 24 -27q12 -3 42 -6l142 -16q173 -19 173 -153q0 -7 -1 -15.5t-1 -13.5l-8 -68q-11 -93 -76 -148.5t-166 -55.5h-159q-119 0 -175.5 37.5t-56.5 117.5l2 34l7 59 h207l-2 -17q-1 -9 -1 -12q0 -26 17.5 -36.5t61.5 -10.5h49q70 0 75 43l4 31v6q0 23 -22 30q-13 4 -42 7l-156 16q-158 18 -158 155q0 18 3 41l6 44q6 53 28 93t56.5 65.5t77 33.5t111.5 8h117q214 0 214 -152q0 -16 -1 -24z"/>
<glyph glyph-name="T" horiz-adv-x="660" unicode="T" d="M717 727l-21 -177h-186l-68 -550h-217l68 550h-187l21 177h590z"/>
<glyph glyph-name="U" horiz-adv-x="804" unicode="U" d="M829 727l-53 -437q-11 -85 -24 -126q-19 -57 -60.5 -98.5t-96.5 -57.5t-142 -16h-96q-85 0 -137 16t-85 58q-19 26 -27.5 56.5t-8.5 69.5q0 20 0.5 28.5t7.5 69.5l53 437h214l-52 -422q-4 -28 -4 -54q0 -43 19.5 -58.5t72.5 -15.5h36q65 0 86.5 25t30.5 103l52 422h214z "/>
<glyph glyph-name="V" horiz-adv-x="768" unicode="V" d="M842 727l-302 -727h-311l-117 727h229l69 -521l204 521h228z"/>
<glyph glyph-name="W" horiz-adv-x="1064" unicode="W" d="M1124 727l-213 -727h-296l-27 434l-136 -434h-299l-26 727h218l2 -490l163 490h234l35 -489l128 489h217z"/>
<glyph glyph-name="X" horiz-adv-x="764" unicode="X" d="M819 727l-219 -350l146 -377h-245l-83 256l-150 -256h-244l244 378l-127 349h242l68 -229l125 229h243z"/>
<glyph glyph-name="Y" horiz-adv-x="719" unicode="Y" d="M816 727l-314 -472l-31 -255h-215l31 255l-199 472h243l91 -259l153 259h241z"/>
<glyph glyph-name="Z" d="M758 727l-24 -182l-369 -361h327l-23 -184h-615l23 179l380 364h-314l22 184h593z" unicode="Z"/>
<glyph glyph-name="bracketleft" horiz-adv-x="331" unicode="[" d="M404 730l-13 -100h-110l-89 -728h110l-13 -104h-242l115 932h242z"/>
<glyph glyph-name="backslash" horiz-adv-x="277" unicode="\" d="M298 0h-76l-226 730h76z"/>
<glyph glyph-name="bracketright" horiz-adv-x="331" unicode="]" d="M356 730l-115 -932h-242l13 104h112l89 728h-112l13 100h242z"/>
<glyph glyph-name="asciicircum" horiz-adv-x="578" unicode="^" d="M520 272h-112l-118 298l-118 -298h-112l166 424h124z"/>
<glyph glyph-name="underscore" horiz-adv-x="495" unicode="_" d="M500 -242h-500v120h500v-120z"/>
<glyph glyph-name="grave" horiz-adv-x="532" unicode="`" d="M435 576h-91l-147 181h153z"/>
<glyph glyph-name="a" horiz-adv-x="616" unicode="a" d="M386 181v6q0 27 -35 27h-45q-40 0 -44 -33l-3 -26v-6q0 -28 36 -28h45q39 0 43 34zM592 349l-43 -349h-184l4 30q-43 -36 -110 -36h-59q-64 0 -97.5 31.5t-33.5 89.5q0 6 1 14t1 12l6 46q8 68 55.5 105.5t128.5 37.5h45q59 0 96 -32l9 73v5q0 29 -31 29h-28q-19 0 -25 -2 q-18 -6 -21 -34h-183q11 84 58.5 118.5t144.5 34.5h78q102 0 146.5 -31t44.5 -103q0 -18 -3 -39z"/>
<glyph glyph-name="b" horiz-adv-x="618" unicode="b" d="M419 298q3 24 3 40q0 24 -9 34t-34 10h-19q-33 0 -43.5 -17.5t-16.5 -66.5l-10 -77q-3 -23 -3 -40q0 -23 9 -33t34 -10h19q33 0 45 20q9 15 15 63zM606 312l-12 -103q-14 -111 -63.5 -163.5t-143.5 -52.5q-87 0 -124 53l-5 -46h-178l89 727h183l-30 -247q24 24 55.5 35.5 t74.5 11.5q158 0 158 -160q0 -12 -1.5 -28.5t-2.5 -26.5z"/>
<glyph glyph-name="c" horiz-adv-x="597" unicode="c" d="M592 335l-3 -23h-184l2 14q1 7 1 19q0 39 -46 39h-22q-35 0 -45.5 -17t-17.5 -70l-9 -79q-3 -19 -3.5 -27.5t-0.5 -20.5q0 -22 9.5 -30.5t35.5 -8.5h22q31 0 43 13t17 50l2 21h184l-3 -33q-12 -101 -67.5 -144.5t-170.5 -43.5h-69q-103 0 -147.5 35.5t-44.5 119.5v22.5 t4 35.5l13 102q14 117 68 165t172 48h69q102 0 148 -33.5t46 -110.5q0 -20 -3 -43z"/>
<glyph glyph-name="d" horiz-adv-x="618" unicode="d" d="M396 298q3 16 3.5 24t0.5 18q0 21 -9.5 31.5t-33.5 10.5h-19q-33 0 -43.5 -17.5t-16.5 -66.5l-10 -77q-3 -23 -3 -40q0 -23 9 -33t34 -10h19q32 0 44 20q9 15 15 63zM632 727l-89 -727h-179l7 46q-52 -53 -137 -53q-158 0 -158 161q0 12 1.5 28.5t2.5 26.5l12 103 q14 110 64 162.5t144 52.5q82 0 118 -47l30 247h184z"/>
<glyph glyph-name="e" horiz-adv-x="599" unicode="e" d="M412 331q0 5 1 13t1 15q0 25 -10.5 34.5t-39.5 9.5h-21q-33 0 -46 -14t-18 -53l-1 -13h133zM589 309l-11 -88h-313l-6 -51q-1 -4 -1 -8v-6q0 -21 11 -29t39 -8h21q27 0 40.5 10.5t20.5 41.5h181q-18 -96 -73 -136.5t-162 -40.5h-69q-103 0 -147.5 35.5t-44.5 119.5v22.5 t4 35.5l13 102q14 117 68 165t172 48h69q103 0 147.5 -35.5t44.5 -119.5v-27q-3 -21 -4 -31z"/>
<glyph glyph-name="f" horiz-adv-x="396" unicode="f" d="M471 727l-16 -136h-48q-59 0 -63 -33l-5 -38h107l-17 -141h-107l-47 -379h-186l47 379h-56l17 141h55l3 27q11 93 55.5 136.5t130.5 43.5h130z"/>
<glyph glyph-name="g" horiz-adv-x="615" unicode="g" d="M405 293q3 23 3 39q0 45 -46 45h-20q-34 0 -45.5 -18.5t-17.5 -65.5l-9 -77q-3 -24 -3 -41q0 -22 9.5 -32.5t35.5 -10.5h20q35 0 48 21q10 16 16 63zM608 515l-58 -478q-9 -70 -22 -105q-17 -47 -53 -77q-25 -22 -69.5 -36.5t-92.5 -14.5h-56q-185 0 -185 119q0 13 1 20 l5 38h177q-1 -6 -1 -16q0 -28 34 -28h24q31 0 42 16t17 60l5 40q-46 -46 -142 -46q-80 0 -117.5 36.5t-37.5 113.5q0 23 3 49l13 101q14 111 63 163t143 52q83 0 119 -47l5 40h183z"/>
<glyph glyph-name="h" horiz-adv-x="631" unicode="h" d="M606 335l-41 -335h-183l37 300q3 21 3 35q0 26 -11.5 34t-45.5 8q-37 0 -48.5 -18.5t-17.5 -68.5l-36 -290h-183l89 727h183l-30 -246q44 46 135 46q85 0 119 -29t34 -100v-30q-3 -22 -4 -33z"/>
<glyph glyph-name="i" horiz-adv-x="338" unicode="i" d="M327 520l-64 -520h-186l64 520h186zM352 727l-17 -144h-186l17 144h186z"/>
<glyph glyph-name="j" horiz-adv-x="343" unicode="j" d="M332 519l-57 -465q-14 -110 -51 -153q-42 -49 -136 -49h-71l17 136q27 0 38 8t13 27l61 496h186zM357 728l-17 -145h-186l17 145h186z"/>
<glyph glyph-name="k" horiz-adv-x="596" unicode="k" d="M641 520l-176 -251l140 -269h-214l-97 201h-6l-25 -201h-183l89 727h183l-48 -395h6l123 188h208z"/>
<glyph glyph-name="l" horiz-adv-x="338" unicode="l" d="M357 727l-89 -727h-186l89 727h186z"/>
<glyph glyph-name="m" horiz-adv-x="879" unicode="m" d="M857 332l-41 -332h-181l36 297q3 24 3 40q0 21 -9.5 28.5t-34.5 7.5q-38 0 -48 -32q-4 -13 -9 -54l-35 -287h-180l36 297q3 24 3 40q0 21 -9.5 28.5t-34.5 7.5q-38 0 -48 -32q-4 -13 -9 -54l-35 -287h-181l63 515h176l-6 -42q44 48 132 48q55 0 86 -15.5t45 -50.5 q45 66 146 66q78 0 108.5 -28.5t30.5 -97.5v-30q-3 -22 -4 -33z"/>
<glyph glyph-name="n" horiz-adv-x="631" unicode="n" d="M606 332l-41 -332h-183l36 297q3 21 3 35q0 25 -12 33t-44 8q-38 0 -49.5 -17.5t-17.5 -68.5l-35 -287h-183l63 515h178l-6 -46q49 52 141 52q86 0 120 -29t34 -99v-28q-3 -22 -4 -33z"/>
<glyph glyph-name="o" horiz-adv-x="600" unicode="o" d="M400 297q2 14 3.5 25t1.5 24q0 21 -9.5 29.5t-35.5 8.5h-20q-35 0 -45.5 -17t-17.5 -70l-9 -79q-3 -19 -3.5 -27.5t-0.5 -20.5q0 -22 9.5 -30.5t35.5 -8.5h20q36 0 47 19q8 14 15 68zM589 309l-13 -102q-14 -118 -67 -165.5t-173 -47.5h-69q-103 0 -147.5 35.5 t-44.5 119.5v22.5t4 35.5l13 102q14 117 68 165t172 48h69q103 0 147.5 -35.5t44.5 -119.5v-27q-3 -21 -4 -31z"/>
<glyph glyph-name="p" horiz-adv-x="618" unicode="p" d="M418 294q3 23 3 40q0 24 -9 34t-34 10h-19q-32 0 -45 -21q-9 -15 -15 -63l-9 -77q-2 -11 -3 -21t-1 -21q0 -21 9.5 -31.5t33.5 -10.5h19q32 0 45 21q10 17 16 63zM606 307l-13 -104q-14 -110 -63.5 -162.5t-143.5 -52.5q-84 0 -119 46l-28 -230h-183l87 711h178l-6 -46 q50 53 137 53q158 0 158 -160q0 -12 -1.5 -28.5t-2.5 -26.5z"/>
<glyph glyph-name="q" horiz-adv-x="618" unicode="q" d="M395 294q1 11 2.5 21t1.5 21q0 21 -9.5 31.5t-33.5 10.5h-19q-32 0 -45 -21q-9 -15 -15 -63l-9 -77q-2 -11 -3 -21t-1 -21q0 -21 9.5 -31.5t33.5 -10.5h19q32 0 45 21q9 15 15 63zM606 515l-87 -711h-184l28 230q-48 -46 -129 -46q-159 0 -159 160q0 12 1.5 28.5 t2.5 26.5l13 104q14 110 64 162.5t143 52.5q86 0 124 -53l4 46h179z"/>
<glyph glyph-name="r" horiz-adv-x="538" unicode="r" d="M560 332l-7 -54h-173l5 41q1 7 1 12.5v7.5q0 34 -35 34q-29 0 -37.5 -17.5t-15.5 -68.5l-35 -287h-183l63 515h178l-6 -43q42 49 120 49q72 0 101 -29t29 -95q0 -27 -2 -41.5t-3 -23.5z"/>
<glyph glyph-name="s" horiz-adv-x="602" unicode="s" d="M590 383l-2 -20h-182q0 22 -11 31t-37 9h-21q-56 0 -56 -34q0 -20 7.5 -27.5t27.5 -7.5l115 -11q152 -13 152 -113q0 -11 -1 -17l-5 -42q-9 -74 -65.5 -115.5t-148.5 -41.5h-109q-189 0 -189 125q0 6 1 14t1 12l2 16h188q0 -29 11.5 -38.5t41.5 -9.5h22q33 0 46 7.5 t16 31.5v7q0 17 -9.5 23.5t-45.5 9.5l-104 10q-67 6 -103 39t-36 83q0 11 1 16l5 39q8 69 63 106t156 37h101q169 0 169 -117q0 -14 -1 -22z"/>
<glyph glyph-name="t" horiz-adv-x="545" unicode="t" d="M550 518l-17 -135h-218l-24 -194q-1 -8 -1.5 -17t-0.5 -12q0 -18 7.5 -24.5t30.5 -6.5q24 0 33.5 9.5t12.5 34.5l7 51h156l-9 -66q-19 -164 -188 -164h-87q-96 0 -132 54q-9 15 -13.5 32.5t-4.5 38.5q0 22 3 46l4 27l23 191h-59l17 135h59l11 96h183l-11 -96h218z"/>
<glyph glyph-name="u" horiz-adv-x="635" unicode="u" d="M628 515l-63 -515h-178l7 46q-51 -52 -142 -52q-86 0 -120 28t-34 99v35q3 18 4 26l41 333h183l-36 -297q-3 -21 -3 -35q0 -25 12 -33t44 -8q38 0 51 20q10 15 16 65l35 288h183z"/>
<glyph glyph-name="v" horiz-adv-x="582" unicode="v" d="M637 514l-220 -514h-259l-87 514h198l41 -339l129 339h198z"/>
<glyph glyph-name="w" horiz-adv-x="826" unicode="w" d="M867 514l-151 -514h-242l-19 298l-92 -298h-246l-24 514h185l-1 -312l98 312h212l22 -311l74 311h184z"/>
<glyph glyph-name="x" horiz-adv-x="600" unicode="x" d="M632 514l-163 -247l117 -267h-210l-50 169l-97 -169h-205l184 269l-102 245h208l37 -151l78 151h203z"/>
<glyph glyph-name="y" horiz-adv-x="577" unicode="y" d="M660 515l-255 -578q-29 -71 -75 -102.5t-128 -31.5q-19 0 -30 1q-56 5 -68 5l16 131h46q22 0 36.5 10t14.5 26l2 34l-176 505h192l100 -336l129 336h196z"/>
<glyph glyph-name="z" horiz-adv-x="572" unicode="z" d="M579 514l-20 -145l-253 -230h234l-17 -139h-467l19 147l259 231h-217l17 136h445z"/>
<glyph glyph-name="braceleft" horiz-adv-x="386" unicode="{" d="M316 -202h-86q-35 0 -69 32q-43 41 -43 104v230q0 37 -29 50q-18 8 -53 8v94q35 0 52 6q30 11 30 42v228q0 65 42 105q34 33 70 33h86v-98h-38q-30 0 -40 -17q-6 -10 -6 -37v-212q0 -51 -36 -77q-23 -16 -60 -21q39 -5 60 -20q36 -26 36 -86v-214q0 -27 5 -36 q9 -16 41 -16h38v-98z"/>
<glyph glyph-name="bar" horiz-adv-x="316" unicode="|" d="M208 -202h-80v932h80v-932z"/>
<glyph glyph-name="braceright" horiz-adv-x="386" unicode="}" d="M354 222q-34 0 -52 -8q-30 -14 -30 -50v-230q0 -63 -42 -103q-35 -33 -70 -33h-86v98h38q30 0 40 16q6 10 6 36v214q0 60 36 86q21 15 60 20q-37 5 -60 21q-36 26 -36 77v212q0 28 -5 37q-9 17 -41 17h-38v98h86q35 0 69 -33q43 -41 43 -105v-228q0 -32 29 -42 q17 -6 53 -6v-94z"/>
<glyph glyph-name="asciitilde" horiz-adv-x="578" unicode="~" d="M520 350q0 -60 -36 -106q-32 -40 -80 -40q-31 0 -116 48t-104 48q-29 0 -41.5 -21.5t-12.5 -44.5h-70q8 53 29 89q35 59 95 59q40 0 115 -48t97 -48q25 0 37 22q9 17 9 42h78z"/>
<glyph glyph-name="nonbreakingspace" horiz-adv-x="347" unicode=" " d="M306 300q0 -51 -36.5 -87.5t-87.5 -36.5q-53 0 -89.5 35.5t-36.5 88.5t36.5 89.5t89.5 36.5q51 0 87.5 -36.5t36.5 -89.5z"/>
<glyph glyph-name="exclamdown" horiz-adv-x="383" unicode="¡" d="M338 445l-55 -445h-180l55 445h180zM372 727l-23 -189h-180l23 189h180z"/>
<glyph glyph-name="cent" horiz-adv-x="597" unicode="¢" d="M592 335l-3 -23h-184l2 14q1 7 1 19q0 39 -46 39h-22q-35 0 -45.5 -17t-17.5 -70l-9 -79q-3 -19 -3.5 -27.5t-0.5 -20.5q0 -22 9.5 -30.5t35.5 -8.5h22q31 0 43 13t17 50l2 21h184l-3 -33q-12 -102 -66.5 -145t-168.5 -43l-13 -112h-80l13 112q-99 0 -141.5 36t-42.5 120 q0 13 1.5 30t2.5 27l13 102q14 115 66 164t166 49l11 91h80l-11 -91q100 0 145.5 -33.5t45.5 -109.5q0 -20 -3 -44z"/>
<glyph glyph-name="sterling" d="M749 562l-7 -61h-195l4 35q2 17 -9.5 28t-33.5 11h-34q-48 0 -53 -41l-14 -108h187l-18 -146h-187q-10 -70 -53 -104h381l-22 -176h-608l22 176q32 0 49.5 13.5t20.5 36.5l6 54h-82l18 146h82l12 97q12 100 80.5 156.5t180.5 56.5h52q105 0 163.5 -41.5t58.5 -111.5 q0 -14 -1 -21z" unicode="£"/>
<glyph glyph-name="currency" horiz-adv-x="555" unicode="¤" d="M394 348q0 44 -30 79t-76 35q-47 0 -76.5 -34.5t-29.5 -79.5q0 -43 31.5 -71.5t74.5 -28.5q53 0 82 34q24 28 24 66zM540 536l-80 -78l20 -36q14 -29 14 -58q0 -38 -13 -71q-4 -10 -23 -45l76 -76l-68 -66l-76 78q-33 -18 -41 -21q-28 -11 -63 -11q-57 0 -100 34l-80 -80 l-66 66l78 80q-36 43 -36 105q0 67 34 99l-80 78l70 68l78 -78q40 30 108 30q30 0 57.5 -8t44.5 -20l78 78z"/>
<glyph glyph-name="yen" horiz-adv-x="719" unicode="¥" d="M816 727l-187 -282h65l-13 -100h-119l-40 -60h112l-11 -90h-128l-24 -195h-215l24 195h-141l11 90h125l-26 60h-132l13 100h78l-120 282h243l91 -259l153 259h241z"/>
<glyph glyph-name="brokenbar" horiz-adv-x="316" unicode="¦" d="M208 -202h-80v416l80 -54v-362zM208 350l-80 54v326h80v-380z"/>
<glyph glyph-name="section" horiz-adv-x="550" unicode="§" d="M394 252q0 38 -35.5 58t-86.5 20q-46 0 -66 -17t-20 -47q0 -40 35 -59t87 -19q46 0 66 16.5t20 47.5zM538 276q0 -51 -16 -85t-46 -59q36 -33 36 -88q0 -111 -91 -157q-57 -29 -135 -29q-117 0 -179 62q-51 51 -51 124h134q0 -36 26 -58t78 -22q32 0 53 11q29 15 29 47 t-86 52q-128 31 -161 46q-87 41 -87 122q0 51 16 85t46 57q-19 17 -27.5 38t-8.5 52q0 110 91 156q55 28 135 28q117 0 179 -62q51 -51 51 -122h-134q0 34 -26.5 56t-77.5 22q-32 0 -53 -11q-29 -15 -29 -45q0 -32 86 -52q128 -31 161 -46q87 -41 87 -122z"/>
<glyph glyph-name="dieresis" horiz-adv-x="532" unicode="¨" d="M337 724l-15 -120h-130l15 120h130zM507 724l-15 -120h-130l15 120h130z"/>
<glyph glyph-name="copyright" horiz-adv-x="730" unicode="©" d="M570 294q-7 -67 -58 -107.5t-120 -40.5q-95 0 -153.5 62.5t-58.5 157.5q0 98 56.5 159t153.5 61q70 0 119 -38t61 -106h-86q-6 35 -32.5 55.5t-63.5 20.5q-59 0 -90.5 -43.5t-31.5 -106.5q0 -59 34.5 -106.5t91.5 -47.5q36 0 62.5 22.5t29.5 57.5h86zM686 364 q0 128 -91 219t-219 91q-130 0 -221 -91t-91 -219q0 -129 90.5 -220.5t221.5 -91.5q128 0 219 91t91 221zM758 364q0 -158 -112 -271t-270 -113q-159 0 -271.5 112.5t-112.5 271.5q0 158 112 270t272 112q158 0 270 -112t112 -270z"/>
<glyph glyph-name="ordfeminine" horiz-adv-x="471" unicode="ª" d="M275 477v18q0 20 -27 20h-33q-28 0 -28 -20v-18q0 -21 28 -21h33q27 0 27 21zM419 368h-143v18q-31 -23 -76 -23h-45q-112 0 -112 104v33q0 48 32 74t95 26h33q44 0 73 -20v46q0 21 -24 21h-21q-17 0 -22.5 -4t-5.5 -21h-142q0 61 32.5 86t107.5 25h59q87 0 123 -28 t36 -94v-243z"/>
<glyph glyph-name="guillemotleft" horiz-adv-x="550" unicode="«" d="M323 482l-14 -114l-111 -90l89 -88l-14 -118l-148 148l14 116zM537 484l-14 -114l-111 -90l90 -88l-15 -118l-148 148l14 116z"/>
<glyph glyph-name="logicalnot" horiz-adv-x="578" unicode="¬" d="M546 122h-114v176h-390v114h504v-290z"/>
<glyph glyph-name="registered" horiz-adv-x="730" unicode="®" d="M498 454q0 35 -35 47q-20 7 -65 7h-100v-116h122q39 0 56 11q22 14 22 51zM578 442q0 -112 -112 -112l100 -174h-94l-92 174h-82v-174h-80v412h200q34 0 62 -4t50 -16q25 -17 36.5 -45t11.5 -61zM686 364q0 129 -90.5 219.5t-219.5 90.5q-130 0 -221 -90t-91 -220 q0 -131 90.5 -221.5t221.5 -90.5q129 0 219.5 90.5t90.5 221.5zM758 364q0 -158 -112 -271t-270 -113q-159 0 -271.5 112.5t-112.5 271.5q0 158 112 270t272 112q158 0 270 -112t112 -270z"/>
<glyph glyph-name="degree" horiz-adv-x="397" unicode="°" d="M294 576q0 36 -26 63t-64 27q-37 0 -63.5 -26.5t-26.5 -63.5q0 -38 26 -64t64 -26t64 26t26 64zM354 576q0 -62 -44 -106t-106 -44t-106 43t-44 107q0 62 44 106t106 44t106 -44t44 -106z"/>
<glyph glyph-name="plusminus" horiz-adv-x="578" unicode="±" d="M532 -130h-484v120h484v-120zM532 292h-182v-182h-120v182h-182v120h182v182h120v-182h182v-120z"/>
<glyph glyph-name="twosuperior" horiz-adv-x="481" unicode="²" d="M513 608l-5 -39q-13 -106 -108 -132l-141 -35q-13 -4 -15 -5q-10 -5 -10 -18l-2 -13h248l-14 -116h-387l14 117q13 105 99 129l145 41q34 10 36 34l2 18v7q0 33 -44 33h-21q-27 0 -38.5 -8.5t-14.5 -31.5l-4 -32h-132l6 48q17 131 172 131h70q70 0 107.5 -29.5 t37.5 -81.5q0 -11 -1 -17z"/>
<glyph glyph-name="threesuperior" horiz-adv-x="481" unicode="³" d="M505 612l-4 -30q-8 -62 -66 -84q54 -22 54 -78q0 -10 -1 -16l-5 -35q-7 -58 -53.5 -91.5t-123.5 -33.5h-73q-69 0 -107 29t-38 80q0 12 1 18l6 49h135l-4 -28v-7q0 -17 9 -25t36 -8h22q51 0 55 37l2 17v5q0 31 -46 31h-46l13 107h45q46 0 50 35l1 12v5q0 28 -41 28h-20 q-23 0 -35 -9t-15 -30l-2 -23h-133l4 39q8 62 53.5 96t125.5 34h53q149 0 149 -105q0 -12 -1 -19z"/>
<glyph glyph-name="acute" horiz-adv-x="532" unicode="´" d="M525 757l-191 -181h-91l129 181h153z"/>
<glyph glyph-name="mu" horiz-adv-x="592" unicode="µ" d="M609 542l-67 -542h-140l8 68q-34 -46 -73 -68q-30 -17 -72 -24q-31 0 -69 6l-25 -202h-140l94 762h140l-42 -336q-2 -9 -3 -17.5t-1 -20.5q0 -31 17 -46q22 -20 77 -20q56 5 85 35q19 19 28 55l43 350h140z"/>
<glyph glyph-name="paragraph" horiz-adv-x="550" unicode="¶" d="M534 658h-76v-878h-72v878h-84v-878h-72v486q-86 8 -135 53q-59 54 -69 161q-1 7 -1 21q0 88 58.5 158.5t132.5 70.5h318v-72z"/>
<glyph glyph-name="cedilla" horiz-adv-x="532" unicode="¸" d="M408 -135q-7 -59 -38.5 -79.5t-112.5 -20.5h-124l10 77h127q19 0 25.5 4t8.5 20q0 21 -25 21h-60l14 113h70l-5 -44h38q74 0 74 -69q0 -6 -2 -22z"/>
<glyph glyph-name="onesuperior" horiz-adv-x="481" unicode="¹" d="M469 730l-59 -480h-133l41 340l-118 -92l-71 89l189 142z"/>
<glyph glyph-name="ordmasculine" horiz-adv-x="459" unicode="º" d="M275 520v55q0 30 -1 36q-4 21 -35 21h-15q-24 0 -30 -11.5t-6 -45.5v-55q0 -31 2.5 -43.5t33.5 -12.5h15q30 0 33 14.5t3 41.5zM420 513q0 -83 -35.5 -116.5t-127.5 -33.5h-51q-91 0 -127 34t-36 116v70q0 83 35.5 116.5t127.5 33.5h51q91 0 127 -34t36 -116v-70z"/>
<glyph glyph-name="guillemotright" horiz-adv-x="550" unicode="»" d="M305 336l-14 -116l-184 -148l14 118l111 88l-89 90l14 114zM513 336l-14 -116l-184 -148l14 118l111 88l-89 90l14 114z"/>
<glyph glyph-name="onequarter" horiz-adv-x="1168" unicode="¼" d="M943 355l-135 -159h115zM1113 196l-13 -106h-56l-11 -90h-134l11 90h-241l17 130l223 260h183l-35 -284h56zM920 736l-515 -730h-80l507 730h88zM469 730l-59 -480h-133l41 340l-118 -92l-71 89l189 142z"/>
<glyph glyph-name="onehalf" horiz-adv-x="1168" unicode="½" d="M1152 358l-5 -39q-13 -106 -108 -132l-140 -35q-24 -7 -26 -23l-2 -13h248l-14 -116h-387l14 117q13 105 99 129l145 41q34 10 36 34l3 18v7q0 16 -8.5 24.5t-35.5 8.5h-21q-27 0 -39 -8.5t-14 -31.5l-4 -32h-132l6 48q7 63 51.5 97t120.5 34h70q69 0 106.5 -29.5 t37.5 -81.5q0 -11 -1 -17zM920 736l-515 -730h-80l507 730h88zM469 730l-59 -480h-133l41 340l-118 -92l-71 89l189 142z"/>
<glyph glyph-name="threequarters" horiz-adv-x="1168" unicode="¾" d="M963 355l-135 -159h115zM1133 196l-13 -106h-56l-11 -90h-134l11 90h-241l17 130l223 260h183l-35 -284h56zM940 736l-515 -730h-80l507 730h88zM505 612l-4 -30q-8 -62 -66 -84q54 -22 54 -78q0 -10 -1 -16l-5 -35q-7 -58 -53.5 -91.5t-123.5 -33.5h-73q-69 0 -107 29 t-38 80q0 12 1 18l6 49h135l-4 -28v-7q0 -17 9 -25t36 -8h22q51 0 55 37l2 17v5q0 31 -46 31h-46l13 107h45q46 0 50 35l1 12v5q0 28 -41 28h-20q-23 0 -35 -9t-15 -30l-2 -23h-133l4 39q8 62 53.5 96t125.5 34h53q149 0 149 -105q0 -12 -1 -19z"/>
<glyph glyph-name="questiondown" horiz-adv-x="606" unicode="¿" d="M583 210l-7 -52q-9 -78 -65.5 -121.5t-152.5 -43.5h-116q-85 0 -131.5 37t-46.5 99q0 15 1 22l8 69q6 47 36 88q20 27 60 51q10 6 83 43q31 16 36 43l3 31h192l-8 -66q-6 -47 -25.5 -74.5t-59.5 -47.5l-90 -43q-32 -15 -35 -31l-5 -43v-6q0 -26 35 -26h43q47 0 50 35 l5 36h190zM515 729l-24 -188h-192l24 188h192z"/>
<glyph glyph-name="Agrave" horiz-adv-x="779" unicode="À" d="M496 289l-33 276l-100 -276h133zM764 0h-231l-18 125h-213l-48 -125h-231l305 732h316zM584 772h-91l-145 197h153z"/>
<glyph glyph-name="Aacute" horiz-adv-x="779" unicode="Á" d="M496 289l-33 276l-100 -276h133zM764 0h-231l-18 125h-213l-48 -125h-231l305 732h316zM676 969l-193 -197h-91l131 197h153z"/>
<glyph glyph-name="Acircumflex" horiz-adv-x="779" unicode="Â" d="M496 289l-33 276l-100 -276h133zM764 0h-231l-18 125h-213l-48 -125h-231l305 732h316zM659 772h-91l-68 98l-93 -98h-90l131 197h128z"/>
<glyph glyph-name="Atilde" horiz-adv-x="779" unicode="Ã" d="M496 289l-33 275l-100 -275h133zM764 0h-231l-18 125h-213l-48 -125h-231l305 732h316zM677 945q-25 -72 -56.5 -104t-75.5 -32q-17 0 -38 6l-41 12q-20 6 -29 6q-24 0 -40 -39h-75q25 70 56 101.5t74 31.5q12 0 22 -1t22 -5l43 -13l24 -3q24 0 39 40h75z"/>
<glyph glyph-name="Adieresis" horiz-adv-x="779" unicode="Ä" d="M496 289l-33 275l-100 -275h133zM764 0h-231l-18 125h-213l-48 -125h-231l305 732h316zM488 937l-17 -137h-130l17 137h130zM658 937l-17 -137h-130l17 137h130z"/>
<glyph glyph-name="Aring" horiz-adv-x="779" unicode="Å" d="M496 289l-33 275l-100 -275h133zM546 826q1 4 1 7q0 16 -12.5 29t-32.5 13t-36 -14t-19 -35v-5q0 -17 11.5 -30t32.5 -13t37 14t18 34zM764 0h-231l-18 125h-213l-48 -125h-231l305 732h56q-29 34 -29 79q0 10 1 15q7 57 52.5 97t104.5 40q54 0 89 -34t35 -85 q0 -12 -1 -18q-6 -57 -49 -94h57z"/>
<glyph glyph-name="AE" horiz-adv-x="1011" unicode="Æ" d="M524 573h-31l-131 -269h129zM1029 727l-20 -168h-279l-14 -111h271l-19 -152h-271l-15 -126h286l-21 -170h-493l18 150h-186l-73 -150h-229l388 727h657z"/>
<glyph glyph-name="Ccedilla" horiz-adv-x="736" unicode="Ç" d="M512 -128q-7 -62 -39.5 -84t-112.5 -22h-124l10 81h127q19 0 26.5 5.5t7.5 22.5q0 11 -4.5 15.5t-19.5 4.5h-60l11 92q-131 2 -187 49q-59 49 -59 166q0 39 6 86l19 148q20 166 91.5 233.5t232.5 67.5h54q138 0 197.5 -44.5t59.5 -151.5q0 -27 -5 -70l-3 -23h-214l3 22 q1 7 1 19q0 33 -20 47t-64 14q-63 0 -82.5 -26t-28.5 -104l-15 -117q-4 -31 -4.5 -37.5t-0.5 -24.5q0 -37 17.5 -51.5t66.5 -14.5q52 0 75.5 19.5t29.5 69.5l4 26h218l-4 -30q-18 -145 -91 -209t-220 -64h-7l-2 -18h38q74 0 74 -73v-12q-2 -8 -2 -12z"/>
<glyph glyph-name="Egrave" horiz-adv-x="717" unicode="È" d="M738 732l-22 -178h-351l-13 -104h341l-19 -157h-341l-14 -114h359l-22 -179h-574l90 732h566zM560 772h-91l-145 197h153z"/>
<glyph glyph-name="Eacute" horiz-adv-x="717" unicode="É" d="M738 732l-22 -178h-351l-13 -104h341l-19 -157h-341l-14 -114h359l-22 -179h-574l90 732h566zM652 969l-193 -197h-91l131 197h153z"/>
<glyph glyph-name="Ecircumflex" horiz-adv-x="717" unicode="Ê" d="M738 732l-22 -178h-351l-13 -104h341l-19 -157h-341l-14 -114h359l-22 -179h-574l90 732h566zM635 772h-91l-68 98l-93 -98h-90l131 197h128z"/>
<glyph glyph-name="Edieresis" horiz-adv-x="717" unicode="Ë" d="M738 732l-22 -179h-351l-13 -103h341l-19 -157h-341l-14 -115h359l-22 -178h-574l90 732h566zM464 937l-17 -137h-130l17 137h130zM634 937l-17 -137h-130l17 137h130z"/>
<glyph glyph-name="Igrave" horiz-adv-x="389" unicode="Ì" d="M395 732l-90 -732h-217l90 732h217zM387 772h-91l-145 197h153z"/>
<glyph glyph-name="Iacute" horiz-adv-x="389" unicode="Í" d="M395 732l-90 -732h-217l90 732h217zM479 969l-193 -197h-91l131 197h153z"/>
<glyph glyph-name="Icircumflex" horiz-adv-x="389" unicode="Î" d="M395 732l-90 -732h-217l90 732h217zM462 772h-91l-68 98l-93 -98h-90l131 197h128z"/>
<glyph glyph-name="Idieresis" horiz-adv-x="389" unicode="Ï" d="M395 732l-90 -732h-217l90 732h217zM291 937l-17 -137h-130l17 137h130zM461 937l-17 -137h-130l17 137h130z"/>
<glyph glyph-name="Eth" horiz-adv-x="802" unicode="Ð" d="M583 422q4 28 4.5 35.5t0.5 25.5q0 38 -18.5 52.5t-69.5 14.5h-135l-46 -373h135q65 0 84.5 24.5t29.5 103.5zM803 435l-17 -143q-20 -161 -91.5 -226.5t-232.5 -65.5h-380l42 343h-72l17 136h72l30 248h380q139 0 198.5 -48.5t59.5 -161.5q0 -37 -6 -82z"/>
<glyph glyph-name="Ntilde" horiz-adv-x="878" unicode="Ñ" d="M894 732l-90 -732h-307l-148 495l-61 -495h-206l90 732h306l150 -491l60 491h206zM727 945q-25 -72 -56.5 -104t-75.5 -32q-17 0 -38 6l-41 12q-20 6 -29 6q-24 0 -40 -39h-75q25 70 56 101.5t74 31.5q12 0 22 -1t22 -5l43 -13l24 -3q24 0 39 40h75z"/>
<glyph glyph-name="Ograve" horiz-adv-x="784" unicode="Ò" d="M565 425q5 40 5 60q0 40 -18.5 54.5t-70.5 14.5h-36q-65 0 -87 -27q-18 -23 -28 -102l-14 -118q-5 -41 -5 -48.5v-13.5q0 -38 18 -52t70 -14h36q66 0 86 24.5t30 103.5zM786 440l-18 -148q-20 -166 -92.5 -233.5t-233.5 -67.5h-96q-139 0 -198 49t-59 166q0 39 6 86 l18 148q20 167 92 234t233 67h96q139 0 198.5 -49.5t59.5 -166.5q0 -38 -6 -85zM587 772h-91l-145 197h153z"/>
<glyph glyph-name="Oacute" horiz-adv-x="784" unicode="Ó" d="M565 425q5 40 5 60q0 40 -18.5 54.5t-70.5 14.5h-36q-65 0 -87 -27q-18 -23 -28 -102l-14 -118q-5 -41 -5 -48.5v-13.5q0 -38 18 -52t70 -14h36q66 0 86 24.5t30 103.5zM786 440l-18 -148q-20 -166 -92.5 -233.5t-233.5 -67.5h-96q-139 0 -198 49t-59 166q0 39 6 86 l18 148q20 167 92 234t233 67h96q139 0 198.5 -49.5t59.5 -166.5q0 -38 -6 -85zM679 969l-193 -197h-91l131 197h153z"/>
<glyph glyph-name="Ocircumflex" horiz-adv-x="784" unicode="Ô" d="M565 425q5 40 5 60q0 40 -18.5 54.5t-70.5 14.5h-36q-65 0 -87 -27q-18 -23 -28 -102l-14 -118q-5 -41 -5 -48.5v-13.5q0 -38 18 -52t70 -14h36q66 0 86 24.5t30 103.5zM786 440l-18 -148q-20 -166 -92.5 -233.5t-233.5 -67.5h-96q-139 0 -198 49t-59 166q0 39 6 86 l18 148q20 167 92 234t233 67h96q139 0 198.5 -49.5t59.5 -166.5q0 -38 -6 -85zM662 772h-91l-68 98l-93 -98h-90l131 197h128z"/>
<glyph glyph-name="Otilde" horiz-adv-x="784" unicode="Õ" d="M565 424q4 28 4.5 35.5t0.5 24.5q0 41 -18.5 55.5t-70.5 14.5h-36q-66 0 -85.5 -25t-29.5 -105l-14 -117q-5 -41 -5 -48.5v-13.5q0 -38 19 -52.5t69 -14.5h36q65 0 87 27q19 23 29 102zM786 440l-18 -148q-20 -166 -92.5 -233.5t-233.5 -67.5h-96q-139 0 -198 49t-59 166 q0 39 6 86l18 148q20 167 91.5 234t233.5 67h96q139 0 198.5 -49.5t59.5 -166.5q0 -38 -6 -85zM680 945q-25 -72 -56.5 -104t-75.5 -32q-17 0 -38 6l-41 12q-20 6 -29 6q-24 0 -39 -38h-75q23 69 54.5 100.5t74.5 31.5q12 0 22 -1t22 -5l43 -13l24 -3q24 0 39 40h75z"/>
<glyph glyph-name="Odieresis" horiz-adv-x="784" unicode="Ö" d="M565 424q4 28 4.5 35.5t0.5 24.5q0 41 -18.5 55.5t-70.5 14.5h-36q-66 0 -85.5 -25t-29.5 -105l-14 -117q-5 -41 -5 -48.5v-13.5q0 -38 19 -52.5t69 -14.5h36q65 0 87 27q19 23 29 102zM786 440l-18 -148q-20 -166 -92.5 -233.5t-233.5 -67.5h-96q-139 0 -198 49t-59 166 q0 39 6 86l18 148q20 167 91.5 234t233.5 67h96q139 0 198.5 -49.5t59.5 -166.5q0 -38 -6 -85zM491 937l-17 -137h-130l17 137h130zM661 937l-17 -137h-130l17 137h130z"/>
<glyph glyph-name="multiply" horiz-adv-x="578" unicode="×" d="M535 82l-85 -85l-150 150l-150 -150l-85 85l150 150l-150 150l85 85l150 -150l150 150l85 -85l-150 -150z"/>
<glyph glyph-name="Oslash" horiz-adv-x="784" unicode="Ø" d="M569 475l-224 -291q20 -6 54 -6h36q66 0 85.5 24.5t29.5 102.5l15 117zM537 543q-20 7 -56 7h-36q-66 0 -85.5 -24.5t-29.5 -103.5l-15 -117q-2 -19 -3.5 -37.5t-1.5 -20.5zM836 820l-103 -133q59 -49 59 -164q0 -38 -6 -85l-18 -148q-20 -164 -92.5 -231.5t-233.5 -67.5 h-96q-41 0 -75 4t-62 13l-94 -122h-80l116 151q-62 49 -62 166q0 39 6 87l18 148q20 165 91.5 231.5t232.5 66.5h96q41 0 76 -4t62 -13l77 101h88z"/>
<glyph glyph-name="Ugrave" horiz-adv-x="804" unicode="Ù" d="M830 732l-54 -440q-11 -86 -24 -127q-19 -57 -60 -98.5t-97 -58.5t-142 -17h-96q-87 0 -138 16t-84 60q-19 26 -27.5 56.5t-8.5 69.5q0 20 0.5 30t7.5 69l54 440h214l-52 -425q-4 -27 -4.5 -33t-0.5 -23q0 -41 19.5 -56.5t72.5 -15.5h36q65 0 86.5 25t31.5 103l52 425 h214zM597 772h-91l-145 197h153z"/>
<glyph glyph-name="Uacute" horiz-adv-x="804" unicode="Ú" d="M830 732l-54 -440q-11 -86 -24 -127q-19 -57 -60 -98.5t-97 -58.5t-142 -17h-96q-87 0 -138 16t-84 60q-19 26 -27.5 56.5t-8.5 69.5q0 20 0.5 30t7.5 69l54 440h214l-52 -425q-4 -27 -4.5 -33t-0.5 -23q0 -41 19.5 -56.5t72.5 -15.5h36q65 0 86.5 25t31.5 103l52 425 h214zM689 969l-193 -197h-91l131 197h153z"/>
<glyph glyph-name="Ucircumflex" horiz-adv-x="804" unicode="Û" d="M830 732l-54 -440q-11 -86 -24 -127q-19 -57 -60 -98.5t-97 -58.5t-142 -17h-96q-87 0 -138 16t-84 60q-19 26 -27.5 56.5t-8.5 69.5q0 20 0.5 30t7.5 69l54 440h214l-52 -425q-4 -27 -4.5 -33t-0.5 -23q0 -41 19.5 -56.5t72.5 -15.5h36q65 0 86.5 25t31.5 103l52 425 h214zM672 772h-91l-68 98l-93 -98h-90l131 197h128z"/>
<glyph glyph-name="Udieresis" horiz-adv-x="804" unicode="Ü" d="M830 732l-54 -440q-11 -86 -24 -127q-19 -57 -60 -98.5t-97 -58.5t-142 -17h-96q-87 0 -138 16t-84 60q-19 26 -27.5 56.5t-8.5 69.5q0 20 0.5 30t7.5 69l54 440h214l-52 -425q-4 -27 -4.5 -33t-0.5 -23q0 -42 19.5 -57.5t72.5 -15.5h36q64 0 86 25.5t32 103.5l52 425 h214zM501 937l-17 -137h-130l17 137h130zM671 937l-17 -137h-130l17 137h130z"/>
<glyph glyph-name="Yacute" horiz-adv-x="719" unicode="Ý" d="M817 732l-314 -475l-32 -257h-215l32 257l-199 475h243l91 -261l153 261h241zM646 969l-193 -197h-91l131 197h153z"/>
<glyph glyph-name="Thorn" horiz-adv-x="748" unicode="Þ" d="M539 386q1 6 1 17q0 27 -16.5 39.5t-52.5 12.5h-118l-23 -184h126q41 0 57 15t21 60zM759 387l-6 -47q-16 -134 -88 -189.5t-220 -55.5h-136l-12 -95h-215l89 727h215l-11 -94h136q131 0 191.5 -44t60.5 -147q0 -12 -1.5 -28.5t-2.5 -26.5z"/>
<glyph glyph-name="germandbls" horiz-adv-x="609" unicode="ß" d="M597 266l-11 -87q-12 -100 -62 -143t-153 -43q-27 0 -71 6l17 138l28 -3q26 0 38.5 14t16.5 46l11 91q1 4 1 12q0 23 -15 31t-54 8l15 121q27 0 37 8.5t12 30.5l6 52q1 3 1 6.5v4.5q0 30 -37 30q-24 0 -33.5 -12.5t-13.5 -44.5l-65 -532h-187l66 537q24 190 218 190h61 q83 0 126.5 -34.5t43.5 -98.5v-12q-2 -8 -2 -12l-7 -54q-5 -39 -18 -62.5t-40 -37.5q73 -25 73 -115v-12q0 -6 -1 -12.5t-1 -10.5z"/>
<glyph glyph-name="agrave" horiz-adv-x="616" unicode="à" d="M386 182v6q0 29 -34 29h-45q-41 0 -45 -35l-3 -26v-6q0 -28 36 -28h45q39 0 43 34zM592 353l-43 -353h-184l4 30q-44 -37 -110 -37h-59q-63 0 -96.5 31.5t-33.5 90.5q0 6 1 14.5t1 13.5l5 46q18 145 184 145h45q61 0 96 -33l9 74v7q0 28 -31 28h-28q-19 0 -25 -2 q-16 -6 -20 -35h-183q11 85 58.5 119.5t144.5 34.5h78q102 0 146 -30.5t44 -102.5q0 -18 -3 -41zM484 561h-91l-145 195h153z"/>
<glyph glyph-name="aacute" horiz-adv-x="616" unicode="á" d="M386 182v6q0 29 -34 29h-45q-41 0 -45 -35l-3 -26v-6q0 -28 36 -28h45q39 0 43 34zM592 353l-43 -353h-184l4 30q-44 -37 -110 -37h-59q-63 0 -96.5 31.5t-33.5 90.5q0 6 1 14.5t1 13.5l5 46q18 145 184 145h45q61 0 96 -33l9 74v7q0 28 -31 28h-28q-19 0 -25 -2 q-16 -6 -20 -35h-183q11 85 58.5 119.5t144.5 34.5h78q102 0 146 -30.5t44 -102.5q0 -18 -3 -41zM576 756l-193 -195h-91l131 195h153z"/>
<glyph glyph-name="acircumflex" horiz-adv-x="616" unicode="â" d="M386 182v6q0 29 -34 29h-45q-41 0 -45 -35l-3 -26v-6q0 -28 36 -28h45q39 0 43 34zM592 353l-43 -353h-184l4 30q-44 -37 -110 -37h-59q-63 0 -96.5 31.5t-33.5 90.5q0 6 1 14.5t1 13.5l5 46q18 145 184 145h45q61 0 96 -33l9 74v7q0 28 -31 28h-28q-19 0 -25 -2 q-16 -6 -20 -35h-183q11 85 58.5 119.5t144.5 34.5h78q102 0 146 -30.5t44 -102.5q0 -18 -3 -41zM559 561h-91l-68 97l-93 -97h-90l131 195h128z"/>
<glyph glyph-name="atilde" horiz-adv-x="616" unicode="ã" d="M386 182v6q0 28 -34 28h-45q-41 0 -45 -34l-3 -26v-6q0 -28 36 -28h45q39 0 43 34zM592 353l-43 -353h-184l4 30q-44 -37 -110 -37h-59q-63 0 -97 32t-34 91q0 6 1 14t1 12l6 47q8 69 55.5 106.5t128.5 37.5h45q62 0 96 -32l9 74v7q0 27 -31 27h-28q-22 0 -32 -7t-13 -29 h-183q11 85 58.5 119.5t144.5 34.5h78q101 0 145.5 -31.5t44.5 -102.5q0 -19 -3 -40zM577 732q-25 -71 -57 -103t-75 -32q-17 0 -38 6l-41 12q-17 5 -29 5q-13 0 -22 -8t-17 -29h-75q23 68 54.5 99.5t74.5 31.5q12 0 22 -1t22 -5l43 -13l24 -2q24 0 39 39h75z"/>
<glyph glyph-name="adieresis" horiz-adv-x="616" unicode="ä" d="M386 182v6q0 28 -34 28h-45q-41 0 -45 -34l-3 -26v-6q0 -28 36 -28h45q39 0 43 34zM592 353l-43 -353h-184l4 30q-44 -37 -110 -37h-59q-63 0 -97 32t-34 91q0 6 1 14t1 12l6 47q8 69 55.5 106.5t128.5 37.5h45q59 0 96 -32l9 74v7q0 27 -31 27h-28q-22 0 -32 -7t-13 -29 h-183q11 85 58.5 119.5t144.5 34.5h78q101 0 145.5 -31.5t44.5 -102.5q0 -19 -3 -40zM388 724l-17 -136h-130l17 136h130zM558 724l-17 -136h-130l17 136h130z"/>
<glyph glyph-name="aring" horiz-adv-x="616" unicode="å" d="M386 183v6q0 28 -34 28h-45q-41 0 -45 -34l-3 -27v-6q0 -28 36 -28h45q39 0 43 34zM457 680q0 18 -12 32t-32 14q-21 0 -38 -14t-17 -32q0 -51 43 -51q22 0 39 14.5t17 36.5zM592 354l-43 -354h-184l4 30q-44 -37 -110 -37h-59q-63 0 -96.5 31.5t-33.5 90.5q0 6 1 14.5 t1 13.5l5 47q8 69 55 106.5t129 37.5h45q61 0 96 -32l9 74v7q0 27 -31 27h-28q-22 0 -32 -7t-13 -29h-183q11 85 58.5 119.5t144.5 34.5h78q102 0 146 -30.5t44 -102.5q0 -18 -3 -41zM547 677q-7 -57 -52.5 -97t-104.5 -40q-54 0 -88.5 33.5t-34.5 86.5q0 11 1 17 q7 57 52 96.5t104 39.5q54 0 89 -34t35 -86q0 -10 -1 -16z"/>
<glyph glyph-name="ae" horiz-adv-x="900" unicode="æ" d="M386 181v6q0 27 -35 27h-45q-40 0 -44 -33l-3 -26v-6q0 -28 36 -28h45q39 0 43 34zM714 331q0 5 1 13t1 15q0 25 -10.5 34.5t-39.5 9.5h-21q-33 0 -46 -14t-18 -53l-1 -13h133zM891 309l-11 -88h-313l-6 -51q-1 -4 -1 -8v-6q0 -21 11 -29t39 -8h20q28 0 41.5 10.5 t20.5 41.5h181q-18 -96 -73 -136.5t-162 -40.5h-69q-67 0 -107.5 13.5t-61.5 46.5q-59 -60 -141 -60h-59q-64 0 -97.5 31.5t-33.5 89.5q0 6 1 14t1 12l6 46q8 68 55.5 105.5t128.5 37.5h45q59 0 96 -32l9 73v5q0 29 -31 29h-28q-19 0 -25 -2q-18 -6 -21 -34h-183 q11 84 58.5 118.5t144.5 34.5h78q41 0 68.5 -7.5t47.5 -28.5q20 19 47 27.5t67 8.5h69q103 0 147.5 -35.5t44.5 -119.5v-27q-3 -21 -4 -31z"/>
<glyph glyph-name="ccedilla" horiz-adv-x="597" unicode="ç" d="M442 -129q-7 -62 -39.5 -84t-112.5 -22h-124l10 81h127q19 0 26.5 5.5t7.5 22.5q0 11 -4.5 15.5t-19.5 4.5h-60l12 93q-102 0 -146 36t-44 120v35q3 17 4 25l13 103q14 118 67.5 166.5t172.5 48.5h69q102 0 148 -33.5t46 -111.5q0 -20 -3 -44l-3 -23h-184l2 15q1 7 1 19 q0 39 -46 39h-22q-36 0 -46 -17.5t-17 -70.5l-10 -80q-2 -13 -3 -24.5t-1 -22.5q0 -23 9.5 -31.5t36.5 -8.5h22q30 0 42 13.5t17 49.5l3 22h184l-3 -34q-13 -103 -68.5 -147t-170.5 -44v0q-1 -10 -3 -20h38q74 0 74 -72v-12q-2 -8 -2 -12z"/>
<glyph glyph-name="egrave" horiz-adv-x="599" unicode="è" d="M412 334q0 8 1 17.5t1 13.5q0 24 -10.5 33.5t-38.5 9.5h-21q-34 0 -46.5 -14.5t-17.5 -54.5l-2 -12h133zM589 312l-11 -89h-313l-6 -51q-1 -5 -1 -15q0 -21 11 -29t39 -8h21q28 0 41 11t20 42h181q-18 -97 -73.5 -138.5t-161.5 -41.5h-69q-103 0 -147 36t-44 120v35 q3 17 4 25l12 103q15 118 68.5 166.5t172.5 48.5h69q103 0 147 -35t44 -120v-35q-3 -17 -4 -25zM467 561h-91l-145 195h153z"/>
<glyph glyph-name="eacute" horiz-adv-x="599" unicode="é" d="M412 334q0 8 1 17.5t1 13.5q0 24 -10.5 33.5t-38.5 9.5h-21q-34 0 -46.5 -14.5t-17.5 -54.5l-2 -12h133zM589 312l-11 -89h-313l-6 -51q-1 -5 -1 -15q0 -21 11 -29t39 -8h21q28 0 41 11t20 42h181q-18 -97 -73.5 -138.5t-161.5 -41.5h-69q-103 0 -147 36t-44 120v35 q3 17 4 25l12 103q15 118 68.5 166.5t172.5 48.5h69q103 0 147 -35t44 -120v-35q-3 -17 -4 -25zM559 756l-193 -195h-91l131 195h153z"/>
<glyph glyph-name="ecircumflex" horiz-adv-x="599" unicode="ê" d="M412 334q0 8 1 17.5t1 13.5q0 24 -10.5 33.5t-38.5 9.5h-21q-34 0 -46.5 -14.5t-17.5 -54.5l-2 -12h133zM589 312l-11 -89h-313l-6 -51q-1 -5 -1 -15q0 -21 11 -29t39 -8h21q28 0 41 11t20 42h181q-18 -97 -73.5 -138.5t-161.5 -41.5h-69q-103 0 -147 36t-44 120v35 q3 17 4 25l12 103q15 118 68.5 166.5t172.5 48.5h69q103 0 147 -35t44 -120v-35q-3 -17 -4 -25zM542 561h-91l-68 97l-93 -97h-90l131 195h128z"/>
<glyph glyph-name="edieresis" horiz-adv-x="599" unicode="ë" d="M412 334q0 8 1 17.5t1 13.5q0 24 -10 33t-39 9h-21q-34 0 -46.5 -14t-17.5 -54l-2 -13h133zM589 312l-11 -89h-313l-6 -51q-1 -5 -1 -15q0 -21 11 -29t39 -8h21q28 0 41 11t20 42h181q-18 -97 -73.5 -138.5t-161.5 -41.5h-69q-103 0 -147 36t-44 120v35q3 17 4 25l12 103 q14 117 68 166t173 49h69q103 0 147 -36t44 -120v-35q-3 -16 -4 -24zM371 724l-17 -136h-130l17 136h130zM541 724l-17 -136h-130l17 136h130z"/>
<glyph glyph-name="igrave" horiz-adv-x="338" unicode="ì" d="M327 520l-64 -520h-186l64 520h186zM335 560h-91l-145 196h153z"/>
<glyph glyph-name="iacute" horiz-adv-x="338" unicode="í" d="M327 520l-64 -520h-186l64 520h186zM427 756l-193 -196h-91l131 196h153z"/>
<glyph glyph-name="icircumflex" horiz-adv-x="338" unicode="î" d="M327 520l-64 -520h-186l64 520h186zM410 560h-91l-68 98l-93 -98h-90l131 196h128z"/>
<glyph glyph-name="idieresis" horiz-adv-x="338" unicode="ï" d="M327 520l-64 -520h-186l64 520h186zM239 724l-17 -136h-130l17 136h130zM409 724l-17 -136h-130l17 136h130z"/>
<glyph glyph-name="eth" d="M493 251q1 4 1 12q0 20 -14 25.5t-55 5.5h-39q-46 0 -59.5 -7t-17.5 -36l-7 -53q-1 -4 -1 -8v-6q0 -19 14.5 -25t53.5 -6h39q44 0 59 7.5t19 37.5zM795 680l-82 -48q13 -39 13 -99q0 -42 -6 -95l-18 -148q-21 -164 -84 -231.5t-205 -67.5h-86q-230 0 -230 164v15 q2 12 2 17l8 65q13 103 69 152.5t162 49.5h71q64 0 105 -33l12 102q2 14 2 19q0 20 -12 26.5t-47 6.5h-48q-33 0 -45 -7.5t-16 -34.5l-2 -19h-202l7 53q10 82 74.5 125.5t180.5 43.5h86q66 0 108 -13l130 75z" unicode="ð"/>
<glyph glyph-name="ntilde" horiz-adv-x="631" unicode="ñ" d="M606 335l-41 -335h-183l37 300q3 21 3 35q0 26 -11.5 34t-45.5 8q-37 0 -48.5 -18.5t-17.5 -68.5l-36 -290h-183l64 520h178l-7 -46q52 53 142 53q85 0 119 -29t34 -100v-30q-3 -22 -4 -33zM584 732q-25 -71 -57 -103t-75 -32q-17 0 -38 6l-42 11q-18 6 -28 6 q-24 0 -40 -38h-75q24 69 55.5 100.5t74.5 31.5q12 0 22 -1t22 -5l43 -13l24 -3q24 0 39 40h75z"/>
<glyph glyph-name="ograve" horiz-adv-x="600" unicode="ò" d="M401 300q2 14 3.5 25t1.5 25q0 21 -9.5 29.5t-35.5 8.5h-20q-36 0 -46 -17.5t-17 -70.5l-10 -80q-1 -11 -2.5 -24.5t-1.5 -23.5q0 -22 9.5 -30.5t35.5 -8.5h20q36 0 47 19q8 14 15 68zM589 312l-12 -103q-15 -119 -68.5 -167.5t-172.5 -48.5h-69q-103 0 -147 36t-44 120 v35q3 17 4 25l12 103q15 118 68.5 166.5t172.5 48.5h69q103 0 147 -35t44 -120v-35q-3 -17 -4 -25zM468 561h-91l-145 195h153z"/>
<glyph glyph-name="oacute" horiz-adv-x="600" unicode="ó" d="M401 300q2 14 3.5 25t1.5 25q0 21 -9.5 29.5t-35.5 8.5h-20q-36 0 -46 -17.5t-17 -70.5l-10 -80q-1 -11 -2.5 -24.5t-1.5 -23.5q0 -22 9.5 -30.5t35.5 -8.5h20q36 0 47 19q8 14 15 68zM589 312l-12 -103q-15 -119 -68.5 -167.5t-172.5 -48.5h-69q-103 0 -147 36t-44 120 v35q3 17 4 25l12 103q15 118 68.5 166.5t172.5 48.5h69q103 0 147 -35t44 -120v-35q-3 -17 -4 -25zM560 756l-193 -195h-91l131 195h153z"/>
<glyph glyph-name="ocircumflex" horiz-adv-x="600" unicode="ô" d="M401 300q2 14 3.5 25t1.5 25q0 21 -9.5 29.5t-35.5 8.5h-20q-36 0 -46 -17.5t-17 -70.5l-10 -80q-1 -11 -2.5 -24.5t-1.5 -23.5q0 -22 9.5 -30.5t35.5 -8.5h20q36 0 47 19q8 14 15 68zM589 312l-12 -103q-15 -119 -68.5 -167.5t-172.5 -48.5h-69q-103 0 -147 36t-44 120 v35q3 17 4 25l12 103q15 118 68.5 166.5t172.5 48.5h69q103 0 147 -35t44 -120v-35q-3 -17 -4 -25zM543 561h-91l-68 97l-93 -97h-90l131 195h128z"/>
<glyph glyph-name="otilde" horiz-adv-x="600" unicode="õ" d="M401 300q2 14 3.5 25t1.5 25q0 21 -9.5 29.5t-35.5 8.5h-20q-35 0 -45.5 -18t-17.5 -70l-10 -80q-1 -11 -2.5 -24.5t-1.5 -23.5q0 -22 9.5 -30.5t35.5 -8.5h20q36 0 47 19q8 14 15 68zM589 312l-12 -103q-15 -119 -68.5 -167.5t-172.5 -48.5h-69q-103 0 -147 36t-44 120 v35q3 17 4 25l12 103q15 118 68.5 166.5t172.5 48.5h69q103 0 147 -35t44 -120v-35q-3 -17 -4 -25zM561 732q-25 -71 -57 -103t-75 -32q-17 0 -38 6l-41 12q-17 5 -29 5q-13 0 -22 -8t-17 -29h-75q23 68 54.5 99.5t74.5 31.5q12 0 22 -1t22 -5l43 -13l24 -2q24 0 39 39h75z "/>
<glyph glyph-name="odieresis" horiz-adv-x="600" unicode="ö" d="M401 300q2 14 3.5 25t1.5 25q0 21 -9.5 29.5t-35.5 8.5h-20q-35 0 -45.5 -18t-17.5 -70l-10 -80q-1 -11 -2.5 -24.5t-1.5 -23.5q0 -22 9.5 -30.5t35.5 -8.5h20q36 0 47 19q8 14 15 68zM589 312l-12 -103q-15 -119 -68.5 -167.5t-172.5 -48.5h-69q-103 0 -147 36t-44 120 v35q3 17 4 25l12 103q14 117 68 166t173 49h69q103 0 147 -36t44 -120v-35q-3 -16 -4 -24zM372 724l-17 -136h-130l17 136h130zM542 724l-17 -136h-130l17 136h130z"/>
<glyph glyph-name="divide" horiz-adv-x="578" unicode="÷" d="M374 0h-150v146h150v-146zM538 200h-484v120h484v-120zM374 376h-150v146h150v-146z"/>
<glyph glyph-name="oslash" horiz-adv-x="600" unicode="ø" d="M400 297q2 14 3.5 25t1.5 24q0 21 -9.5 29.5t-35.5 8.5h-20q-35 0 -45.5 -17t-17.5 -70l-9 -79q-3 -19 -3.5 -27.5t-0.5 -20.5q0 -22 9.5 -30.5t35.5 -8.5h20q36 0 47 19q8 14 15 68zM631 616l-91 -124q53 -34 53 -125q0 -13 -1.5 -30.5t-2.5 -27.5l-13 -102 q-14 -118 -67 -165.5t-173 -47.5h-69q-14 0 -26.5 0.5t-43.5 4.5l-82 -113h-80l94 137q-54 35 -54 127q0 13 1.5 30t2.5 27l13 102q14 117 68 165t172 48h69q43 0 73 -6l69 100h88z"/>
<glyph glyph-name="ugrave" horiz-adv-x="635" unicode="ù" d="M629 521l-64 -521h-178l7 46q-52 -53 -142 -53q-86 0 -120 28t-34 99q0 24 5 64l41 337h183l-37 -301q-3 -21 -3 -35q0 -25 12 -33t45 -8q37 0 50 20q10 16 16 65l36 292h183zM495 561h-91l-145 195h153z"/>
<glyph glyph-name="uacute" horiz-adv-x="635" unicode="ú" d="M629 521l-64 -521h-178l7 46q-52 -53 -142 -53q-86 0 -120 28t-34 99q0 24 5 64l41 337h183l-37 -301q-3 -21 -3 -35q0 -25 12 -33t45 -8q37 0 50 20q10 16 16 65l36 292h183zM587 756l-193 -195h-91l131 195h153z"/>
<glyph glyph-name="ucircumflex" horiz-adv-x="635" unicode="û" d="M629 521l-64 -521h-178l7 46q-52 -53 -142 -53q-86 0 -120 28t-34 99q0 24 5 64l41 337h183l-37 -301q-3 -21 -3 -35q0 -25 12 -33t45 -8q37 0 50 20q10 16 16 65l36 292h183zM570 561h-91l-68 97l-93 -97h-90l131 195h128z"/>
<glyph glyph-name="udieresis" horiz-adv-x="635" unicode="ü" d="M629 520l-64 -520h-178l7 46q-52 -53 -142 -53q-86 0 -120 28t-34 99q0 24 5 64l41 336h183l-37 -300q-3 -21 -3 -35q0 -26 11.5 -34t45.5 -8q37 0 50 20q10 16 16 66l36 291h183zM399 724l-17 -136h-130l17 136h130zM569 724l-17 -136h-130l17 136h130z"/>
<glyph glyph-name="yacute" horiz-adv-x="577" unicode="ý" d="M660 515l-255 -578q-29 -71 -75 -102.5t-128 -31.5q-19 0 -30 1q-56 5 -68 5l16 131h46q22 0 36.5 10t14.5 26l2 34l-176 505h192l100 -336l129 336h196zM548 756l-193 -197h-91l131 197h153z"/>
<glyph glyph-name="thorn" horiz-adv-x="618" unicode="þ" d="M418 297q1 11 2.5 21t1.5 20q0 22 -9.5 32.5t-33.5 10.5h-19q-32 0 -43.5 -19t-17.5 -65l-9 -78q-3 -23 -3 -40q0 -24 9 -34t34 -10h19q32 0 45 21q9 15 15 63zM606 309l-13 -103q-14 -110 -63 -163.5t-139 -53.5q-88 0 -124 46l-28 -232h-183l113 924h183l-30 -248 q49 47 135 47q153 0 153 -162q0 -12 -1.5 -28.5t-2.5 -26.5z"/>
<glyph glyph-name="OE" horiz-adv-x="1038" unicode="Œ" d="M565 425q5 42 5 51v15q0 38 -18.5 52.5t-69.5 14.5h-36q-63 0 -84.5 -25.5t-31.5 -107.5l-15 -122q-5 -42 -5 -51v-15q0 -38 18.5 -52.5t69.5 -14.5h36q66 0 86 25.5t30 107.5zM1071 728l-21 -174h-263l-13 -109h251l-19 -152h-251l-15 -120h271l-21 -173h-461l7 61 q-38 -41 -76 -55.5t-105 -14.5q-137 0 -201 54t-64 173q0 29 5 72l18 148q19 155 98 226.5t229 71.5q66 0 102.5 -14t68.5 -51l7 57h453z"/>
<glyph glyph-name="oe" horiz-adv-x="922" unicode="œ" d="M412 297q4 25 4 46q0 23 -10 32t-40 9h-22q-39 0 -49.5 -16.5t-17.5 -70.5l-9 -79q-3 -18 -3.5 -26t-0.5 -19q0 -23 10.5 -32.5t39.5 -9.5h21q38 0 49.5 17.5t18.5 69.5zM737 331q0 5 1 13t1 15q0 25 -10.5 34.5t-39.5 9.5h-25q-34 0 -47 -14t-18 -55l-1 -11h138z M914 309l-11 -88h-318l-6 -51q-1 -4 -1 -8v-6q0 -21 12 -29t39 -8h25q28 0 41.5 10.5t20.5 41.5h179q-16 -95 -71 -136t-162 -41h-82q-91 0 -112 57q-43 -57 -139 -57h-62q-103 0 -147.5 35.5t-44.5 119.5v22.5t4 35.5l13 102q14 117 68 165t172 48h62q52 0 81.5 -12 t45.5 -42q24 27 58 40.5t83 13.5h65q103 0 147 -35t44 -119v-28q-3 -21 -4 -31z"/>
<glyph glyph-name="Scaron" horiz-adv-x="723" unicode="Š" d="M724 564l-7 -59h-207l2 18q1 4 1 12q0 35 -56 35h-45q-39 0 -56 -7.5t-20 -31.5l-3 -29q-1 -3 -1 -6q0 -20 24 -26q11 -3 42 -6l142 -16q174 -21 174 -154q0 -7 -1 -15.5t-1 -13.5l-9 -69q-11 -92 -76.5 -148.5t-165.5 -56.5h-159q-119 0 -175.5 37.5t-56.5 118.5l2 34 l7 59h207l-1 -16q-1 -4 -1 -8v-6q0 -26 17.5 -36t60.5 -10h49q70 0 75 43l4 31q1 4 1 8q0 17 -13 24.5t-52 10.5l-155 17q-81 9 -119.5 46.5t-38.5 109.5q0 18 3 41l5 44q14 106 87 161q32 24 77 32.5t110 8.5h117q105 0 159.5 -39.5t54.5 -111.5q0 -6 -1 -14t-1 -12z M655 969l-131 -197h-128l-83 197h90l69 -99l92 99h91z"/>
<glyph glyph-name="scaron" horiz-adv-x="602" unicode="š" d="M591 387l-3 -20h-182v6q0 35 -47 35h-21q-52 0 -57 -38v-6q0 -27 35 -27l115 -10q152 -15 152 -113q0 -12 -1 -19l-5 -43q-9 -74 -65.5 -116.5t-148.5 -42.5h-109q-189 0 -189 127q0 6 1 14t1 12l2 17h188q0 -30 11.5 -39.5t41.5 -9.5h22q33 0 46 7.5t16 31.5q1 4 1 8 q0 15 -11 22.5t-45 10.5l-104 10q-67 7 -103 40t-36 83q0 11 1 16l5 40q17 144 220 144h101q169 0 169 -117q0 -15 -1 -23zM568 756l-131 -195h-128l-83 195h90l69 -98l92 98h91z"/>
<glyph glyph-name="Ydieresis" horiz-adv-x="719" unicode="Ÿ" d="M817 732l-314 -475l-32 -257h-215l32 257l-199 475h243l91 -261l153 261h241zM458 937l-17 -137h-130l17 137h130zM628 937l-17 -137h-130l17 137h130z"/>
<glyph glyph-name="circumflex" horiz-adv-x="532" unicode="ˆ" d="M510 576h-91l-69 90l-92 -90h-90l129 181h128z"/>
<glyph glyph-name="tilde" horiz-adv-x="532" unicode="˜" d="M526 733q-25 -64 -55.5 -92.5t-74.5 -28.5q-22 0 -38 5l-42 10q-20 6 -28 6q-24 0 -39 -34h-75q44 117 127 117q24 0 44 -5l44 -11l24 -3q24 0 38 36h75z"/>
<glyph glyph-name="summation" horiz-adv-x="347" unicode="Σ" d="M306 300q0 -51 -36.5 -87.5t-87.5 -36.5q-53 0 -89.5 35.5t-36.5 88.5t36.5 89.5t89.5 36.5q51 0 87.5 -36.5t36.5 -89.5z"/>
<glyph glyph-name="pi" horiz-adv-x="347" unicode="π" d="M306 300q0 -51 -36.5 -87.5t-87.5 -36.5q-53 0 -89.5 35.5t-36.5 88.5t36.5 89.5t89.5 36.5q51 0 87.5 -36.5t36.5 -89.5z"/>
<glyph glyph-name="endash" horiz-adv-x="495" unicode="–" d="M500 208h-500v106h500v-106z"/>
<glyph glyph-name="emdash" horiz-adv-x="990" unicode="—" d="M1000 208h-1000v106h1000v-106z"/>
<glyph glyph-name="quoteleft" horiz-adv-x="369" unicode="‘" d="M353 727l-10 -85h-16q-37 0 -41 -30v-4h53l-21 -171h-170l21 176q15 114 163 114h21z"/>
<glyph glyph-name="quotesinglbase" horiz-adv-x="369" unicode="‚" d="M284 163l-22 -177q-13 -113 -163 -113h-21l11 84h16q36 0 40 31v5h-52l21 170h170z"/>
<glyph glyph-name="quotedblleft" horiz-adv-x="596" unicode="“" d="M353 727l-10 -85h-16q-37 0 -41 -30v-4h53l-21 -171h-170l21 176q15 114 163 114h21zM595 727l-10 -85h-16q-36 0 -40 -30v-4h52l-21 -171h-169l21 176q15 114 162 114h21z"/>
<glyph glyph-name="quotedblright" horiz-adv-x="596" unicode="”" d="M353 727l-21 -175q-15 -115 -163 -115h-21l10 85h16q36 0 40 31v4h-52l21 170h170zM595 727l-21 -175q-15 -115 -163 -115h-21l10 85h16q37 0 41 31v4h-53l21 170h170z"/>
<glyph glyph-name="dagger" horiz-adv-x="550" unicode="†" d="M585 484l-14 -116h-182l-69 -564h-130l69 564h-180l14 116h180l28 224h136l-28 -224h176z"/>
<glyph glyph-name="daggerdbl" horiz-adv-x="550" unicode="‡" d="M581 484l-14 -116h-174l-27 -218h174l-14 -116h-174l-28 -230h-136l28 230h-182l14 116h182l27 218h-182l14 116h182l28 224h136l-28 -224h174z"/>
<glyph glyph-name="ellipsis" horiz-adv-x="990" unicode="…" d="M246 0h-150v146h150v-146zM580 0h-150v146h150v-146zM912 0h-150v146h150v-146z"/>
<glyph glyph-name="perthousand" horiz-adv-x="1325" unicode="‰" d="M759 195q3 20 3 33q0 25 -30 25h-13q-24 0 -30.5 -11t-10.5 -47l-6 -52q-3 -20 -3 -32q0 -25 30 -25h13q23 0 30 11.5t11 45.5zM1169 195q3 20 3 33q0 25 -30 25h-13q-24 0 -30.5 -11t-10.5 -47l-6 -52q-3 -20 -3 -32q0 -25 30 -25h13q23 0 30 11.5t11 45.5zM341 583 q3 20 3 33q0 25 -30 25h-13q-24 0 -30.5 -11t-10.5 -47l-7 -52q-3 -20 -3 -32q0 -25 30 -25h13q23 0 30 11.5t11 45.5zM883 203l-8 -67q-10 -78 -45.5 -109.5t-113.5 -31.5h-45q-68 0 -97.5 23.5t-29.5 78.5q0 18 3 39l8 67q10 78 45.5 109.5t113.5 31.5h45q68 0 97.5 -23.5 t29.5 -78.5q0 -18 -3 -39zM1293 203l-8 -67q-10 -78 -45.5 -109.5t-113.5 -31.5h-45q-68 0 -97.5 23.5t-29.5 78.5q0 18 3 39l8 67q10 78 45.5 109.5t113.5 31.5h45q68 0 97.5 -23.5t29.5 -78.5q0 -18 -3 -39zM810 736l-515 -730h-80l507 730h88zM465 591l-9 -67 q-9 -78 -44.5 -109.5t-113.5 -31.5h-45q-70 0 -98.5 23.5t-28.5 80.5q0 24 2 37l9 67q9 78 44.5 109.5t114.5 31.5h45q69 0 97.5 -23.5t28.5 -80.5v-13z"/>
<glyph glyph-name="guilsinglleft" horiz-adv-x="331" unicode="‹" d="M316 476l-13 -110l-115 -88l93 -88l-14 -116l-149 140l15 124z"/>
<glyph glyph-name="guilsinglright" horiz-adv-x="331" unicode="›" d="M297 338l-15 -124l-185 -140l14 116l115 88l-93 88l13 110z"/>
<glyph glyph-name="trademark" horiz-adv-x="990" unicode="™" d="M418 668h-122v-326h-98v326h-122v78h342v-78zM934 342h-88v326l-120 -326h-52l-118 326v-326h-88v404h142l90 -240l92 240h142v-404z"/>
<glyph glyph-name="partialdiff" horiz-adv-x="347" unicode="∂" d="M306 300q0 -51 -36.5 -87.5t-87.5 -36.5q-53 0 -89.5 35.5t-36.5 88.5t36.5 89.5t89.5 36.5q51 0 87.5 -36.5t36.5 -89.5z"/>
<glyph glyph-name="product" horiz-adv-x="347" unicode="∏" d="M306 300q0 -51 -36.5 -87.5t-87.5 -36.5q-53 0 -89.5 35.5t-36.5 88.5t36.5 89.5t89.5 36.5q51 0 87.5 -36.5t36.5 -89.5z"/>
<glyph glyph-name="minus" horiz-adv-x="578" unicode="−" d="M536 172h-484v120h484v-120z"/>
<glyph glyph-name="radical" horiz-adv-x="347" unicode="√" d="M306 300q0 -51 -36.5 -87.5t-87.5 -36.5q-53 0 -89.5 35.5t-36.5 88.5t36.5 89.5t89.5 36.5q51 0 87.5 -36.5t36.5 -89.5z"/>
<glyph glyph-name="infinity" horiz-adv-x="347" unicode="∞" d="M306 300q0 -51 -36.5 -87.5t-87.5 -36.5q-53 0 -89.5 35.5t-36.5 88.5t36.5 89.5t89.5 36.5q51 0 87.5 -36.5t36.5 -89.5z"/>
<glyph glyph-name="approxequal" horiz-adv-x="347" unicode="≈" d="M306 300q0 -51 -36.5 -87.5t-87.5 -36.5q-53 0 -89.5 35.5t-36.5 88.5t36.5 89.5t89.5 36.5q51 0 87.5 -36.5t36.5 -89.5z"/>
<glyph glyph-name="notequal" horiz-adv-x="347" unicode="≠" d="M306 300q0 -51 -36.5 -87.5t-87.5 -36.5q-53 0 -89.5 35.5t-36.5 88.5t36.5 89.5t89.5 36.5q51 0 87.5 -36.5t36.5 -89.5z"/>
<glyph glyph-name="lessequal" horiz-adv-x="347" unicode="≤" d="M306 300q0 -51 -36.5 -87.5t-87.5 -36.5q-53 0 -89.5 35.5t-36.5 88.5t36.5 89.5t89.5 36.5q51 0 87.5 -36.5t36.5 -89.5z"/>
<glyph glyph-name="greaterequal" horiz-adv-x="347" unicode="≥" d="M306 300q0 -51 -36.5 -87.5t-87.5 -36.5q-53 0 -89.5 35.5t-36.5 88.5t36.5 89.5t89.5 36.5q51 0 87.5 -36.5t36.5 -89.5z"/>
<glyph glyph-name="lozenge" horiz-adv-x="347" unicode="◊" d="M306 300q0 -51 -36.5 -87.5t-87.5 -36.5q-53 0 -89.5 35.5t-36.5 88.5t36.5 89.5t89.5 36.5q51 0 87.5 -36.5t36.5 -89.5z"/>
</font>
</defs>
</svg>
