<?xml version="1.0" encoding="UTF-8" standalone="no"?>
<!DOCTYPE svg  PUBLIC '-//W3C//DTD SVG 1.1//EN'  'http://www.w3.org/Graphics/SVG/1.1/DTD/svg11.dtd'>
<svg xmlns="http://www.w3.org/2000/svg">
<defs>
<font id="Square721-BoldItalic" horiz-adv-x="578">
<font-face underline-position="-140" font-weight="500" descent="-200" panose-1="2 11 8 4 2 2 2 13 2 4" units-per-em="1000" unicode-range="U+0020-25CA" bbox="-8 -242 1176 969" x-height="510" underline-thickness="40" font-family="Square721" ascent="800" font-style="italic" cap-height="727"/>
<missing-glyph horiz-adv-x="1000"/>
<glyph glyph-name=".notdef" horiz-adv-x="1000"/>
<glyph glyph-name=".null" horiz-adv-x="0"/>
<glyph glyph-name="nonmarkingreturn" horiz-adv-x="1000"/>
<glyph glyph-name="space" horiz-adv-x="277" unicode=" "/>
<glyph glyph-name="exclam" horiz-adv-x="344" unicode="!" d="M263 159l-20 -159h-140l20 159h140zM332 727l-53 -430h-140l53 430h140z"/>
<glyph glyph-name="quotedbl" horiz-adv-x="469" unicode='&quot;' d="M283 730l-16 -130l-58 -130h-54l-26 130l16 130h138zM519 730l-16 -130l-58 -130h-54l-26 130l16 130h138z"/>
<glyph glyph-name="numbersign" horiz-adv-x="550" unicode="#" d="M358 380h-104l-24 -124h102zM562 380h-98l-24 -124h94v-112h-118l-34 -174h-106l34 174h-102l-32 -174h-106l32 174h-90v112h112l24 124h-96v114h118l38 202h106l-38 -202h100l40 202h104l-38 -202h80v-114z"/>
<glyph glyph-name="dollar" horiz-adv-x="683" unicode="$" d="M489 229q1 4 1 8v6q0 25 -16 35.5t-54 14.5l-20 -162q42 0 61.5 15.5t23.5 50.5zM377 597q-73 0 -80 -60l-4 -31q-1 -8 -1 -11q0 -23 16 -33t51 -15zM685 571l-5 -42h-167q1 7 1 19q0 48 -57 48l-19 -159l78 -8q157 -20 157 -145q0 -7 -1 -15t-1 -12l-9 -72 q-11 -88 -71 -141t-150 -53h-58l-13 -101h-80l13 101h-21q-110 0 -161.5 34t-51.5 110v16t2 19l5 41h167q-1 -7 -1 -19q0 -30 18.5 -45.5t59.5 -15.5l21 172l-87 10q-73 8 -107 43t-34 103q0 19 3 40l6 46q12 101 78 152q30 24 71 31.5t103 7.5h20l11 86h80l-11 -86h17 q96 0 146 -36t50 -104v-12q-2 -9 -2 -13z"/>
<glyph glyph-name="percent" horiz-adv-x="832" unicode="%" d="M715 200q3 24 3 38q0 21 -9 29.5t-32 8.5h-13q-30 0 -40 -15t-16 -61l-7 -56q-3 -24 -3 -39q0 -21 8 -29t32 -8h13q31 0 41 15t16 61zM332 585q3 24 3 38q0 21 -9 29.5t-32 8.5h-13q-30 0 -40 -15t-16 -61l-7 -56q-3 -24 -3 -38q0 -21 9 -29.5t32 -8.5h13q30 0 40 15 t16 61zM813 208l-9 -72q-10 -77 -41.5 -107.5t-103.5 -30.5h-45q-62 0 -88 22t-26 75q0 18 3 41l9 72q9 77 40.5 107.5t103.5 30.5h45q62 0 88.5 -22.5t26.5 -76.5q0 -18 -3 -39zM762 730l-516 -730h-80l508 730h88zM430 593l-9 -72q-9 -76 -41 -107t-104 -31h-45 q-62 0 -88 22t-26 76q0 17 3 40l9 72q9 76 41 107t104 31h45q62 0 88 -22t26 -76q0 -17 -3 -40z"/>
<glyph glyph-name="ampersand" horiz-adv-x="735" unicode="&amp;" d="M484 151l-195 202q-29 -5 -40 -24t-17 -65l-8 -68q-1 -7 -1 -12.5v-7.5q0 -60 79 -60h114q23 0 38 7.5t30 27.5zM736 78l-91 -95l-71 73q-37 -40 -86 -56q-41 -13 -111 -13h-93q-220 0 -220 147v16q2 12 2 17l11 95q8 68 43.5 105t108.5 49q-31 30 -44 56.5t-13 56.5 q0 14 1 22l4 39q10 80 66 113.5t168 33.5h56q102 0 151 -27.5t49 -93.5q0 -6 -1 -14t-1 -12l-8 -70h-140l5 43q1 4 1 8q0 41 -56 41h-75q-62 0 -68 -49l-3 -24q-1 -10 2 -22t10 -19l214 -223l11 95h138l-14 -114q-4 -38 -11.5 -56t-19.5 -34z"/>
<glyph glyph-name="quotesingle" horiz-adv-x="237" unicode="&apos;" d="M283 730l-16 -130l-58 -130h-54l-26 130l16 130h138z"/>
<glyph glyph-name="parenleft" horiz-adv-x="331" unicode="(" d="M400 730q-74 -105 -123 -216q-55 -125 -70 -242q-6 -48 -6 -98q0 -102 23 -202.5t61 -173.5h-100q-42 89 -56 124q-26 63 -41 127.5t-15 133.5q0 14 0.5 26.5t4.5 54.5q12 98 50 190q32 77 82 153q25 37 90 123h100z"/>
<glyph glyph-name="parenright" horiz-adv-x="331" unicode=")" d="M324 264q-11 -90 -43 -172q-26 -67 -77 -148q-32 -51 -101 -146h-100q71 91 125 221t69 253q6 47 6 91q0 95 -24 193q-20 82 -61 174h100q38 -74 50 -103q29 -66 43 -125q18 -74 18 -153q0 -20 -1 -41.5t-4 -43.5z"/>
<glyph glyph-name="asterisk" horiz-adv-x="386" unicode="*" d="M426 574l-112 -38l66 -96l-71 -54l-62 96l-80 -96l-57 54l88 96l-104 38l35 72l98 -38l15 122h78l-15 -122l104 38z"/>
<glyph glyph-name="plus" d="M542 172h-182v-182h-120v182h-182v120h182v182h120v-182h182v-120z" unicode="+"/>
<glyph glyph-name="comma" horiz-adv-x="344" unicode="," d="M265 175l-25 -204q-5 -44 -44 -71t-103 -27h-5l7 56q56 3 62 55l1 26h-53l20 165h140z"/>
<glyph glyph-name="hyphen" horiz-adv-x="331" unicode="-" d="M306 208h-272v136h272v-136z"/>
<glyph glyph-name="hyphen" horiz-adv-x="331" unicode="­" d="M306 208h-272v136h272v-136z"/>
<glyph glyph-name="period" horiz-adv-x="344" unicode="." d="M264 174l-21 -174h-140l21 174h140z"/>
<glyph glyph-name="slash" horiz-adv-x="277" unicode="/" d="M282 730l-210 -730h-64l210 730h64z"/>
<glyph glyph-name="zero" horiz-adv-x="683" unicode="0" d="M521 435q6 47 6 77q0 44 -19.5 61t-72.5 17h-31q-69 0 -91 -29.5t-34 -125.5l-17 -143q-6 -45 -6 -75q0 -47 19.5 -63.5t73.5 -16.5h31q69 0 92 32q20 28 32 123zM690 441l-19 -155q-20 -162 -81.5 -228.5t-199.5 -66.5h-87q-117 0 -166.5 46.5t-49.5 154.5 q0 17 1.5 39.5t5.5 54.5l19 155q20 162 81.5 228.5t199.5 66.5h87q116 0 165.5 -46.5t49.5 -155.5q0 -42 -6 -93z"/>
<glyph glyph-name="one" horiz-adv-x="683" unicode="1" d="M624 727l-89 -727h-163l70 569l-200 -165l-83 111l265 212h200z"/>
<glyph glyph-name="two" horiz-adv-x="683" unicode="2" d="M692 552l-8 -61q-20 -158 -149 -192l-213 -56q-30 -8 -41.5 -20.5t-14.5 -37.5l-5 -40h376l-18 -145h-546l21 168q18 152 133 185l220 66q37 11 53 26t20 48l3 29q2 16 2 23q0 33 -20 47t-66 14h-32q-52 0 -74.5 -18.5t-28.5 -65.5l-4 -31h-160l7 56q11 91 73 140t167 49 h106q95 0 148 -42t53 -116q0 -6 -1 -14t-1 -12z"/>
<glyph glyph-name="three" horiz-adv-x="683" unicode="3" d="M681 558l-6 -48q-12 -99 -116 -122l-4 -21q98 -28 98 -116v-13q-2 -9 -2 -13l-7 -55q-10 -85 -75 -132t-172 -47h-110q-96 0 -149.5 41.5t-53.5 115.5q0 6 1 14t1 12l7 57h164l-3 -25q-1 -7 -1 -19q0 -64 87 -64h34q95 0 105 78l3 27q1 6 1 17q0 63 -86 63h-50l16 129h48 q88 0 97 76l2 20q1 5 1 15q0 59 -78 59h-31q-47 0 -70 -19t-29 -65l-2 -15h-162l5 40q11 91 75.5 139.5t175.5 48.5h79q209 0 209 -151q0 -7 -1 -15t-1 -12z"/>
<glyph glyph-name="four" horiz-adv-x="683" unicode="4" d="M483 614l-274 -341h233zM690 273l-16 -130h-86l-18 -143h-162l18 143h-365l22 183l329 401h247l-55 -454h86z"/>
<glyph glyph-name="five" horiz-adv-x="683" unicode="5" d="M678 727l-15 -127h-347l-21 -172q34 39 66.5 55.5t73.5 16.5h42q97 0 141.5 -37.5t44.5 -118.5q0 -22 -3 -46l-14 -107q-13 -112 -73.5 -156t-195.5 -44h-68q-104 0 -159 40t-55 113q0 6 1 14t1 12l4 30h161l-1 -3q-1 -7 -1 -19q0 -33 19 -43.5t70 -10.5h27q61 0 81 16 t27 71l9 74q2 13 2 33q0 34 -18 44t-70 10h-27q-83 0 -97 -39h-154l48 394h501z"/>
<glyph glyph-name="six" horiz-adv-x="683" unicode="6" d="M496 244q2 16 2 22q0 28 -17 36.5t-69 8.5h-39q-56 0 -76 -12.5t-25 -54.5l-7 -56q-1 -7 -1 -12.5v-7.5q0 -28 18.5 -37.5t67.5 -9.5h39q58 0 76.5 12.5t23.5 54.5zM682 578l-4 -35h-162q1 7 1 19q0 25 -15.5 35t-52.5 10h-48q-54 0 -71 -13.5t-23 -61.5l-19 -157 q35 34 67.5 48.5t69.5 14.5h71q85 0 125 -36t40 -112q0 -21 -3 -44l-8 -69q-24 -186 -255 -186h-86q-110 0 -156.5 45.5t-46.5 152.5q0 18 1.5 41.5t5.5 55.5l19 155q20 162 78.5 228.5t189.5 66.5h86q198 0 198 -133v-12q-2 -9 -2 -13z"/>
<glyph glyph-name="seven" horiz-adv-x="683" unicode="7" d="M697 727l-16 -135l-318 -592h-171l316 598h-358l16 129h531z"/>
<glyph glyph-name="eight" horiz-adv-x="683" unicode="8" d="M487 230q1 5 1 16q0 65 -90 65h-20q-95 0 -106 -81l-3 -28q-1 -5 -1 -15q0 -64 89 -64h21q95 0 106 79zM515 532q1 5 1 13q0 63 -81 63h-17q-90 0 -99 -76l-2 -20q-1 -5 -1 -13q0 -64 79 -64h19q90 0 99 77zM680 548l-5 -47q-12 -89 -116 -113l-4 -21q50 -14 74.5 -42.5 t24.5 -74.5v-12q-2 -9 -2 -13l-7 -55q-11 -85 -75.5 -132t-171.5 -47h-94q-98 0 -151.5 40.5t-53.5 113.5v12q2 9 2 13l7 55q13 114 129 142l3 21q-88 19 -88 94q0 12 1 19l5 47q12 96 73.5 142t177.5 46h66q207 0 207 -154v-12q0 -8 -2 -22z"/>
<glyph glyph-name="nine" horiz-adv-x="683" unicode="9" d="M525 539q1 6 1 12v9q0 29 -17.5 38t-66.5 9h-40q-58 0 -77 -13t-24 -55l-7 -56q-2 -16 -2 -22q0 -28 17 -36.5t69 -8.5h40q56 0 75.5 12.5t24.5 54.5zM677 441l-19 -155q-20 -162 -78.5 -228.5t-189.5 -66.5h-86q-198 0 -198 132v12q2 9 2 13l5 36h162q-2 -14 -2 -19 q0 -26 14.5 -35t54.5 -9h48q54 0 70.5 13.5t22.5 61.5l19 156q-35 -34 -67.5 -48.5t-69.5 -14.5h-71q-85 0 -125 36t-40 112q0 21 3 44l8 68q24 187 255 187h86q110 0 156.5 -45.5t46.5 -151.5q0 -18 -1.5 -42t-5.5 -56z"/>
<glyph glyph-name="colon" horiz-adv-x="344" unicode=":" d="M263 161l-20 -161h-140l20 161h140zM305 507l-19 -160h-140l19 160h140z"/>
<glyph glyph-name="semicolon" horiz-adv-x="344" unicode=";" d="M263 163l-24 -196q-5 -42 -44.5 -68.5t-102.5 -26.5h-5l7 55q54 3 62 53v24h-53l20 159h140zM305 507l-19 -159h-140l19 159h140z"/>
<glyph glyph-name="less" d="M522 0l-480 240v120l480 210v-120l-330 -150l330 -180v-120z" unicode="&lt;"/>
<glyph glyph-name="equal" d="M542 52h-484v120h484v-120zM542 292h-484v120h484v-120z" unicode="="/>
<glyph glyph-name="greater" d="M524 240l-480 -240v120l330 180l-330 150v120l480 -210v-120z" unicode="&gt;"/>
<glyph glyph-name="question" horiz-adv-x="566" unicode="?" d="M350 159l-20 -159h-151l20 159h151zM589 590l-9 -73q-5 -43 -33 -82q-19 -27 -56 -50q-7 -4 -78 -41q-43 -23 -49 -63l-1 -13h-151l6 49q5 42 22.5 67t50.5 43l91 47q43 25 46 49l6 47q1 5 1 9q0 44 -53 44h-43q-67 0 -73 -56l-3 -18h-150l5 34q8 72 59.5 112.5 t137.5 40.5h115q77 0 118.5 -33.5t41.5 -91.5q0 -14 -1 -21z"/>
<glyph glyph-name="at" horiz-adv-x="964" unicode="@" d="M600 356q0 30 -20 57q-24 33 -62 33q-69 0 -117 -72q-41 -61 -41 -120q0 -49 21 -83.5t53 -34.5q84 0 130 80q36 63 36 140zM942 356q0 -103 -54 -188q-70 -110 -194 -110q-83 0 -118 68q-50 -41 -82 -56.5t-66 -15.5q-54 0 -102 39q-62 50 -62 137q0 101 72 190 q79 98 188 98q39 0 70.5 -20t39.5 -48l16 60h90l-84 -302q0 -37 8.5 -54.5t35.5 -17.5q63 0 110 83q44 78 44 169q0 111 -99.5 198.5t-230.5 87.5q-173 0 -286 -141q-98 -123 -98 -267q0 -152 127 -243q104 -75 221 -75q72 0 102.5 6t105.5 34l30 -80q-57 -24 -95 -32 q-58 -12 -155 -12q-172 0 -298 106q-134 113 -134 282q0 199 140 350q145 156 350 156q72 0 156 -34q107 -43 171 -123q81 -101 81 -245z"/>
<glyph glyph-name="A" horiz-adv-x="740" unicode="A" d="M499 262l-36 331h-29l-120 -331h185zM716 0h-187l-17 131h-245l-49 -131h-187l292 727h284z"/>
<glyph glyph-name="B" horiz-adv-x="715" unicode="B" d="M513 242q1 5 1 14q0 51 -65 51h-155l-20 -161h155q72 0 80 65zM536 521q1 4 1 8v6q0 25 -14.5 36t-47.5 11h-148l-18 -153h148q68 0 75 62zM717 564l-6 -49q-13 -115 -128 -128l-1 -9q54 -11 81.5 -46t27.5 -87q0 -13 -1 -20l-6 -44q-13 -106 -77 -145q-59 -36 -198 -36 h-327l89 727h332q115 0 165.5 -28.5t50.5 -101.5v-12q0 -7 -2 -21z"/>
<glyph glyph-name="C" horiz-adv-x="696" unicode="C" d="M704 478l-1 -4h-174l1 3q2 18 2 26q0 42 -24 60t-79 18q-74 0 -100 -33q-22 -29 -34 -123l-15 -124q-6 -44 -6 -73q0 -47 21.5 -64.5t80.5 -17.5q65 0 93 26.5t36 94.5h178q-18 -145 -85.5 -210.5t-205.5 -65.5h-66q-129 0 -183.5 47.5t-54.5 160.5q0 39 6 87l19 155 q20 163 87 229t217 66h54q129 0 183.5 -42.5t54.5 -145.5q0 -19 -1 -30.5t-4 -39.5z"/>
<glyph glyph-name="D" horiz-adv-x="762" unicode="D" d="M583 425q6 44 6 73q0 48 -22.5 65.5t-83.5 17.5h-155l-53 -435h155q77 0 101.5 29.5t36.5 126.5zM764 439l-19 -151q-20 -160 -86 -224t-217 -64h-360l89 727h360q128 0 183.5 -46.5t55.5 -156.5q0 -38 -6 -85z"/>
<glyph glyph-name="E" horiz-adv-x="677" unicode="E" d="M697 727l-18 -146h-351l-18 -150h341l-15 -123h-341l-20 -162h359l-18 -146h-534l89 727h526z"/>
<glyph glyph-name="F" horiz-adv-x="604" unicode="F" d="M640 727l-18 -146h-294l-20 -165h277l-18 -144h-277l-33 -272h-175l89 727h469z"/>
<glyph glyph-name="G" horiz-adv-x="742" unicode="G" d="M756 536l-3 -22h-176q0 36 -24.5 51.5t-79.5 15.5h-49q-78 0 -102.5 -30t-36.5 -126l-15 -124q-3 -24 -4.5 -41.5t-1.5 -30.5q0 -48 22.5 -65.5t84.5 -17.5h54q62 0 90 18.5t33 65.5l5 39h-111l15 120h281l-15 -117q-17 -146 -87 -213.5t-206 -67.5h-132q-208 0 -208 234 q0 29 5 72l14 113q21 168 94 247t214 79h106q107 0 170.5 -50.5t63.5 -128.5q0 -14 -1 -21z"/>
<glyph glyph-name="H" horiz-adv-x="781" unicode="H" d="M795 727l-89 -727h-175l36 292h-274l-36 -292h-175l89 727h175l-34 -279h274l34 279h175z"/>
<glyph glyph-name="I" horiz-adv-x="349" unicode="I" d="M354 727l-89 -727h-177l89 727h177z"/>
<glyph glyph-name="J" horiz-adv-x="613" unicode="J" d="M626 727l-62 -508q-28 -228 -224 -228h-90q-98 0 -143 37t-45 122q0 12 1.5 28.5t2.5 26.5l12 95h170l-9 -75q-1 -8 -1.5 -17t-0.5 -12q0 -50 49 -50h35q32 0 47 18t20 61l61 502h177z"/>
<glyph glyph-name="K" horiz-adv-x="705" unicode="K" d="M749 727l-276 -351l211 -376h-217l-154 298h-19l-37 -298h-175l89 727h175l-34 -280h20l209 280h208z"/>
<glyph glyph-name="L" horiz-adv-x="603" unicode="L" d="M605 153l-19 -153h-502l89 727h177l-70 -574h325z"/>
<glyph glyph-name="M" horiz-adv-x="1003" unicode="M" d="M1019 727l-89 -727h-170l66 539l-230 -539h-179l-98 545l-67 -545h-170l89 727h267l92 -533l222 533h267z"/>
<glyph glyph-name="N" horiz-adv-x="839" unicode="N" d="M853 727l-89 -727h-273l-169 549l-6 1l-68 -550h-166l89 727h274l166 -545h9l67 545h166z"/>
<glyph glyph-name="O" horiz-adv-x="744" unicode="O" d="M565 425q3 32 4.5 45.5t1.5 26.5q0 49 -22.5 66.5t-84.5 17.5h-36q-77 0 -101.5 -29.5t-36.5 -126.5l-15 -124q-6 -44 -6 -73q0 -47 22.5 -64.5t83.5 -17.5h36q78 0 102.5 29.5t36.5 125.5zM746 441l-19 -155q-20 -163 -87 -229t-218 -66h-96q-129 0 -183.5 47.5 t-54.5 160.5q0 39 6 87l19 155q20 163 87 229t217 66h96q128 0 183.5 -47.5t55.5 -159.5q0 -40 -6 -88z"/>
<glyph glyph-name="P" horiz-adv-x="709" unicode="P" d="M552 488q2 16 2 23q0 37 -20.5 53t-67.5 16h-138l-29 -234h146q54 0 74 19t28 79zM731 489l-6 -50q-16 -130 -83 -184.5t-204 -54.5h-156l-25 -200h-175l89 727h331q122 0 177.5 -41t55.5 -140v-34q-3 -16 -4 -23z"/>
<glyph glyph-name="Q" horiz-adv-x="751" unicode="Q" d="M565 424q2 18 4 39.5t2 32.5q0 50 -22.5 67.5t-84.5 17.5h-36q-77 0 -101.5 -30.5t-36.5 -126.5l-15 -124q-6 -44 -6 -73q0 -48 22.5 -65.5t83.5 -17.5h91l-64 63l73 75l65 -65zM746 440l-19 -156q-8 -68 -22 -109.5t-44 -71.5l49 -51l-70 -77l-55 52 q-33 -22 -74.5 -30.5t-97.5 -8.5h-87q-129 0 -183.5 47.5t-54.5 160.5q0 40 6 88l19 156q20 163 87 230t217 67h96q129 0 184 -47.5t55 -160.5q0 -39 -6 -89z"/>
<glyph glyph-name="R" horiz-adv-x="708" unicode="R" d="M530 488q0 5 1 13t1 16q0 36 -19 50t-66 14h-119l-26 -215h119q54 0 76 19t29 74zM713 533l-7 -61q-18 -143 -152 -160l-2 -9q59 -10 87.5 -43t28.5 -88q0 -7 -1 -15t-1 -13l-18 -144h-179l15 125q0 8 1 17t1 12q0 37 -18.5 50.5t-65.5 13.5h-118l-27 -218h-175l89 727 h283q141 0 197 -29q65 -34 65 -122q0 -20 -3 -43z"/>
<glyph glyph-name="S" horiz-adv-x="683" unicode="S" d="M685 571l-5 -42h-167q1 6 1 18q0 28 -17 39t-57 11h-45q-50 0 -71.5 -12.5t-26.5 -47.5l-4 -31q-1 -4 -1 -12q0 -26 17.5 -35t64.5 -14l142 -16q157 -20 157 -145q0 -7 -1 -15t-1 -12l-9 -72q-11 -88 -71 -141t-150 -53h-159q-110 0 -161.5 34t-51.5 110v16t2 19l5 41 h167q-1 -5 -1 -10.5v-7.5q0 -34 21.5 -48t74.5 -14h49q50 0 71.5 14.5t26.5 51.5l4 32q1 5 1 13q0 27 -18 37.5t-62 15.5l-156 18q-73 8 -107 43t-34 103q0 19 3 40l6 46q12 101 78 152q30 24 71 31.5t103 7.5h117q96 0 146 -36t50 -104v-12q-2 -9 -2 -13z"/>
<glyph glyph-name="T" horiz-adv-x="621" unicode="T" d="M677 727l-18 -146h-186l-71 -581h-177l71 581h-187l18 146h550z"/>
<glyph glyph-name="U" horiz-adv-x="764" unicode="U" d="M789 727l-54 -441q-11 -89 -22 -125q-17 -57 -56 -97.5t-92 -56.5t-132 -16h-96q-82 0 -125 14q-51 17 -81 59q-18 25 -25.5 54t-7.5 67q0 42 8 101l54 441h174l-52 -426q-5 -42 -5 -65q0 -52 23 -71t86 -19h36q77 0 103 30t38 125l52 426h174z"/>
<glyph glyph-name="V" horiz-adv-x="729" unicode="V" d="M794 727l-290 -727h-279l-105 727h185l75 -576l10 1l220 575h184z"/>
<glyph glyph-name="W" horiz-adv-x="1025" unicode="W" d="M1080 727l-207 -727h-260l-37 497l-162 -497h-263l-20 727h176l-1 -563l200 563h201l54 -563l144 563h175z"/>
<glyph glyph-name="X" horiz-adv-x="725" unicode="X" d="M767 727l-208 -349l135 -378h-201l-88 301l-169 -301h-198l233 378l-118 349h196l77 -274l144 274h197z"/>
<glyph glyph-name="Y" horiz-adv-x="679" unicode="Y" d="M762 727l-300 -472l-31 -255h-175l30 255l-184 472h197l99 -301l169 301h195z"/>
<glyph glyph-name="Z" horiz-adv-x="689" unicode="Z" d="M718 727l-20 -164l-401 -410h351l-19 -153h-575l20 161l410 413h-338l19 153h553z"/>
<glyph glyph-name="bracketleft" horiz-adv-x="331" unicode="[" d="M404 730l-13 -100h-110l-89 -728h110l-13 -104h-242l115 932h242z"/>
<glyph glyph-name="backslash" horiz-adv-x="277" unicode="\" d="M298 0h-76l-226 730h76z"/>
<glyph glyph-name="bracketright" horiz-adv-x="331" unicode="]" d="M356 730l-115 -932h-242l13 104h112l89 728h-112l13 100h242z"/>
<glyph glyph-name="asciicircum" d="M520 272h-112l-118 298l-118 -298h-112l166 424h124z" unicode="^"/>
<glyph glyph-name="underscore" horiz-adv-x="495" unicode="_" d="M500 -242h-500v120h500v-120z"/>
<glyph glyph-name="grave" horiz-adv-x="492" unicode="`" d="M381 576h-47l-114 181h98z"/>
<glyph glyph-name="a" horiz-adv-x="576" unicode="a" d="M385 174q1 4 1 12q0 45 -53 45h-45q-59 0 -67 -57l-3 -28q-1 -4 -1 -12q0 -45 54 -45h45q58 0 66 57zM553 356l-44 -356h-144l9 70q-36 -42 -68 -59.5t-67 -17.5h-59q-54 0 -83 29t-29 82q0 6 1 14t1 13l6 50q8 63 50 98t113 35h45q36 0 61.5 -15t49.5 -53l17 134 q1 5 1 14q0 43 -49 43h-28q-32 0 -46 -7.5t-20 -31.5h-143q12 66 54.5 94.5t124.5 28.5h78q92 0 131.5 -29.5t39.5 -98.5v-13v-12q-2 -8 -2 -12z"/>
<glyph glyph-name="b" d="M418 294q3 27 3 48q0 33 -13 47t-47 14h-19q-43 0 -59.5 -24t-23.5 -85l-10 -81q-3 -27 -3 -48q0 -33 13 -47t47 -14h19q43 0 61 26q15 22 22 83zM566 309l-13 -109q-14 -106 -58 -156.5t-128 -50.5q-52 0 -87 17t-49 56l-6 -1l-7 -65h-138l89 727h143l-33 -274l9 1 q18 31 55 46t87 15q72 0 106 -37t34 -113q0 -13 -1.5 -29.5t-2.5 -26.5z" unicode="b"/>
<glyph glyph-name="c" horiz-adv-x="557" unicode="c" d="M552 336h-144q1 5 1 16q0 29 -13 44q-16 18 -50 18h-22q-47 0 -62 -22.5t-24 -91.5l-11 -85q-2 -16 -3.5 -29t-1.5 -29q0 -32 13.5 -44.5t49.5 -12.5h22q41 0 59 22t24 69h144q-14 -116 -61 -157t-157 -41h-69q-93 0 -132.5 33.5t-39.5 114.5v35q3 18 4 26l13 110 q14 116 62.5 162.5t157.5 46.5h69q88 0 134 -50q39 -43 39 -110q0 -9 -2 -25z"/>
<glyph glyph-name="d" d="M395 294q1 13 2.5 24.5t1.5 24.5q0 32 -13 46t-47 14h-19q-43 0 -59.5 -24t-23.5 -85l-10 -81q-3 -27 -3 -48q0 -33 13 -47t47 -14h19q43 0 59 24t23 85zM592 727l-89 -727h-139l10 65l-9 -1q-24 -39 -61.5 -55t-89.5 -16q-139 0 -139 148v23.5t4 35.5l13 109 q13 105 57.5 155.5t128.5 50.5q49 0 85 -15t47 -46l5 -1l33 274h144z" unicode="d"/>
<glyph glyph-name="e" horiz-adv-x="559" unicode="e" d="M412 336q3 23 3 40q0 33 -15 46t-52 13h-21q-44 0 -62 -20t-25 -74l-4 -34h173zM549 312l-9 -74h-313l-9 -75q-1 -8 -1 -22q0 -30 15.5 -42t51.5 -12h21q37 0 53.5 11.5t26.5 44.5h141q-19 -80 -68.5 -115t-141.5 -35h-69q-93 0 -132.5 33.5t-39.5 114.5v35q3 18 4 26 l13 110q14 116 62.5 162.5t157.5 46.5h69q93 0 132.5 -33.5t39.5 -114.5v-28q-3 -22 -4 -33z"/>
<glyph glyph-name="f" horiz-adv-x="356" unicode="f" d="M431 727l-12 -103h-28q-41 0 -61.5 -12.5t-24.5 -42.5l-8 -61h107l-13 -108h-107l-49 -400h-146l49 400h-56l13 108h57q0 21 2 32.5t3 17.5q11 88 49.5 128.5t114.5 40.5h110z"/>
<glyph glyph-name="g" horiz-adv-x="575" unicode="g" d="M406 300q3 27 3 47q0 33 -14 48t-49 15h-20q-45 0 -62 -24.5t-24 -85.5l-10 -81q-3 -27 -3 -47q0 -33 13.5 -47.5t49.5 -14.5h20q45 0 62 24.5t24 84.5zM568 514l-59 -484q-9 -69 -20 -103q-15 -46 -48 -75q-24 -21 -64 -34.5t-84 -13.5h-56q-167 0 -167 108q0 12 1 18 l3 20h137q0 -26 11.5 -36.5t41.5 -10.5h24q42 0 58.5 22t22.5 79l10 77l-9 -2q-20 -34 -58 -47t-97 -13q-135 0 -135 139q0 22 3 51l13 106q13 107 57 157t128 50q48 0 82.5 -16.5t45.5 -48.5l9 2l7 55h143z"/>
<glyph glyph-name="h" horiz-adv-x="591" unicode="h" d="M566 333l-41 -333h-143l36 296q3 27 3 46q0 35 -15 45.5t-58 10.5q-47 0 -64.5 -24t-25.5 -88l-35 -286h-143l89 727h143l-35 -284l11 1q14 36 52 53.5t95 17.5q75 0 105 -27t30 -92v-30q-3 -22 -4 -33z"/>
<glyph glyph-name="i" horiz-adv-x="298" unicode="i" d="M285 508l-62 -508h-146l62 508h146zM312 727l-13 -111h-146l13 111h146z"/>
<glyph glyph-name="j" horiz-adv-x="303" unicode="j" d="M291 510l-58 -467q-13 -103 -45 -144q-37 -47 -120 -47h-51l12 102q27 0 39 13.5t15 42.5l62 500h146zM317 728l-13 -111h-146l13 111h146z"/>
<glyph glyph-name="k" horiz-adv-x="556" unicode="k" d="M565 508l-163 -242l129 -266h-168l-96 212h-18l-26 -212h-143l89 727h143l-51 -417h18l124 198h162z"/>
<glyph glyph-name="l" horiz-adv-x="298" unicode="l" d="M317 727l-89 -727h-146l89 727h146z"/>
<glyph glyph-name="m" horiz-adv-x="840" unicode="m" d="M817 337l-41 -337h-141l37 300q1 13 2.5 24.5t1.5 23.5q0 33 -13 44t-50 11q-40 0 -56 -25t-24 -89l-35 -289h-140l37 300q1 13 2.5 24.5t1.5 23.5q0 33 -13 44t-50 11q-40 0 -56 -25t-24 -89l-35 -289h-141l63 514h136l-7 -68l7 1q22 40 57.5 57t88.5 17q55 0 79 -20.5 t38 -82.5q29 58 67.5 80.5t92.5 22.5q67 0 93.5 -26.5t26.5 -90.5q0 -25 -5 -67z"/>
<glyph glyph-name="n" horiz-adv-x="591" unicode="n" d="M566 337l-41 -337h-143l37 300q3 27 3 45q0 36 -15.5 47t-58.5 11q-48 0 -65 -24.5t-25 -89.5l-35 -289h-143l63 514h138l-8 -67h9q25 42 61.5 58t92.5 16q75 0 105 -27t30 -92q0 -27 -2 -41.5t-3 -23.5z"/>
<glyph glyph-name="o" horiz-adv-x="560" unicode="o" d="M401 300q2 16 3.5 29t1.5 29q0 32 -13 44t-49 12h-20q-47 0 -62 -22.5t-24 -91.5l-11 -85q-2 -16 -3.5 -29t-1.5 -29q0 -32 13.5 -44.5t49.5 -12.5h20q47 0 62 22.5t23 92.5zM549 312l-13 -110q-14 -116 -62.5 -162.5t-157.5 -46.5h-69q-93 0 -132.5 33.5t-39.5 114.5v35 q3 18 4 26l13 110q14 116 62.5 162.5t157.5 46.5h69q93 0 132.5 -33.5t39.5 -114.5v-28q-3 -22 -4 -33z"/>
<glyph glyph-name="p" d="M419 302q3 27 3 48q0 33 -13 47t-47 14h-19q-43 0 -59.5 -24t-23.5 -85l-10 -82q-3 -27 -3 -48q0 -33 13 -47t47 -14h19q43 0 61 26q15 22 22 83zM567 315l-14 -109q-13 -106 -57.5 -156.5t-128.5 -50.5q-49 0 -83 15t-45 47h-9l-31 -257h-143l87 710h138l-8 -66h9 q24 39 62 56.5t88 17.5q71 0 105 -37t34 -113v-27q-3 -20 -4 -30z" unicode="p"/>
<glyph glyph-name="q" d="M396 302q1 13 2.5 24.5t1.5 24.5q0 32 -13 46t-47 14h-19q-43 0 -59.5 -24t-23.5 -85l-10 -82q-3 -27 -3 -48q0 -33 13 -47t47 -14h19q43 0 59 24t23 85zM566 514l-87 -710h-144l31 257l-9 -2q-18 -31 -55.5 -45.5t-86.5 -14.5q-72 0 -106 37t-34 114q0 13 1.5 29.5 t2.5 26.5l14 109q13 106 57.5 156.5t128.5 50.5q51 0 83.5 -17t47.5 -57h9l8 66h139z" unicode="q"/>
<glyph glyph-name="r" horiz-adv-x="498" unicode="r" d="M520 337l-4 -37h-133l3 24q2 18 2 25q0 31 -12.5 42.5t-41.5 11.5q-38 0 -52.5 -24t-23.5 -90l-35 -289h-143l63 514h138l-8 -65l7 1q22 39 55 55t80 16q62 0 86 -26t24 -87q0 -19 -2 -38.5t-3 -32.5z"/>
<glyph glyph-name="s" horiz-adv-x="562" unicode="s" d="M408 391q0 44 -66 44h-21q-39 0 -57 -14.5t-20.5 -32.5t-2.5 -22v-6q0 -19 12 -29t39 -13l115 -11q135 -12 135 -102q0 -12 -1 -18l-6 -45q-8 -69 -59 -109t-133 -40h-109q-170 0 -170 118v12q1 5 2 9h150q0 -29 16.5 -40.5t53.5 -11.5h22q43 0 62 13.5t23 49.5q1 5 1 15 q0 25 -15 35t-57 14l-103 11q-58 5 -90.5 35.5t-32.5 76.5q0 10 1 15l6 43q15 133 198 133h101q150 0 150 -107q0 -14 -1 -22zM66 132v4l-1 -4h1z"/>
<glyph glyph-name="t" horiz-adv-x="505" unicode="t" d="M509 511l-13 -103h-218l-28 -227q-3 -23 -3 -39q0 -27 11.5 -36.5t44.5 -9.5q37 0 50.5 13.5t18.5 54.5l4 34h116l-6 -50q-19 -155 -167 -155h-87q-86 0 -117 50q-8 13 -11.5 27t-3.5 33q0 11 1.5 27t2.5 25l4 29l27 224h-59l13 103h59l12 102h143l-12 -102h218z"/>
<glyph glyph-name="u" horiz-adv-x="595" unicode="u" d="M588 514l-63 -514h-138l8 66l-9 -1q-25 -40 -62 -56t-92 -16q-75 0 -105 27t-30 91q0 27 2 41.5t3 23.5l41 338h143l-37 -299q-3 -27 -3 -45q0 -37 15 -47.5t59 -10.5q47 0 64.5 24.5t25.5 87.5l35 290h143z"/>
<glyph glyph-name="v" horiz-adv-x="543" unicode="v" d="M589 514l-208 -514h-227l-75 514h154l48 -396l154 396h154z"/>
<glyph glyph-name="w" horiz-adv-x="786" unicode="w" d="M823 514l-145 -514h-206l-30 362l-117 -362h-210l-18 514h143l7 -391l126 391h177l30 -389l101 389h142z"/>
<glyph glyph-name="x" horiz-adv-x="560" unicode="x" d="M578 514l-152 -246l106 -268h-162l-58 215l-115 -215h-159l174 270l-92 244h160l45 -199l98 199h155z"/>
<glyph glyph-name="y" horiz-adv-x="538" unicode="y" d="M573 510l-259 -580q-27 -69 -60 -96q-39 -31 -112 -31q-29 0 -79 5l12 98h26q28 0 52 16t32 37l16 52l-125 499h148l67 -361l129 361h153z"/>
<glyph glyph-name="z" horiz-adv-x="533" unicode="z" d="M539 514l-16 -129l-287 -276h260l-13 -109h-427l16 129l292 279h-243l13 106h405z"/>
<glyph glyph-name="braceleft" horiz-adv-x="386" unicode="{" d="M316 -202h-86q-35 0 -69 32q-43 41 -43 104v230q0 37 -29 50q-18 8 -53 8v94q35 0 52 6q30 11 30 42v228q0 65 42 105q34 33 70 33h86v-98h-38q-30 0 -40 -17q-6 -10 -6 -37v-212q0 -51 -36 -77q-23 -16 -60 -21q39 -5 60 -20q36 -26 36 -86v-214q0 -27 5 -36 q9 -16 41 -16h38v-98z"/>
<glyph glyph-name="bar" horiz-adv-x="316" unicode="|" d="M208 -202h-80v932h80v-932z"/>
<glyph glyph-name="braceright" horiz-adv-x="386" unicode="}" d="M354 222q-34 0 -52 -8q-30 -14 -30 -50v-230q0 -63 -42 -103q-35 -33 -70 -33h-86v98h38q30 0 40 16q6 10 6 36v214q0 60 36 86q21 15 60 20q-37 5 -60 21q-36 26 -36 77v212q0 28 -5 37q-9 17 -41 17h-38v98h86q35 0 69 -33q43 -41 43 -105v-228q0 -32 29 -42 q17 -6 53 -6v-94z"/>
<glyph glyph-name="asciitilde" d="M520 350q0 -60 -36 -106q-32 -40 -80 -40q-31 0 -116 48t-104 48q-29 0 -41.5 -21.5t-12.5 -44.5h-70q8 53 29 89q35 59 95 59q40 0 115 -48t97 -48q25 0 37 22q9 17 9 42h78z" unicode="~"/>
<glyph glyph-name="nonbreakingspace" horiz-adv-x="347" unicode=" " d="M306 300q0 -51 -36.5 -87.5t-87.5 -36.5q-53 0 -89.5 35.5t-36.5 88.5t36.5 89.5t89.5 36.5q51 0 87.5 -36.5t36.5 -89.5z"/>
<glyph glyph-name="exclamdown" horiz-adv-x="344" unicode="¡" d="M296 429l-53 -429h-140l53 429h140zM332 727l-19 -158h-140l19 158h140z"/>
<glyph glyph-name="cent" horiz-adv-x="557" unicode="¢" d="M305 413q-34 -4 -47 -27.5t-20 -85.5l-11 -85q-4 -31 -4 -57q0 -28 9 -41t34 -16zM552 336h-144q1 6 1 17q0 49 -44 59l-39 -311q30 6 44.5 28.5t19.5 61.5h144q-14 -116 -61 -157t-157 -41l-17 -119h-60l14 119h-6q-93 0 -132.5 33.5t-39.5 114.5v35q3 18 4 26l13 110 q14 116 62.5 162.5t157.5 46.5h6l14 115h60l-14 -115q90 0 136 -50q40 -43 40 -110q0 -9 -2 -25z"/>
<glyph glyph-name="sterling" horiz-adv-x="689" unicode="£" d="M710 573l-5 -44h-155l2 16v9q0 22 -14.5 37.5t-45.5 15.5h-34q-68 0 -76 -64l-17 -135h187l-14 -113h-187q-7 -55 -27 -85.5t-78 -64.5h427l-18 -145h-568l18 145q30 3 49.5 22.5t23.5 50.5l9 77h-82l14 113h82l15 124q12 96 75 150t165 54h52q97 0 150 -38t53 -104 q0 -14 -1 -21z"/>
<glyph glyph-name="currency" horiz-adv-x="555" unicode="¤" d="M394 348q0 44 -30 79t-76 35q-47 0 -76.5 -34.5t-29.5 -79.5q0 -43 31.5 -71.5t74.5 -28.5q53 0 82 34q24 28 24 66zM540 536l-80 -78l20 -36q14 -29 14 -58q0 -38 -13 -71q-4 -10 -23 -45l76 -76l-68 -66l-76 78q-33 -18 -41 -21q-28 -11 -63 -11q-57 0 -100 34l-80 -80 l-66 66l78 80q-36 43 -36 105q0 67 34 99l-80 78l70 68l78 -78q40 30 108 30q30 0 57.5 -8t44.5 -20l78 78z"/>
<glyph glyph-name="yen" horiz-adv-x="550" unicode="¥" d="M639 706l-248 -354h148l-7 -60h-154l-7 -52h154l-7 -60h-154l-22 -180h-118l22 180h-154l7 60h154l7 52h-154l7 60h148l-168 354h126l118 -256l178 256h124z"/>
<glyph glyph-name="brokenbar" horiz-adv-x="316" unicode="¦" d="M208 -202h-80v416l80 -54v-362zM208 350l-80 54v326h80v-380z"/>
<glyph glyph-name="section" horiz-adv-x="550" unicode="§" d="M394 252q0 38 -35.5 58t-86.5 20q-46 0 -66 -17t-20 -47q0 -40 35 -59t87 -19q46 0 66 16.5t20 47.5zM538 276q0 -51 -16 -85t-46 -59q36 -33 36 -88q0 -111 -91 -157q-57 -29 -135 -29q-117 0 -179 62q-51 51 -51 124h134q0 -36 26 -58t78 -22q32 0 53 11q29 15 29 47 t-86 52q-128 31 -161 46q-87 41 -87 122q0 51 16 85t46 57q-19 17 -27.5 38t-8.5 52q0 110 91 156q55 28 135 28q117 0 179 -62q51 -51 51 -122h-134q0 34 -26.5 56t-77.5 22q-32 0 -53 -11q-29 -15 -29 -45q0 -32 86 -52q128 -31 161 -46q87 -41 87 -122z"/>
<glyph glyph-name="dieresis" horiz-adv-x="492" unicode="¨" d="M297 725l-15 -120h-90l15 120h90zM467 725l-15 -120h-90l15 120h90z"/>
<glyph glyph-name="copyright" horiz-adv-x="730" unicode="©" d="M570 294q-7 -67 -58 -107.5t-120 -40.5q-95 0 -153.5 62.5t-58.5 157.5q0 98 56.5 159t153.5 61q70 0 119 -38t61 -106h-86q-6 35 -32.5 55.5t-63.5 20.5q-59 0 -90.5 -43.5t-31.5 -106.5q0 -59 34.5 -106.5t91.5 -47.5q36 0 62.5 22.5t29.5 57.5h86zM686 364 q0 128 -91 219t-219 91q-130 0 -221 -91t-91 -219q0 -129 90.5 -220.5t221.5 -91.5q128 0 219 91t91 221zM758 364q0 -158 -112 -271t-270 -113q-159 0 -271.5 112.5t-112.5 271.5q0 158 112 270t272 112q158 0 270 -112t112 -270z"/>
<glyph glyph-name="ordfeminine" horiz-adv-x="432" unicode="ª" d="M275 468v20q0 43 -47 43h-33q-48 0 -48 -43v-20q0 -44 48 -44h33q47 0 47 44zM379 368h-103v53q-26 -34 -47.5 -46.5t-48.5 -12.5h-45q-45 0 -68.5 24.5t-23.5 70.5v36q0 91 107 91h33q28 0 48 -11t45 -45v106q0 44 -44 44h-21q-43 0 -47 -27h-103q0 44 29 62.5t91 18.5 h59q76 0 107.5 -25.5t31.5 -89.5v-249z"/>
<glyph glyph-name="guillemotleft" horiz-adv-x="550" unicode="«" d="M323 482l-14 -114l-111 -90l89 -88l-14 -118l-148 148l14 116zM537 484l-14 -114l-111 -90l90 -88l-15 -118l-148 148l14 116z"/>
<glyph glyph-name="logicalnot" d="M546 122h-114v176h-390v114h504v-290z" unicode="¬"/>
<glyph glyph-name="registered" horiz-adv-x="730" unicode="®" d="M498 454q0 35 -35 47q-20 7 -65 7h-100v-116h122q39 0 56 11q22 14 22 51zM578 442q0 -112 -112 -112l100 -174h-94l-92 174h-82v-174h-80v412h200q34 0 62 -4t50 -16q25 -17 36.5 -45t11.5 -61zM686 364q0 129 -90.5 219.5t-219.5 90.5q-130 0 -221 -90t-91 -220 q0 -131 90.5 -221.5t221.5 -90.5q129 0 219.5 90.5t90.5 221.5zM758 364q0 -158 -112 -271t-270 -113q-159 0 -271.5 112.5t-112.5 271.5q0 158 112 270t272 112q158 0 270 -112t112 -270z"/>
<glyph glyph-name="degree" horiz-adv-x="397" unicode="°" d="M294 576q0 36 -26 63t-64 27q-37 0 -63.5 -26.5t-26.5 -63.5q0 -38 26 -64t64 -26t64 26t26 64zM354 576q0 -62 -44 -106t-106 -44t-106 43t-44 107q0 62 44 106t106 44t106 -44t44 -106z"/>
<glyph glyph-name="plusminus" d="M532 -130h-484v120h484v-120zM532 292h-182v-182h-120v182h-182v120h182v182h120v-182h182v-120z" unicode="±"/>
<glyph glyph-name="twosuperior" horiz-adv-x="454" unicode="²" d="M487 614l-5 -40q-12 -103 -98 -127l-141 -37q-34 -9 -37 -38l-4 -26h249l-11 -96h-361l13 111q13 100 88 122l146 44q24 7 34.5 17t13.5 31l2 20q1 5 1 15q0 22 -12.5 31t-43.5 9h-21q-35 0 -50 -12t-19 -43l-3 -21h-105l5 37q15 125 158 125h70q63 0 97.5 -27t34.5 -76 q0 -13 -1 -19z"/>
<glyph glyph-name="threesuperior" horiz-adv-x="454" unicode="³" d="M480 618l-4 -31q-7 -66 -77 -81l-2 -14q64 -17 64 -76q0 -12 -1 -18l-5 -36q-7 -56 -49.5 -87t-112.5 -31h-73q-64 0 -98.5 27.5t-34.5 76.5q0 11 1 17l4 37h108l-2 -16q-1 -8 -1 -11q0 -44 58 -44h23q63 0 69 52l2 17q1 4 1 12q0 41 -57 41h-33l10 85h32q58 0 64 51 l2 13q1 5 1 9q0 40 -53 40h-20q-58 0 -65 -56l-1 -10h-107l3 27q16 124 165 124h52q138 0 138 -101q0 -11 -1 -17z"/>
<glyph glyph-name="acute" horiz-adv-x="492" unicode="´" d="M462 757l-158 -181h-47l107 181h98z"/>
<glyph glyph-name="mu" horiz-adv-x="592" unicode="µ" d="M609 542l-67 -542h-140l8 68q-34 -46 -73 -68q-30 -17 -72 -24q-31 0 -69 6l-25 -202h-140l94 762h140l-42 -336q-2 -9 -3 -17.5t-1 -20.5q0 -31 17 -46q22 -20 77 -20q56 5 85 35q19 19 28 55l43 350h140z"/>
<glyph glyph-name="paragraph" horiz-adv-x="550" unicode="¶" d="M534 658h-76v-878h-72v878h-84v-878h-72v486q-86 8 -135 53q-59 54 -69 161q-1 7 -1 21q0 88 58.5 158.5t132.5 70.5h318v-72z"/>
<glyph glyph-name="cedilla" horiz-adv-x="492" unicode="¸" d="M368 -139q-7 -58 -34.5 -77t-96.5 -19h-104l6 47h107q30 0 42 11t14 27t2 24q0 35 -42 35h-60l11 91h50l-6 -52h58q55 0 55 -62v-12q-2 -9 -2 -13z"/>
<glyph glyph-name="onesuperior" horiz-adv-x="454" unicode="¹" d="M443 730l-59 -480h-107l46 376l-133 -109l-55 73l176 140h132z"/>
<glyph glyph-name="ordmasculine" horiz-adv-x="420" unicode="º" d="M275 517v61q0 52 -8 66q-11 18 -48 18h-15q-36 0 -46 -16.5t-10 -67.5v-61q0 -52 10 -68.5t46 -16.5h15q36 0 46 16.5t10 68.5zM380 508q0 -81 -31.5 -113.5t-111.5 -32.5h-51q-80 0 -111.5 32.5t-31.5 113.5v78q0 81 31.5 113.5t111.5 32.5h51q80 0 111.5 -32.5 t31.5 -113.5v-78z"/>
<glyph glyph-name="guillemotright" horiz-adv-x="550" unicode="»" d="M305 336l-14 -116l-184 -148l14 118l111 88l-89 90l14 114zM513 336l-14 -116l-184 -148l14 118l111 88l-89 90l14 114z"/>
<glyph glyph-name="onequarter" horiz-adv-x="1124" unicode="¼" d="M969 405l-182 -225h154zM1105 180l-10 -86h-57l-12 -94h-107l12 94h-241l14 121l218 265h163l-37 -300h57zM912 730l-516 -730h-80l508 730h88zM443 730l-59 -480h-107l46 376l-133 -109l-55 73l176 140h132z"/>
<glyph glyph-name="onehalf" horiz-adv-x="1139" unicode="½" d="M1137 364l-5 -40q-13 -103 -99 -127l-140 -37q-34 -9 -38 -38l-3 -26h249l-12 -96h-361l14 111q12 100 88 122l145 44q24 7 34.5 17t13.5 31l2 20q1 5 1 15q0 22 -12.5 31t-43.5 9h-21q-35 0 -50 -12t-19 -43l-2 -21h-105l4 37q15 125 159 125h70q63 0 97.5 -27.5 t34.5 -77.5q0 -11 -1 -17zM912 730l-516 -730h-80l508 730h88zM443 730l-59 -480h-107l46 376l-133 -109l-55 73l176 140h132z"/>
<glyph glyph-name="threequarters" horiz-adv-x="1124" unicode="¾" d="M969 405l-182 -225h154zM1105 180l-10 -86h-57l-12 -94h-107l12 94h-241l14 121l218 265h163l-37 -300h57zM912 730l-516 -730h-80l508 730h88zM480 618l-4 -31q-7 -66 -77 -81l-2 -14q64 -17 64 -76q0 -12 -1 -18l-5 -36q-7 -56 -49.5 -87t-112.5 -31h-73 q-64 0 -98.5 27.5t-34.5 76.5q0 11 1 17l4 37h108l-2 -16q-1 -8 -1 -11q0 -44 58 -44h23q63 0 69 52l2 17q1 4 1 12q0 41 -57 41h-33l10 85h32q58 0 64 51l2 13q1 5 1 9q0 40 -53 40h-20q-58 0 -65 -56l-1 -10h-107l3 27q16 124 165 124h52q138 0 138 -101q0 -11 -1 -17z "/>
<glyph glyph-name="questiondown" horiz-adv-x="566" unicode="¿" d="M539 180l-4 -34q-9 -71 -60.5 -112t-136.5 -41h-116q-77 0 -118.5 33.5t-41.5 91.5q0 14 1 21l9 73q5 45 33 82q19 27 57 50q50 27 78 42q43 22 48 63l2 13h152l-6 -50q-6 -43 -23 -67.5t-51 -42.5l-91 -46q-42 -23 -47 -50l-5 -46q-1 -4 -1 -12q0 -42 53 -42h43 q67 0 73 57l2 17h150zM475 729l-20 -158h-152l20 158h152z"/>
<glyph glyph-name="Agrave" horiz-adv-x="740" unicode="À" d="M499 261l-37 327h-29l-119 -327h185zM716 0h-187l-17 130h-245l-49 -130h-187l292 722h284zM534 805h-47l-116 164h98z"/>
<glyph glyph-name="Aacute" horiz-adv-x="740" unicode="Á" d="M499 261l-37 327h-29l-119 -327h185zM716 0h-187l-17 130h-245l-49 -130h-187l292 722h284zM613 969l-156 -164h-47l105 164h98z"/>
<glyph glyph-name="Acircumflex" horiz-adv-x="740" unicode="Â" d="M499 261l-37 327h-29l-119 -327h185zM716 0h-187l-17 130h-245l-49 -130h-187l292 722h284zM609 805h-47l-75 114l-106 -114h-46l105 164h104z"/>
<glyph glyph-name="Atilde" horiz-adv-x="740" unicode="Ã" d="M499 261l-37 328h-29l-119 -328h185zM716 0h-187l-17 130h-245l-49 -130h-187l292 722h284zM631 945q-35 -101 -101 -101q-15 0 -33 6l-41 12q-21 7 -34 7q-35 0 -56 -40h-33q33 97 99 97q10 0 19 -1t19 -5l43 -13q10 -4 30 -4q35 0 55 42h33z"/>
<glyph glyph-name="Adieresis" horiz-adv-x="740" unicode="Ä" d="M499 261l-37 328h-29l-119 -328h185zM716 0h-187l-17 130h-245l-49 -130h-187l292 723h284zM448 937l-12 -102h-90l12 102h90zM618 937l-12 -102h-90l12 102h90z"/>
<glyph glyph-name="Aring" horiz-adv-x="740" unicode="Å" d="M499 261l-37 327h-29l-119 -327h185zM548 841q1 5 1 10q0 23 -16.5 42t-45.5 19q-31 0 -54.5 -19.5t-23.5 -46.5q0 -76 61 -76q30 0 52 20t26 51zM716 0h-187l-17 130h-245l-49 -130h-187l292 722h98q-34 27 -49 52.5t-15 52.5q0 9 1 14q6 51 45.5 86.5t89.5 35.5 q46 0 76 -31t30 -76q0 -10 -1 -15q-4 -33 -23 -59q-22 -30 -70 -60h102z"/>
<glyph glyph-name="AE" horiz-adv-x="971" unicode="Æ" d="M528 605h-63l-154 -325h177zM989 727l-16 -136h-279l-20 -159h271l-15 -119h-271l-21 -175h286l-17 -138h-453l20 159h-220l-74 -159h-186l372 727h623z"/>
<glyph glyph-name="Ccedilla" horiz-adv-x="696" unicode="Ç" d="M704 478l-1 -4h-174l1 3q2 18 2 26q0 42 -24 60t-79 18q-74 0 -100 -33q-22 -29 -34 -123l-15 -124q-6 -44 -6 -73q0 -47 21.5 -64.5t80.5 -17.5q65 0 92.5 24t35.5 90l1 7h178l-2 -11q-17 -141 -85 -203t-204 -62h-30l-5 -36h58q56 0 56 -63l-2 -24q-7 -58 -34.5 -77 t-96.5 -19h-104l6 47h107q29 0 41 11t16 39q1 4 1 12q0 35 -42 35h-60l9 75q-120 0 -172 48t-52 158q0 39 6 89l19 155q20 163 87 229t217 66h54q129 0 183.5 -42.5t54.5 -145.5q0 -19 -1 -30.5t-4 -39.5z"/>
<glyph glyph-name="Egrave" horiz-adv-x="677" unicode="È" d="M697 722l-18 -145h-351l-18 -149h341l-15 -122h-341l-20 -161h359l-18 -145h-534l89 722h526zM510 805h-47l-116 164h98z"/>
<glyph glyph-name="Eacute" horiz-adv-x="677" unicode="É" d="M697 722l-18 -145h-351l-18 -149h341l-15 -122h-341l-20 -161h359l-18 -145h-534l89 722h526zM589 969l-156 -164h-47l105 164h98z"/>
<glyph glyph-name="Ecircumflex" horiz-adv-x="677" unicode="Ê" d="M697 722l-18 -145h-351l-18 -149h341l-15 -122h-341l-20 -161h359l-18 -145h-534l89 722h526zM585 805h-47l-75 114l-106 -114h-46l105 164h104z"/>
<glyph glyph-name="Edieresis" horiz-adv-x="677" unicode="Ë" d="M697 723l-18 -145h-351l-18 -150h341l-15 -122h-341l-20 -161h359l-18 -145h-534l89 723h526zM424 937l-12 -102h-90l12 102h90zM594 937l-12 -102h-90l12 102h90z"/>
<glyph glyph-name="Igrave" horiz-adv-x="349" unicode="Ì" d="M354 722l-89 -722h-177l89 722h177zM337 805h-47l-116 164h98z"/>
<glyph glyph-name="Iacute" horiz-adv-x="349" unicode="Í" d="M354 722l-89 -722h-177l89 722h177zM416 969l-156 -164h-47l105 164h98z"/>
<glyph glyph-name="Icircumflex" horiz-adv-x="349" unicode="Î" d="M354 722l-89 -722h-177l89 722h177zM412 805h-47l-75 114l-106 -114h-46l105 164h104z"/>
<glyph glyph-name="Idieresis" horiz-adv-x="349" unicode="Ï" d="M354 723l-89 -723h-177l89 723h177zM251 937l-12 -102h-90l12 102h90zM421 937l-12 -102h-90l12 102h90z"/>
<glyph glyph-name="Eth" horiz-adv-x="762" unicode="Ð" d="M583 425q6 44 6 73q0 48 -22.5 65.5t-83.5 17.5h-155l-9 -78l67 23l27 -113l-110 -38l-28 -229h155q77 0 101.5 29.5t36.5 126.5zM764 439l-19 -151q-20 -160 -86 -224t-217 -64h-360l38 311l-55 -19l-27 113l98 34l35 288h360q128 0 183.5 -46.5t55.5 -156.5 q0 -38 -6 -85z"/>
<glyph glyph-name="Ntilde" horiz-adv-x="839" unicode="Ñ" d="M853 722l-89 -722h-273l-156 551l-20 -4l-67 -547h-166l89 722h274l156 -545l19 4l67 541h166zM681 945q-35 -101 -101 -101q-15 0 -33 6l-41 12q-21 7 -34 7q-35 0 -56 -40h-33q33 97 99 97q10 0 19 -1t19 -5l43 -13q10 -4 30 -4q35 0 55 42h33z"/>
<glyph glyph-name="Ograve" horiz-adv-x="744" unicode="Ò" d="M565 422q2 21 4 40.5t2 30.5q0 49 -22.5 66.5t-84.5 17.5h-36q-77 0 -101.5 -29.5t-36.5 -125.5l-15 -123q-6 -44 -6 -72q0 -47 22.5 -64.5t83.5 -17.5h36q78 0 102.5 29.5t36.5 124.5zM746 438l-19 -154q-20 -161 -87 -227t-218 -66h-96q-129 0 -183.5 47.5t-54.5 159.5 q0 38 6 86l19 154q20 162 86.5 227.5t217.5 65.5h96q129 0 184 -47t55 -160q0 -38 -6 -86zM537 805h-47l-116 164h98z"/>
<glyph glyph-name="Oacute" horiz-adv-x="744" unicode="Ó" d="M565 422q2 21 4 40.5t2 30.5q0 49 -22.5 66.5t-84.5 17.5h-36q-77 0 -101.5 -29.5t-36.5 -125.5l-15 -123q-6 -44 -6 -72q0 -47 22.5 -64.5t83.5 -17.5h36q78 0 102.5 29.5t36.5 124.5zM746 438l-19 -154q-20 -161 -87 -227t-218 -66h-96q-129 0 -183.5 47.5t-54.5 159.5 q0 38 6 86l19 154q20 162 86.5 227.5t217.5 65.5h96q129 0 184 -47t55 -160q0 -38 -6 -86zM616 969l-156 -164h-47l105 164h98z"/>
<glyph glyph-name="Ocircumflex" horiz-adv-x="744" unicode="Ô" d="M565 422q2 21 4 40.5t2 30.5q0 49 -22.5 66.5t-84.5 17.5h-36q-77 0 -101.5 -29.5t-36.5 -125.5l-15 -123q-6 -44 -6 -72q0 -47 22.5 -64.5t83.5 -17.5h36q78 0 102.5 29.5t36.5 124.5zM746 438l-19 -154q-20 -161 -87 -227t-218 -66h-96q-129 0 -183.5 47.5t-54.5 159.5 q0 38 6 86l19 154q20 162 86.5 227.5t217.5 65.5h96q129 0 184 -47t55 -160q0 -38 -6 -86zM612 805h-47l-75 114l-106 -114h-46l105 164h104z"/>
<glyph glyph-name="Otilde" horiz-adv-x="744" unicode="Õ" d="M565 422q3 32 4.5 45.5t1.5 26.5q0 48 -22.5 65.5t-84.5 17.5h-36q-77 0 -101.5 -29.5t-36.5 -125.5l-15 -123q-6 -44 -6 -72q0 -47 22.5 -64.5t83.5 -17.5h36q78 0 102.5 29.5t36.5 124.5zM746 438l-19 -154q-20 -161 -87 -227t-218 -66h-96q-129 0 -183.5 47.5 t-54.5 159.5q0 38 6 86l19 154q20 162 87 228t217 66h96q130 0 184.5 -47.5t54.5 -160.5q0 -38 -6 -86zM634 945q-35 -101 -101 -101q-15 0 -33 6l-41 12q-11 3 -19 4.5t-15 1.5q-36 0 -56 -39h-33q33 97 99 97q12 0 20 -1t18 -6l43 -12q10 -4 30 -4q35 0 55 42h33z"/>
<glyph glyph-name="Odieresis" horiz-adv-x="744" unicode="Ö" d="M565 422q3 32 4.5 45.5t1.5 26.5q0 48 -22.5 65.5t-84.5 17.5h-36q-77 0 -101.5 -29.5t-36.5 -125.5l-15 -122q-6 -44 -6 -73q0 -47 22.5 -64.5t83.5 -17.5h36q78 0 102.5 29.5t36.5 125.5zM746 438l-19 -154q-20 -161 -87 -227t-218 -66h-96q-129 0 -183.5 47.5 t-54.5 159.5q0 38 6 86l19 154q20 162 87 228t217 66h96q130 0 184.5 -47.5t54.5 -160.5q0 -38 -6 -86zM451 937l-12 -102h-90l12 102h90zM621 937l-12 -102h-90l12 102h90z"/>
<glyph glyph-name="multiply" d="M535 82l-85 -85l-150 150l-150 -150l-85 85l150 150l-150 150l85 85l150 -150l150 150l85 -85l-150 -150z" unicode="×"/>
<glyph glyph-name="Oslash" horiz-adv-x="744" unicode="Ø" d="M571 497l-268 -341q23 -10 72 -10h36q78 0 102.5 29.5t36.5 125.5l15 124q6 42 6 72zM541 568q-23 13 -77 13h-36q-77 0 -101.5 -29.5t-36.5 -126.5l-15 -124q-6 -51 -6 -82zM827 822l-116 -147q41 -48 41 -146q0 -40 -6 -88l-19 -155q-20 -163 -87 -229t-218 -66h-96 q-87 0 -138 20l-103 -131h-80l130 166q-47 47 -47 151q0 39 6 89l19 155q20 163 87 229t217 66h96q89 0 142 -22l84 108h88z"/>
<glyph glyph-name="Ugrave" horiz-adv-x="764" unicode="Ù" d="M789 722l-54 -438q-11 -88 -22 -124q-17 -56 -56 -96.5t-92 -56.5t-132 -16h-96q-82 0 -125 14q-51 17 -81 59q-18 25 -25.5 53.5t-7.5 66.5q0 41 8 100l54 438h174l-52 -423q-4 -31 -4.5 -38t-0.5 -26q0 -52 23 -71t86 -19h36q77 0 103 30t38 124l52 423h174zM547 805 h-47l-116 164h98z"/>
<glyph glyph-name="Uacute" horiz-adv-x="764" unicode="Ú" d="M789 722l-54 -438q-11 -88 -22 -124q-17 -56 -56 -96.5t-92 -56.5t-132 -16h-96q-82 0 -125 14q-51 17 -81 59q-18 25 -25.5 53.5t-7.5 66.5q0 41 8 100l54 438h174l-52 -423q-4 -31 -4.5 -38t-0.5 -26q0 -52 23 -71t86 -19h36q77 0 103 30t38 124l52 423h174zM626 969 l-156 -164h-47l105 164h98z"/>
<glyph glyph-name="Ucircumflex" horiz-adv-x="764" unicode="Û" d="M789 722l-54 -438q-11 -88 -22 -124q-17 -56 -56 -96.5t-92 -56.5t-132 -16h-96q-82 0 -125 14q-51 17 -81 59q-18 25 -25.5 53.5t-7.5 66.5q0 41 8 100l54 438h174l-52 -423q-4 -31 -4.5 -38t-0.5 -26q0 -52 23 -71t86 -19h36q77 0 103 30t38 124l52 423h174zM622 805 h-47l-75 114l-106 -114h-46l105 164h104z"/>
<glyph glyph-name="Udieresis" horiz-adv-x="764" unicode="Ü" d="M789 722l-54 -438q-11 -88 -22 -124q-17 -56 -56 -96.5t-92 -56.5t-132 -16h-96q-82 0 -125 14q-51 17 -81 59q-18 25 -25.5 53.5t-7.5 66.5q0 41 8 100l54 438h174l-52 -422q-5 -42 -5 -65q0 -52 23 -71t86 -19h36q77 0 103 30t38 125l52 422h174zM461 937l-12 -102h-90 l12 102h90zM631 937l-12 -102h-90l12 102h90z"/>
<glyph glyph-name="Yacute" horiz-adv-x="679" unicode="Ý" d="M762 722l-300 -469l-31 -253h-175l30 253l-184 469h197l99 -299l169 299h195zM583 969l-156 -164h-47l105 164h98z"/>
<glyph glyph-name="Thorn" horiz-adv-x="709" unicode="Þ" d="M541 398q2 16 2 23q0 37 -20.5 53t-67.5 16h-138l-29 -234h146q54 0 74 19t27 79zM720 399l-6 -50q-16 -130 -83 -184.5t-204 -54.5h-156l-14 -110h-175l89 727h175l-11 -91h156q122 0 177.5 -41t55.5 -139v-34q-3 -16 -4 -23z"/>
<glyph glyph-name="germandbls" horiz-adv-x="569" unicode="ß" d="M556 260l-11 -91q-12 -95 -56.5 -135.5t-137.5 -40.5h-26q-17 3 -25 4l12 103h9q38 0 55 18.5t23 65.5l11 96q1 7 1 12.5v7.5q0 29 -15 42t-50 13l10 88q26 4 37 17t15 43l7 55q1 5 1 15q0 49 -55 49q-34 0 -49 -18t-21 -63l-66 -541h-147l67 546q23 181 197 181h61 q73 0 112 -31t39 -90v-12q-2 -9 -2 -13l-7 -56q-5 -44 -25.5 -67.5t-81.5 -46.5q65 -11 92.5 -38.5t27.5 -77.5v-13q0 -8 -2 -22z"/>
<glyph glyph-name="agrave" horiz-adv-x="576" unicode="à" d="M385 172q1 4 1 12q0 44 -53 44h-45q-59 0 -67 -56l-3 -28q-1 -4 -1 -12q0 -44 54 -44h45q58 0 66 56zM552 351l-43 -351h-144l8 69q-37 -43 -67 -59.5t-67 -16.5h-59q-112 0 -112 110q0 6 1 14t1 13l6 49q8 63 49 97t113 34h45q35 0 61 -14.5t51 -52.5l16 132q1 5 1 9v6 q0 42 -49 42h-28q-56 0 -66 -38h-143q12 66 54 93.5t125 27.5h78q92 0 132 -28.5t40 -96.5q0 -18 -3 -39zM434 591h-47l-116 165h98z"/>
<glyph glyph-name="aacute" horiz-adv-x="576" unicode="á" d="M385 172q1 4 1 12q0 44 -53 44h-45q-59 0 -67 -56l-3 -28q-1 -4 -1 -12q0 -44 54 -44h45q58 0 66 56zM552 351l-43 -351h-144l8 69q-37 -43 -67 -59.5t-67 -16.5h-59q-112 0 -112 110q0 6 1 14t1 13l6 49q8 63 49 97t113 34h45q35 0 61 -14.5t51 -52.5l16 132q1 5 1 9v6 q0 42 -49 42h-28q-56 0 -66 -38h-143q12 66 54 93.5t125 27.5h78q92 0 132 -28.5t40 -96.5q0 -18 -3 -39zM513 756l-156 -165h-47l105 165h98z"/>
<glyph glyph-name="acircumflex" horiz-adv-x="576" unicode="â" d="M385 172q1 4 1 12q0 44 -53 44h-45q-59 0 -67 -56l-3 -28q-1 -4 -1 -12q0 -44 54 -44h45q58 0 66 56zM552 351l-43 -351h-144l8 69q-37 -43 -67 -59.5t-67 -16.5h-59q-112 0 -112 110q0 6 1 14t1 13l6 49q8 63 49 97t113 34h45q35 0 61 -14.5t51 -52.5l16 132q1 5 1 9v6 q0 42 -49 42h-28q-56 0 -66 -38h-143q12 66 54 93.5t125 27.5h78q92 0 132 -28.5t40 -96.5q0 -18 -3 -39zM509 591h-47l-75 115l-106 -115h-46l105 165h104z"/>
<glyph glyph-name="atilde" horiz-adv-x="576" unicode="ã" d="M385 172q1 4 1 12q0 44 -53 44h-45q-59 0 -67 -56l-3 -28q-1 -4 -1 -12q0 -44 54 -44h45q58 0 66 56zM552 352l-43 -352h-144l8 69q-37 -43 -67 -59.5t-67 -16.5h-59q-112 0 -112 110q0 6 1 14t1 13l6 49q8 63 49.5 97.5t112.5 34.5h45q36 0 61.5 -15t50.5 -53l16 132 q1 5 1 9v6q0 42 -49 42h-28q-32 0 -46 -7.5t-20 -30.5h-143q12 66 54 93.5t125 27.5h78q92 0 132 -28.5t40 -95.5q0 -18 -3 -39zM531 732q-35 -102 -102 -102q-14 0 -32 6l-41 13q-9 2 -18.5 4t-16.5 2q-35 0 -55 -40h-33q33 98 99 98q11 0 19 -1.5t19 -5.5l43 -12 q10 -4 30 -4q35 0 55 42h33z"/>
<glyph glyph-name="adieresis" horiz-adv-x="576" unicode="ä" d="M385 172q1 4 1 12q0 45 -53 45h-45q-59 0 -67 -57l-3 -28q-1 -4 -1 -12q0 -44 54 -44h45q58 0 66 56zM552 352l-43 -352h-144l8 69q-37 -43 -67 -59.5t-67 -16.5h-59q-112 0 -112 110q0 6 1 14t1 13l6 49q8 63 49.5 97.5t112.5 34.5h45q36 0 61.5 -15t50.5 -53l16 133 q1 5 1 9v6q0 41 -49 41h-28q-32 0 -46 -7.5t-20 -30.5h-143q12 66 54 93.5t125 27.5h78q92 0 132 -28.5t40 -95.5q0 -18 -3 -39zM348 724l-13 -103h-90l13 103h90zM518 724l-13 -103h-90l13 103h90z"/>
<glyph glyph-name="aring" horiz-adv-x="576" unicode="å" d="M385 171q1 4 1 12q0 45 -53 45h-45q-59 0 -67 -57l-3 -27q-1 -4 -1 -12q0 -45 54 -45h45q58 0 66 57zM459 690q1 5 1 11q0 23 -16.5 42t-45.5 19q-30 0 -54 -20t-24 -47q0 -76 60 -76q31 0 53 20t26 51zM552 351l-43 -351h-144l8 69q-36 -43 -66.5 -59.5t-67.5 -16.5h-59 q-112 0 -112 109q0 6 1 14.5t1 12.5l6 50q8 63 49 97t113 34h45q36 0 61.5 -15t50.5 -53l16 132q1 5 1 9v6q0 42 -49 42h-28q-32 0 -46 -7.5t-20 -30.5h-143q12 66 54 93.5t125 27.5h78q92 0 132 -28.5t40 -95.5q0 -18 -3 -39zM509 690q-7 -52 -45.5 -87.5t-89.5 -35.5 q-45 0 -75 30t-30 76q0 11 1 17q6 51 45 87t89 36q46 0 76 -31t30 -77q0 -10 -1 -15z"/>
<glyph glyph-name="ae" horiz-adv-x="860" unicode="æ" d="M385 174q1 4 1 12q0 45 -53 45h-45q-59 0 -67 -57l-3 -28q-1 -4 -1 -12q0 -45 54 -45h45q58 0 66 57zM714 336q3 23 3 40q0 33 -15 46t-52 13h-21q-44 0 -62 -20t-25 -74l-4 -34h173zM851 312l-9 -74h-313l-9 -75q-1 -8 -1 -22q0 -30 15.5 -42t51.5 -12h20 q36 0 53.5 11.5t27.5 44.5h141q-19 -80 -68.5 -115t-141.5 -35h-69q-67 0 -105 17t-61 64q-36 -43 -70 -62t-74 -19h-59q-54 0 -83 29t-29 82q0 6 1 14t1 13l6 50q8 63 50 98t113 35h45q36 0 61.5 -15t49.5 -53l17 134q1 5 1 14q0 43 -49 43h-28q-32 0 -46 -7.5t-20 -31.5 h-143q12 66 54.5 94.5t124.5 28.5h78q43 0 67 -9t48 -42q24 31 49 41t66 10h69q93 0 132.5 -33.5t39.5 -114.5v-28q-3 -22 -4 -33z"/>
<glyph glyph-name="ccedilla" horiz-adv-x="557" unicode="ç" d="M552 336h-144q1 5 1 16q0 29 -13 44q-16 18 -50 18h-22q-47 0 -62 -22.5t-24 -91.5l-11 -85q-2 -16 -3.5 -29t-1.5 -29q0 -32 13.5 -44.5t49.5 -12.5h22q41 0 59 22t24 69h144q-14 -116 -61 -157t-157 -41h-34l-5 -42h58q55 0 55 -62v-12q-2 -9 -2 -13 q-7 -57 -34.5 -76.5t-95.5 -19.5h-104l5 47h107q30 0 42 11t14 27t2 24q0 35 -42 35h-60l10 81q-83 0 -120 35t-37 113v23.5t4 37.5l13 110q14 116 62.5 162.5t157.5 46.5h69q88 0 134 -50q39 -43 39 -110q0 -9 -2 -25z"/>
<glyph glyph-name="egrave" horiz-adv-x="559" unicode="è" d="M412 332q3 23 3 38q0 34 -15 47t-52 13h-21q-45 0 -63 -19t-25 -74l-4 -34h173zM549 308l-9 -73h-313l-9 -75q-1 -6 -1 -12v-9q0 -29 15.5 -41t51.5 -12h21q36 0 53 11.5t26 43.5h141q-18 -80 -67 -114t-142 -34h-69q-94 0 -133.5 33.5t-39.5 114.5v22.5t4 35.5l14 109 q14 115 62 161t157 46h69q94 0 133.5 -33.5t39.5 -114.5v-28q-3 -21 -4 -31zM417 591h-47l-116 165h98z"/>
<glyph glyph-name="eacute" horiz-adv-x="559" unicode="é" d="M412 332q3 23 3 38q0 34 -15 47t-52 13h-21q-45 0 -63 -19t-25 -74l-4 -34h173zM549 308l-9 -73h-313l-9 -75q-1 -6 -1 -12v-9q0 -29 15.5 -41t51.5 -12h21q36 0 53 11.5t26 43.5h141q-18 -80 -67 -114t-142 -34h-69q-94 0 -133.5 33.5t-39.5 114.5v22.5t4 35.5l14 109 q14 115 62 161t157 46h69q94 0 133.5 -33.5t39.5 -114.5v-28q-3 -21 -4 -31zM496 756l-156 -165h-47l105 165h98z"/>
<glyph glyph-name="ecircumflex" horiz-adv-x="559" unicode="ê" d="M412 332q3 23 3 38q0 34 -15 47t-52 13h-21q-45 0 -63 -19t-25 -74l-4 -34h173zM549 308l-9 -73h-313l-9 -75q-1 -6 -1 -12v-9q0 -29 15.5 -41t51.5 -12h21q36 0 53 11.5t26 43.5h141q-18 -80 -67 -114t-142 -34h-69q-94 0 -133.5 33.5t-39.5 114.5v22.5t4 35.5l14 109 q14 115 62 161t157 46h69q94 0 133.5 -33.5t39.5 -114.5v-28q-3 -21 -4 -31zM492 591h-47l-75 115l-106 -115h-46l105 165h104z"/>
<glyph glyph-name="edieresis" horiz-adv-x="559" unicode="ë" d="M412 332q3 23 3 38q0 34 -15 47t-52 13h-21q-45 0 -63 -19t-25 -73l-4 -34h173zM549 309l-9 -73h-313l-9 -75q-1 -6 -1 -12v-9q0 -30 15.5 -42t51.5 -12h21q36 0 53 11.5t26 43.5h141q-18 -80 -67 -114t-142 -34h-69q-93 0 -132.5 33.5t-39.5 112.5v36q3 17 4 25l13 109 q14 114 62 160t157 46h69q94 0 133.5 -33.5t39.5 -113.5v-28q-3 -21 -4 -31zM331 724l-13 -103h-90l13 103h90zM501 724l-13 -103h-90l13 103h90z"/>
<glyph glyph-name="igrave" horiz-adv-x="298" unicode="ì" d="M285 508l-62 -508h-146l62 508h146zM285 591h-47l-116 165h98z"/>
<glyph glyph-name="iacute" horiz-adv-x="298" unicode="í" d="M285 508l-62 -508h-146l62 508h146zM364 756l-156 -165h-47l105 165h98z"/>
<glyph glyph-name="icircumflex" horiz-adv-x="298" unicode="î" d="M285 508l-62 -508h-146l62 508h146zM360 591h-47l-75 115l-106 -115h-46l105 165h104z"/>
<glyph glyph-name="idieresis" horiz-adv-x="298" unicode="ï" d="M285 508l-62 -508h-146l62 508h146zM199 724l-13 -103h-90l13 103h90zM369 724l-13 -103h-90l13 103h90z"/>
<glyph glyph-name="eth" horiz-adv-x="693" unicode="ð" d="M488 244q1 7 1 12.5v7.5q0 28 -18.5 37.5t-67.5 9.5h-39q-58 0 -76.5 -12t-23.5 -55l-7 -56q-2 -16 -2 -22q0 -27 18 -36t68 -9h39q56 0 76 12.5t25 54.5zM765 673l-92 -50q10 -34 10 -85q0 -47 -7 -97l-19 -155q-20 -162 -78.5 -228.5t-189.5 -66.5h-86q-211 0 -211 153 v16q2 12 2 17l8 69q12 98 63 145t147 47h71q38 0 65.5 -13.5t55.5 -49.5l19 157q0 5 1 13t1 16q0 28 -15 37t-61 9h-48q-44 0 -61 -13t-22 -52l-162 1l4 35q20 158 234 158h86q76 0 121 -21l117 63z"/>
<glyph glyph-name="ntilde" horiz-adv-x="591" unicode="ñ" d="M566 337l-41 -337h-143l37 300q3 27 3 45q0 36 -15.5 47t-58.5 11q-48 0 -65 -24.5t-25 -89.5l-35 -289h-143l63 514h138l-8 -67h9q25 42 61.5 58t92.5 16q75 0 105 -27t30 -92q0 -27 -2 -41.5t-3 -23.5zM538 732q-35 -102 -102 -102q-11 0 -32 7l-41 12q-9 2 -18.5 4 t-16.5 2q-35 0 -55 -40h-33q33 98 99 98q6 0 14.5 -0.5t23.5 -5.5l43 -13q10 -4 30 -4q35 0 55 42h33z"/>
<glyph glyph-name="ograve" horiz-adv-x="560" unicode="ò" d="M400 296q4 29 4.5 35t0.5 22q0 32 -13 44t-49 12h-20q-47 0 -62 -22.5t-24 -90.5l-10 -84q-4 -29 -4.5 -34.5t-0.5 -21.5q0 -32 13.5 -44.5t49.5 -12.5h20q47 0 63 24q13 19 22 89zM549 308l-14 -109q-14 -114 -62 -160t-157 -46h-69q-94 0 -133.5 33.5t-39.5 114.5v22.5 t4 35.5l14 109q14 115 62 161t157 46h69q94 0 133.5 -33.5t39.5 -114.5v-28q-3 -21 -4 -31zM418 591h-47l-116 165h98z"/>
<glyph glyph-name="oacute" horiz-adv-x="560" unicode="ó" d="M400 296q4 29 4.5 35t0.5 22q0 32 -13 44t-49 12h-20q-47 0 -62 -22.5t-24 -90.5l-10 -84q-4 -29 -4.5 -34.5t-0.5 -21.5q0 -32 13.5 -44.5t49.5 -12.5h20q47 0 63 24q13 19 22 89zM549 308l-14 -109q-14 -114 -62 -160t-157 -46h-69q-94 0 -133.5 33.5t-39.5 114.5v22.5 t4 35.5l14 109q14 115 62 161t157 46h69q94 0 133.5 -33.5t39.5 -114.5v-28q-3 -21 -4 -31zM497 756l-156 -165h-47l105 165h98z"/>
<glyph glyph-name="ocircumflex" horiz-adv-x="560" unicode="ô" d="M400 296q4 29 4.5 35t0.5 22q0 32 -13 44t-49 12h-20q-47 0 -62 -22.5t-24 -90.5l-10 -84q-4 -29 -4.5 -34.5t-0.5 -21.5q0 -32 13.5 -44.5t49.5 -12.5h20q47 0 63 24q13 19 22 89zM549 308l-14 -109q-14 -114 -62 -160t-157 -46h-69q-94 0 -133.5 33.5t-39.5 114.5v22.5 t4 35.5l14 109q14 115 62 161t157 46h69q94 0 133.5 -33.5t39.5 -114.5v-28q-3 -21 -4 -31zM493 591h-47l-75 115l-106 -115h-46l105 165h104z"/>
<glyph glyph-name="otilde" horiz-adv-x="560" unicode="õ" d="M400 296q2 16 3.5 29t1.5 29q0 31 -13 43t-49 12h-20q-47 0 -62 -22t-24 -91l-10 -84q-4 -29 -4.5 -34.5t-0.5 -21.5q0 -32 13.5 -44.5t49.5 -12.5h20q47 0 63 24q13 19 22 89zM549 309l-13 -109q-14 -115 -62.5 -161t-157.5 -46h-69q-93 0 -132.5 33.5t-39.5 112.5v36 q3 17 4 25l13 109q14 114 62 160t157 46h69q94 0 133.5 -33.5t39.5 -113.5v-28q-3 -21 -4 -31zM515 732q-35 -102 -102 -102q-14 0 -32 6l-41 13q-9 2 -18.5 4t-16.5 2q-35 0 -55 -40h-33q33 98 99 98q11 0 19 -1.5t19 -5.5l43 -12q10 -4 30 -4q35 0 55 42h33z"/>
<glyph glyph-name="odieresis" horiz-adv-x="560" unicode="ö" d="M400 296q2 16 3.5 29t1.5 29q0 31 -13 43t-49 12h-20q-47 0 -62 -22t-24 -91l-10 -84q-4 -29 -4.5 -34.5t-0.5 -21.5q0 -32 13.5 -44.5t49.5 -12.5h20q47 0 63 24q13 19 22 89zM549 309l-13 -109q-14 -115 -62.5 -161t-157.5 -46h-69q-93 0 -132.5 33.5t-39.5 112.5v36 q3 17 4 25l13 109q14 114 62 160t157 46h69q94 0 133.5 -33.5t39.5 -113.5v-28q-3 -21 -4 -31zM332 724l-13 -103h-90l13 103h90zM502 724l-13 -103h-90l13 103h90z"/>
<glyph glyph-name="divide" d="M374 0h-150v146h150v-146zM538 200h-484v120h484v-120zM374 376h-150v146h150v-146z" unicode="÷"/>
<glyph glyph-name="oslash" horiz-adv-x="560" unicode="ø" d="M405 330l-159 -224q15 -6 39 -6h20q47 0 62 22.5t23 92.5l11 85zM375 411q-12 3 -31 3h-20q-47 0 -62 -22.5t-24 -91.5l-11 -85l-2 -21zM610 622l-95 -136q38 -35 38 -111v-30q-3 -22 -4 -33l-13 -110q-14 -116 -62.5 -162.5t-157.5 -46.5h-69q-47 0 -76 7l-76 -108h-80 l96 138q-36 33 -36 110v36q3 18 4 26l13 110q14 116 62.5 162.5t157.5 46.5h69q35 0 67 -5l74 106h88z"/>
<glyph glyph-name="ugrave" horiz-adv-x="595" unicode="ù" d="M588 514l-63 -514h-138l8 66l-9 -1q-25 -40 -62 -56t-92 -16q-75 0 -105 27t-30 91q0 27 2 41.5t3 23.5l41 338h143l-37 -299q-3 -27 -3 -45q0 -37 15 -47.5t59 -10.5q47 0 64.5 24.5t25.5 87.5l35 290h143zM445 591h-47l-116 165h98z"/>
<glyph glyph-name="uacute" horiz-adv-x="595" unicode="ú" d="M588 514l-63 -514h-138l8 66l-9 -1q-25 -40 -62 -56t-92 -16q-75 0 -105 27t-30 91q0 27 2 41.5t3 23.5l41 338h143l-37 -299q-3 -27 -3 -45q0 -37 15 -47.5t59 -10.5q47 0 64.5 24.5t25.5 87.5l35 290h143zM524 756l-156 -165h-47l105 165h98z"/>
<glyph glyph-name="ucircumflex" horiz-adv-x="595" unicode="û" d="M588 514l-63 -514h-138l8 66l-9 -1q-25 -40 -62 -56t-92 -16q-75 0 -105 27t-30 91q0 27 2 41.5t3 23.5l41 338h143l-37 -299q-3 -27 -3 -45q0 -37 15 -47.5t59 -10.5q47 0 64.5 24.5t25.5 87.5l35 290h143zM520 591h-47l-75 115l-106 -115h-46l105 165h104z"/>
<glyph glyph-name="udieresis" horiz-adv-x="595" unicode="ü" d="M588 514l-63 -514h-138l8 66l-9 -1q-25 -40 -62 -56t-92 -16q-75 0 -105 27t-30 91q0 27 2 41.5t3 23.5l41 338h143l-37 -299q-3 -27 -3 -45q0 -37 15 -47.5t59 -10.5q47 0 64.5 24.5t25.5 87.5l35 290h143zM359 724l-13 -103h-90l13 103h90zM529 724l-13 -103h-90 l13 103h90z"/>
<glyph glyph-name="yacute" horiz-adv-x="538" unicode="ý" d="M573 510l-259 -580q-27 -69 -60 -96q-39 -31 -112 -31q-29 0 -79 5l12 98h26q28 0 52 16t32 37l16 52l-125 499h148l67 -361l129 361h153zM485 757l-156 -164h-47l105 164h98z"/>
<glyph glyph-name="thorn" d="M419 302q3 27 3 48q0 33 -13 47t-47 14h-19q-43 0 -59.5 -24t-23.5 -85l-10 -82q-3 -27 -3 -48q0 -33 13 -47t47 -14h19q43 0 61 26q15 22 22 83zM567 315l-14 -109q-13 -106 -57.5 -156.5t-128.5 -50.5q-50 0 -84 15t-45 47h-8l-31 -257h-143l113 921h138l-35 -275h8 q24 39 62.5 55.5t89.5 16.5q71 0 105 -37t34 -113v-27q-3 -20 -4 -30z" unicode="þ"/>
<glyph glyph-name="OE" horiz-adv-x="998" unicode="Œ" d="M566 428q6 45 6 76q0 50 -22.5 67.5t-84.5 17.5h-36q-74 0 -100 -30.5t-38 -130.5l-16 -129q-6 -47 -6 -78q0 -47 22 -65t83 -18h36q78 0 103 30.5t37 130.5zM1031 727l-17 -142h-263l-19 -156h251l-15 -119h-251l-21 -169h271l-17 -141h-421l4 36q-31 -15 -53 -22 q-70 -23 -145 -23q-127 0 -186.5 52.5t-59.5 168.5q0 29 5 74l19 155q19 154 93 224.5t214 70.5q76 0 142 -22q22 -7 52 -23l4 36h413z"/>
<glyph glyph-name="oe" horiz-adv-x="882" unicode="œ" d="M413 300q4 27 4.5 33t0.5 22q0 34 -14.5 46.5t-53.5 12.5h-22q-50 0 -65.5 -22t-24.5 -92l-11 -85q-4 -29 -4 -56q0 -33 14 -46t53 -13h21q49 0 65.5 22.5t25.5 92.5zM737 336q3 23 3 40q0 33 -15 46t-52 13h-25q-45 0 -63 -20t-25 -76l-4 -32h178zM874 312l-9 -74h-318 l-9 -75q-1 -6 -1 -12v-9q0 -30 15.5 -42.5t52.5 -12.5h25q36 0 53.5 11.5t27.5 44.5h140q-16 -79 -65.5 -114.5t-143.5 -35.5h-82q-48 0 -70 20q-25 23 -31 84q-29 -58 -63.5 -81t-86.5 -23h-62q-93 0 -132.5 33.5t-39.5 114.5v35q3 18 4 26l13 110q14 116 62.5 162.5 t157.5 46.5h62q51 0 79.5 -17t44.5 -66q26 46 60 64.5t84 18.5h65q93 0 132 -33.5t39 -113.5v-29q-3 -22 -4 -33z"/>
<glyph glyph-name="Scaron" horiz-adv-x="683" unicode="Š" d="M685 567l-5 -41h-167q1 6 1 17q0 28 -17 39t-57 11h-45q-50 0 -72.5 -13t-26.5 -47l-3 -31q-1 -4 -1 -12q0 -25 18 -34t63 -14l142 -16q157 -18 157 -142q0 -7 -1 -15.5t-1 -13.5l-8 -71q-11 -88 -70 -140.5t-151 -52.5h-159q-110 0 -161.5 34t-51.5 110q0 22 2 34l5 40 h167q-1 -6 -1 -15q0 -35 21.5 -49.5t74.5 -14.5h49q50 0 71.5 14.5t26.5 50.5l4 33q1 5 1 13q0 27 -18 37t-62 15l-156 18q-74 8 -107.5 42t-33.5 102q0 19 3 40l5 46q14 103 78 151q30 24 71 31.5t104 7.5h117q196 0 196 -139v-12q-2 -9 -2 -13zM601 969l-105 -164h-104 l-65 164h46l78 -115l103 115h47z"/>
<glyph glyph-name="scaron" horiz-adv-x="562" unicode="š" d="M551 387l-144 -1q0 44 -65 44h-21q-80 0 -80 -59q-1 -10 -1 -14q0 -21 11.5 -30t40.5 -12l114 -12q136 -12 136 -101q0 -11 -1 -17l-6 -45q-8 -68 -59.5 -107.5t-132.5 -39.5h-109q-170 0 -170 118q0 15 1 23l151 -3q0 -29 16.5 -40.5t53.5 -11.5h22q43 0 61.5 13.5 t22.5 48.5q1 6 1 16q0 23 -15 33t-56 15l-104 10q-58 5 -90 35t-32 76q0 10 1 15l5 42q17 132 198 132h101q151 0 151 -107q0 -14 -1 -21zM514 756l-105 -165h-104l-65 165h46l78 -116l103 116h47z"/>
<glyph glyph-name="Ydieresis" horiz-adv-x="679" unicode="Ÿ" d="M762 723l-300 -469l-31 -254h-175l30 254l-184 469h197l99 -300l169 300h195zM418 937l-12 -102h-90l12 102h90zM588 937l-12 -102h-90l12 102h90z"/>
<glyph glyph-name="circumflex" horiz-adv-x="492" unicode="ˆ" d="M456 576h-47l-74 126l-107 -126h-46l107 181h104z"/>
<glyph glyph-name="tilde" horiz-adv-x="492" unicode="˜" d="M480 733q-38 -117 -103 -117q-5 0 -14 2t-19 5l-41 14q-5 2 -16.5 5t-17.5 3q-35 0 -56 -46h-33q34 111 100 111q12 0 20 -1t18 -6l44 -14q5 -3 13 -4t16 -1q35 0 56 49h33z"/>
<glyph glyph-name="summation" horiz-adv-x="347" unicode="Σ" d="M306 300q0 -51 -36.5 -87.5t-87.5 -36.5q-53 0 -89.5 35.5t-36.5 88.5t36.5 89.5t89.5 36.5q51 0 87.5 -36.5t36.5 -89.5z"/>
<glyph glyph-name="pi" horiz-adv-x="347" unicode="π" d="M306 300q0 -51 -36.5 -87.5t-87.5 -36.5q-53 0 -89.5 35.5t-36.5 88.5t36.5 89.5t89.5 36.5q51 0 87.5 -36.5t36.5 -89.5z"/>
<glyph glyph-name="endash" horiz-adv-x="495" unicode="–" d="M500 208h-500v106h500v-106z"/>
<glyph glyph-name="emdash" horiz-adv-x="990" unicode="—" d="M1000 208h-1000v106h1000v-106z"/>
<glyph glyph-name="quoteleft" horiz-adv-x="330" unicode="‘" d="M307 672q-54 -2 -60 -56l-2 -26h51l-18 -153h-130l22 181q13 109 142 109z"/>
<glyph glyph-name="quotesinglbase" horiz-adv-x="330" unicode="‚" d="M244 162l-22 -181q-13 -109 -143 -109l6 54q52 2 59 57l1 27h-50l19 152h130z"/>
<glyph glyph-name="quotedblleft" horiz-adv-x="556" unicode="“" d="M307 672q-54 -2 -60 -56l-2 -26h51l-18 -153h-130l22 181q13 109 142 109zM549 672q-53 -2 -59 -56q-2 -8 -2 -26h50l-18 -153h-129l22 181q13 109 141 109z"/>
<glyph glyph-name="quotedblright" horiz-adv-x="556" unicode="”" d="M313 727l-22 -180q-13 -110 -142 -110l5 54q52 2 59 57q1 4 1.5 10t0.5 17h-50l18 152h130zM555 727l-22 -180q-13 -110 -142 -110l5 54q54 2 60 57l2 27h-51l18 152h130z"/>
<glyph glyph-name="dagger" horiz-adv-x="550" unicode="†" d="M585 484l-14 -116h-182l-69 -564h-130l69 564h-180l14 116h180l28 224h136l-28 -224h176z"/>
<glyph glyph-name="daggerdbl" horiz-adv-x="550" unicode="‡" d="M581 484l-14 -116h-174l-27 -218h174l-14 -116h-174l-28 -230h-136l28 230h-182l14 116h182l27 218h-182l14 116h182l28 224h136l-28 -224h174z"/>
<glyph glyph-name="ellipsis" horiz-adv-x="990" unicode="…" d="M246 0h-150v146h150v-146zM580 0h-150v146h150v-146zM912 0h-150v146h150v-146z"/>
<glyph glyph-name="perthousand" horiz-adv-x="1184" unicode="‰" d="M715 200q3 24 3 38q0 21 -9 29.5t-32 8.5h-13q-30 0 -40 -15t-16 -61l-7 -56q-3 -24 -3 -39q0 -21 8 -29t32 -8h13q31 0 41 15t16 61zM1075 200q3 24 3 38q0 21 -9 29.5t-32 8.5h-13q-30 0 -40 -15t-16 -61l-7 -56q-3 -24 -3 -39q0 -21 8 -29t32 -8h13q31 0 41 15t16 61z M332 585q3 24 3 38q0 21 -9 29.5t-32 8.5h-13q-30 0 -40 -15t-16 -61l-7 -56q-3 -24 -3 -38q0 -21 9 -29.5t32 -8.5h13q30 0 40 15t16 61zM813 208l-9 -72q-10 -77 -41.5 -107.5t-103.5 -30.5h-45q-62 0 -88 22t-26 75q0 18 3 41l9 72q9 77 40.5 107.5t103.5 30.5h45 q62 0 88.5 -22.5t26.5 -76.5q0 -18 -3 -39zM1173 208l-9 -72q-10 -77 -41.5 -107.5t-103.5 -30.5h-45q-62 0 -88 22t-26 75q0 18 3 41l9 72q9 77 40.5 107.5t103.5 30.5h45q62 0 88.5 -22.5t26.5 -76.5q0 -18 -3 -39zM762 730l-516 -730h-80l508 730h88zM430 593l-9 -72 q-9 -76 -41 -107t-104 -31h-45q-62 0 -88 22t-26 76q0 17 3 40l9 72q9 76 41 107t104 31h45q62 0 88 -22t26 -76q0 -17 -3 -40z"/>
<glyph glyph-name="guilsinglleft" horiz-adv-x="331" unicode="‹" d="M316 476l-13 -110l-115 -88l93 -88l-14 -116l-149 140l15 124z"/>
<glyph glyph-name="guilsinglright" horiz-adv-x="331" unicode="›" d="M297 338l-15 -124l-185 -140l14 116l115 88l-93 88l13 110z"/>
<glyph glyph-name="trademark" horiz-adv-x="990" unicode="™" d="M418 668h-122v-326h-98v326h-122v78h342v-78zM934 342h-88v326l-120 -326h-52l-118 326v-326h-88v404h142l90 -240l92 240h142v-404z"/>
<glyph glyph-name="partialdiff" horiz-adv-x="347" unicode="∂" d="M306 300q0 -51 -36.5 -87.5t-87.5 -36.5q-53 0 -89.5 35.5t-36.5 88.5t36.5 89.5t89.5 36.5q51 0 87.5 -36.5t36.5 -89.5z"/>
<glyph glyph-name="product" horiz-adv-x="347" unicode="∏" d="M306 300q0 -51 -36.5 -87.5t-87.5 -36.5q-53 0 -89.5 35.5t-36.5 88.5t36.5 89.5t89.5 36.5q51 0 87.5 -36.5t36.5 -89.5z"/>
<glyph glyph-name="minus" d="M536 172h-484v120h484v-120z" unicode="−"/>
<glyph glyph-name="radical" horiz-adv-x="347" unicode="√" d="M306 300q0 -51 -36.5 -87.5t-87.5 -36.5q-53 0 -89.5 35.5t-36.5 88.5t36.5 89.5t89.5 36.5q51 0 87.5 -36.5t36.5 -89.5z"/>
<glyph glyph-name="infinity" horiz-adv-x="347" unicode="∞" d="M306 300q0 -51 -36.5 -87.5t-87.5 -36.5q-53 0 -89.5 35.5t-36.5 88.5t36.5 89.5t89.5 36.5q51 0 87.5 -36.5t36.5 -89.5z"/>
<glyph glyph-name="approxequal" horiz-adv-x="347" unicode="≈" d="M306 300q0 -51 -36.5 -87.5t-87.5 -36.5q-53 0 -89.5 35.5t-36.5 88.5t36.5 89.5t89.5 36.5q51 0 87.5 -36.5t36.5 -89.5z"/>
<glyph glyph-name="notequal" horiz-adv-x="347" unicode="≠" d="M306 300q0 -51 -36.5 -87.5t-87.5 -36.5q-53 0 -89.5 35.5t-36.5 88.5t36.5 89.5t89.5 36.5q51 0 87.5 -36.5t36.5 -89.5z"/>
<glyph glyph-name="lessequal" horiz-adv-x="347" unicode="≤" d="M306 300q0 -51 -36.5 -87.5t-87.5 -36.5q-53 0 -89.5 35.5t-36.5 88.5t36.5 89.5t89.5 36.5q51 0 87.5 -36.5t36.5 -89.5z"/>
<glyph glyph-name="greaterequal" horiz-adv-x="347" unicode="≥" d="M306 300q0 -51 -36.5 -87.5t-87.5 -36.5q-53 0 -89.5 35.5t-36.5 88.5t36.5 89.5t89.5 36.5q51 0 87.5 -36.5t36.5 -89.5z"/>
<glyph glyph-name="lozenge" horiz-adv-x="347" unicode="◊" d="M306 300q0 -51 -36.5 -87.5t-87.5 -36.5q-53 0 -89.5 35.5t-36.5 88.5t36.5 89.5t89.5 36.5q51 0 87.5 -36.5t36.5 -89.5z"/>
</font>
</defs>
</svg>
