<?xml version="1.0" encoding="UTF-8" standalone="no"?>
<!DOCTYPE svg  PUBLIC '-//W3C//DTD SVG 1.1//EN'  'http://www.w3.org/Graphics/SVG/1.1/DTD/svg11.dtd'>
<svg xmlns="http://www.w3.org/2000/svg">
<defs>
<font id="Square721BoldItalic-Regular" horiz-adv-x="578">
<font-face slope="-11" underline-position="-140" font-weight="700" descent="-200" panose-1="0 0 7 0 0 0 0 0 0 0" units-per-em="1000" unicode-range="U+0020-25CA" bbox="-164 -242 1176 969" x-height="510" underline-thickness="40" font-family="Square721BoldItalic" ascent="800" font-style="italic" cap-height="727"/>
<missing-glyph horiz-adv-x="1000"/>
<glyph glyph-name=".notdef" horiz-adv-x="1000"/>
<glyph glyph-name=".null" horiz-adv-x="0"/>
<glyph glyph-name="glyph2" horiz-adv-x="1000"/>
<glyph glyph-name="space" horiz-adv-x="277" unicode=" "/>
<glyph glyph-name="exclam" horiz-adv-x="344" unicode="!" d="M263 159l-20 -159h-140l20 159h140zM332 727l-53 -430h-140l53 430h140z"/>
<glyph glyph-name="quotedbl" horiz-adv-x="469" unicode='&quot;' d="M283 730l-16 -130l-58 -130h-54l-26 130l16 130h138zM519 730l-16 -130l-58 -130h-54l-26 130l16 130h138z"/>
<glyph glyph-name="numbersign" horiz-adv-x="550" unicode="#" d="M358 380h-104l-24 -124h102zM562 380h-98l-24 -124h94v-112h-118l-34 -174h-106l34 174h-102l-32 -174h-106l32 174h-90v112h112l24 124h-96v114h118l38 202h106l-38 -202h100l40 202h104l-38 -202h80v-114z"/>
<glyph glyph-name="dollar" horiz-adv-x="683" unicode="$" d="M490 237v6q0 28 -22 39q-14 7 -48 11l-20 -162q77 0 85 66l4 32q1 4 1 8zM377 597q-72 0 -80 -60l-4 -31q-1 -8 -1 -11q0 -38 67 -48zM687 584q-2 -9 -2 -13l-5 -42h-167q1 7 1 19q0 48 -57 48l-19 -159l78 -8q157 -16 157 -145q0 -5 -1 -13.5t-1 -13.5l-9 -72 q-11 -89 -71 -141.5t-150 -52.5h-58l-13 -101h-80l13 101h-21q-96 0 -145 25q-68 34 -68 119v16q0 3 2 19l5 41h167q-1 -7 -1 -19q0 -61 78 -61l21 172l-87 10q-141 16 -141 146q0 17 3 40l6 46q13 101 78 152q50 39 174 39h20l11 86h80l-11 -86h17q196 0 196 -140v-12z"/>
<glyph glyph-name="percent" horiz-adv-x="832" unicode="%" d="M718 238q0 38 -41 38h-13q-33 0 -44 -23q-7 -12 -12 -53l-7 -56q-3 -24 -3 -39q0 -22 8.5 -29.5t31.5 -7.5h13q33 0 45 22q7 12 12 54l7 56q3 24 3 38zM335 623q0 38 -41 38h-13q-33 0 -44 -23q-7 -12 -12 -53l-7 -56q-3 -24 -3 -38q0 -38 41 -38h13q33 0 44 23 q7 12 12 53l7 56q3 24 3 38zM762 730l-516 -730h-80l508 730h88zM816 247q0 -15 -3 -39l-9 -72q-9 -75 -39 -105q-33 -33 -106 -33h-45q-58 0 -84 19q-30 22 -30 78q0 17 3 41l9 72q9 75 39.5 106.5t104.5 31.5h45q59 0 85 -20q30 -23 30 -79zM433 633q0 -16 -3 -40l-9 -72 q-9 -75 -39 -105q-33 -33 -106 -33h-45q-59 0 -84 19q-30 23 -30 79q0 16 3 40l9 72q9 75 40.5 106.5t104.5 31.5h45q59 0 84 -19q30 -23 30 -79z"/>
<glyph glyph-name="ampersand" horiz-adv-x="735" unicode="&amp;" d="M484 151l-195 202q-31 -5 -44 -32q-8 -17 -13 -57l-8 -68q-1 -8 -1 -12v-8q0 -60 79 -60h114q42 0 68 35zM736 78l-91 -95l-71 73q-39 -42 -90 -57q-40 -12 -107 -12h-93q-220 0 -220 147v16q2 12 2 17l11 95q15 132 152 154q-57 55 -57 113q0 12 1 22l4 39q9 87 81 122 q54 25 153 25h56q88 0 133 -18q67 -28 67 -103q0 -4 -1 -13t-1 -13l-8 -70h-140l5 43q1 4 1 8q0 41 -56 41h-75q-62 0 -68 -49l-3 -24q-1 -4 -1 -8q0 -20 13 -33l214 -223l11 95h138l-14 -114q-7 -58 -31 -90z"/>
<glyph glyph-name="quotesingle" horiz-adv-x="237" unicode="&apos;" d="M283 730l-16 -130l-58 -130h-54l-26 130l16 130h138z"/>
<glyph glyph-name="parenleft" horiz-adv-x="331" unicode="(" d="M400 730q-164 -233 -193 -458q-6 -47 -6 -98q0 -215 84 -376h-100q-40 85 -56 124q-56 137 -56 261q0 138 55 271q32 78 82 153q21 32 90 123h100z"/>
<glyph glyph-name="parenright" horiz-adv-x="331" unicode=")" d="M329 349q0 -134 -48 -257q-26 -67 -77 -148q-33 -52 -101 -146h-100q87 112 143.5 268.5t56.5 296.5q0 176 -85 367h100q35 -68 50 -103q61 -141 61 -278z"/>
<glyph glyph-name="asterisk" horiz-adv-x="386" unicode="*" d="M426 574l-112 -38l66 -96l-71 -54l-62 96l-80 -96l-57 54l88 96l-104 38l35 72l98 -38l15 122h78l-15 -122l104 38z"/>
<glyph glyph-name="plus" d="M542 172h-182v-182h-120v182h-182v120h182v182h120v-182h182v-120z" unicode="+"/>
<glyph glyph-name="comma" horiz-adv-x="344" unicode="," d="M265 175l-25 -204q-6 -51 -53 -76q-38 -22 -94 -22h-5l7 56q60 3 62 55l1 26h-53l20 165h140z"/>
<glyph glyph-name="period" horiz-adv-x="344" unicode="." d="M264 174l-21 -174h-140l21 174h140z"/>
<glyph glyph-name="slash" horiz-adv-x="277" unicode="/" d="M282 730l-210 -730h-64l210 730h64z"/>
<glyph glyph-name="zero" horiz-adv-x="683" unicode="0" d="M527 512q0 47 -23 64q-20 14 -69 14h-31q-74 0 -99 -42q-16 -26 -26 -113l-17 -143q-6 -50 -6 -75q0 -49 23 -66q19 -14 70 -14h31q73 0 98 43q16 26 26 112l17 143q6 50 6 77zM696 534q0 -44 -6 -93l-19 -155q-19 -153 -73 -218q-64 -77 -208 -77h-87q-113 0 -163 44 q-53 46 -53 157q0 37 7 94l19 155q19 153 73 218q64 77 208 77h87q113 0 163 -44q52 -47 52 -158z"/>
<glyph glyph-name="one" horiz-adv-x="683" unicode="1" d="M624 727l-89 -727h-163l70 569l-200 -165l-83 111l265 212h200z"/>
<glyph glyph-name="two" horiz-adv-x="683" unicode="2" d="M694 578q0 -4 -1 -13t-1 -13l-8 -61q-21 -158 -149 -192l-213 -56q-50 -13 -56 -58l-5 -40h376l-18 -145h-546l21 168q19 151 133 185l220 66q36 11 51 24q19 17 22 50l3 29q2 19 2 23q0 61 -86 61h-32q-50 0 -73.5 -18t-29.5 -66l-4 -31h-160l7 56q12 96 79 144 q61 45 161 45h106q86 0 139 -35q62 -42 62 -123z"/>
<glyph glyph-name="three" horiz-adv-x="683" unicode="3" d="M683 585q0 -5 -1 -13.5t-1 -13.5l-6 -48q-12 -99 -116 -122l-4 -21q98 -28 98 -116v-13q-2 -9 -2 -13l-7 -55q-12 -92 -85 -139q-63 -40 -162 -40h-110q-86 0 -140 34q-63 41 -63 123q0 4 1 13t1 13l7 57h164l-3 -25q-1 -8 -1 -19q0 -64 87 -64h34q96 0 105 78l3 27 q1 9 1 17q0 63 -86 63h-50l16 129h48q89 0 97 76l2 20q1 5 1 15q0 59 -78 59h-31q-47 0 -70 -19t-29 -65l-2 -15h-162l5 40q24 188 251 188h79q209 0 209 -151z"/>
<glyph glyph-name="four" horiz-adv-x="683" unicode="4" d="M483 614l-274 -341h233zM690 273l-16 -130h-86l-18 -143h-162l18 143h-365l22 183l329 401h247l-55 -454h86z"/>
<glyph glyph-name="five" horiz-adv-x="683" unicode="5" d="M678 727l-15 -127h-347l-21 -172q63 72 140 72h42q90 0 135 -32q51 -38 51 -124q0 -23 -3 -46l-14 -107q-15 -118 -84 -163q-58 -37 -185 -37h-68q-90 0 -145 31q-69 39 -69 122q0 4 1 13t1 13l4 30h161l-1 -3q-1 -7 -1 -19q0 -37 28 -48q16 -6 61 -6h27q59 0 78 15 q23 16 30 72l9 74q2 16 2 33q0 38 -27 48q-15 6 -61 6h-27q-83 0 -97 -39h-154l48 394h501z"/>
<glyph glyph-name="six" horiz-adv-x="683" unicode="6" d="M498 266q0 33 -29 41q-13 4 -57 4h-39q-52 0 -69 -9q-26 -13 -32 -58l-7 -56q-1 -8 -1 -12v-8q0 -32 29 -42q15 -5 57 -5h39q53 0 70 9q24 13 30 58l7 56q2 16 2 22zM684 591q-2 -9 -2 -13l-4 -35h-162q1 7 1 19q0 45 -68 45h-48q-52 0 -68 -12q-20 -14 -26 -63l-19 -157 q65 63 137 63h71q165 0 165 -148q0 -18 -3 -44l-8 -69q-22 -186 -255 -186h-86q-108 0 -155.5 45t-47.5 153q0 40 7 97l19 155q18 150 67 214q62 81 201 81h86q198 0 198 -133v-12z"/>
<glyph glyph-name="seven" horiz-adv-x="683" unicode="7" d="M697 727l-16 -135l-318 -592h-171l316 598h-358l16 129h531z"/>
<glyph glyph-name="eight" horiz-adv-x="683" unicode="8" d="M488 246q0 65 -90 65h-20q-97 0 -106 -81l-3 -28q-1 -5 -1 -15q0 -64 89 -64h21q98 0 106 79l3 28q1 5 1 16zM516 545q0 63 -81 63h-17q-91 0 -99 -76l-2 -20q-1 -5 -1 -13q0 -64 79 -64h19q91 0 99 77l2 20q1 5 1 13zM682 570q0 -3 -2 -22l-5 -47q-9 -88 -116 -113 l-4 -21q99 -28 99 -117v-12q-2 -9 -2 -13l-7 -55q-12 -92 -85 -138q-64 -41 -162 -41h-94q-87 0 -140 33q-65 40 -65 121v12q2 9 2 13l7 55q15 114 129 142l3 21q-88 19 -88 94q0 10 1 19l5 47q20 188 251 188h66q207 0 207 -154v-12z"/>
<glyph glyph-name="nine" horiz-adv-x="683" unicode="9" d="M526 551v9q0 33 -28 42q-13 5 -56 5h-40q-52 0 -70 -9q-25 -13 -31 -59l-7 -56q-2 -16 -2 -22q0 -33 29 -41q13 -4 57 -4h40q52 0 69 9q25 13 31 58l7 56q1 8 1 12zM684 539q0 -41 -7 -98l-19 -155q-18 -150 -67 -214q-62 -81 -201 -81h-86q-198 0 -198 132v12q2 9 2 13 l5 36h162q-2 -14 -2 -19q0 -29 21 -38q13 -6 48 -6h48q52 0 69.5 13t23.5 62l19 156q-65 -63 -137 -63h-71q-165 0 -165 148q0 19 3 44l8 68q22 187 255 187h86q108 0 155.5 -45t47.5 -152z"/>
<glyph glyph-name="colon" horiz-adv-x="344" unicode=":" d="M263 161l-20 -161h-140l20 161h140zM305 507l-19 -160h-140l19 160h140z"/>
<glyph glyph-name="semicolon" horiz-adv-x="344" unicode=";" d="M263 163l-24 -196q-6 -49 -54 -74q-39 -21 -93 -21h-5l7 55q54 3 62 53v24h-53l20 159h140zM305 507l-19 -159h-140l19 159h140z"/>
<glyph glyph-name="less" d="M522 0l-480 240v120l480 210v-120l-330 -150l330 -180v-120z" unicode="&lt;"/>
<glyph glyph-name="equal" d="M542 52h-484v120h484v-120zM542 292h-484v120h484v-120z" unicode="="/>
<glyph glyph-name="greater" d="M524 240l-480 -240v120l330 180l-330 150v120l480 -210v-120z" unicode="&gt;"/>
<glyph glyph-name="question" horiz-adv-x="566" unicode="?" d="M350 159l-20 -159h-151l20 159h151zM590 611q0 -13 -1 -21l-9 -73q-10 -84 -89 -132q-15 -8 -78 -41q-46 -24 -49 -63l-1 -13h-151l6 49q9 77 73 110l91 47q43 22 46 49l6 47q1 6 1 11q0 42 -53 42h-43q-64 0 -73 -56l-3 -18h-150l5 34q11 74 61 113.5t136 39.5h115 q68 0 110 -28q50 -32 50 -97z"/>
<glyph glyph-name="at" horiz-adv-x="964" unicode="@" d="M600 356q0 35 -24 62.5t-58 27.5q-69 0 -117 -72q-41 -61 -41 -120q0 -41 16 -75q21 -43 58 -43q84 0 130 80q36 63 36 140zM942 356q0 -103 -54 -188q-70 -110 -194 -110q-83 0 -118 68q-88 -72 -148 -72q-54 0 -102 39q-62 50 -62 137q0 101 72 190q79 98 188 98 q35 0 66 -17q35 -20 44 -51l16 60h90l-84 -302q0 -34 6 -49q9 -23 38 -23q71 0 117 95q37 78 37 157q0 120 -107 206q-100 80 -223 80q-173 0 -286 -141q-98 -123 -98 -267q0 -152 127 -243q104 -75 221 -75q69 0 106 7q32 7 102 33l30 -80q-57 -24 -95 -32 q-58 -12 -155 -12q-173 0 -299 106q-133 112 -133 282q0 204 143.5 355t346.5 151q72 0 156 -34q121 -49 186.5 -143.5t65.5 -224.5z"/>
<glyph glyph-name="A" horiz-adv-x="740" unicode="A" d="M499 262l-36 331h-29l-120 -331h185zM716 0h-187l-17 131h-245l-49 -131h-187l292 727h284z"/>
<glyph glyph-name="B" horiz-adv-x="715" unicode="B" d="M514 256q0 51 -65 51h-155l-20 -161h155q72 0 80 65l4 31q1 8 1 14zM537 529v6q0 47 -62 47h-148l-18 -153h148q67 0 75 62l4 30q1 4 1 8zM719 585q0 -5 -2 -21l-6 -49q-14 -115 -128 -128l-1 -9q109 -22 109 -133q0 -13 -1 -20l-6 -44q-15 -113 -91 -152 q-55 -29 -184 -29h-327l89 727h332q99 0 144 -18q72 -29 72 -112v-12z"/>
<glyph glyph-name="C" horiz-adv-x="696" unicode="C" d="M709 548q0 -23 -5 -70l-1 -4h-174l1 3q2 18 2 26q0 46 -30 64q-23 14 -73 14q-78 0 -105 -41q-18 -27 -29 -115l-15 -124q-6 -50 -6 -73q0 -50 27 -68q21 -14 75 -14q66 0 93.5 27t35.5 94h178q-18 -142 -82 -207q-69 -69 -209 -69h-66q-122 0 -177 42q-61 48 -61 166 q0 38 6 87l19 155q19 158 82 223q69 72 222 72h54q118 0 172 -34q66 -43 66 -154z"/>
<glyph glyph-name="D" horiz-adv-x="762" unicode="D" d="M589 498q0 51 -28 69q-22 14 -78 14h-155l-53 -435h155q80 0 108 39q19 27 30 117l15 123q6 49 6 73zM770 524q0 -37 -6 -85l-19 -151q-20 -156 -82 -219q-68 -69 -221 -69h-360l89 727h360q121 0 175 -41q64 -47 64 -162z"/>
<glyph glyph-name="E" horiz-adv-x="677" unicode="E" d="M697 727l-18 -146h-351l-18 -150h341l-15 -123h-341l-20 -162h359l-18 -146h-534l89 727h526z"/>
<glyph glyph-name="F" horiz-adv-x="604" unicode="F" d="M640 727l-18 -146h-294l-20 -165h277l-18 -144h-277l-33 -272h-175l89 727h469z"/>
<glyph glyph-name="G" horiz-adv-x="742" unicode="G" d="M757 557q0 -14 -1 -21l-3 -22h-176q0 67 -104 67h-49q-81 0 -108 -38q-20 -28 -31 -118l-15 -124q-6 -50 -6 -72q0 -52 29 -70q22 -13 78 -13h54q57 0 83 14q33 19 40 70l5 39h-111l15 120h281l-15 -117q-18 -143 -83 -209q-70 -72 -210 -72h-132q-208 0 -208 234 q0 32 5 72l14 113q20 157 84 235q75 91 224 91h106q94 0 158 -42q76 -48 76 -137z"/>
<glyph glyph-name="H" horiz-adv-x="781" unicode="H" d="M795 727l-89 -727h-175l36 292h-274l-36 -292h-175l89 727h175l-34 -279h274l34 279h175z"/>
<glyph glyph-name="I" horiz-adv-x="349" unicode="I" d="M354 727l-89 -727h-177l89 727h177z"/>
<glyph glyph-name="J" horiz-adv-x="613" unicode="J" d="M626 727l-62 -508q-28 -228 -224 -228h-90q-93 0 -137 32q-51 38 -51 127q0 23 4 55l12 95h170l-9 -75q-2 -17 -2 -29q0 -50 49 -50h35q35 0 51 23q11 17 16 56l61 502h177z"/>
<glyph glyph-name="K" horiz-adv-x="705" unicode="K" d="M749 727l-276 -351l211 -376h-217l-154 298h-19l-37 -298h-175l89 727h175l-34 -280h20l209 280h208z"/>
<glyph glyph-name="L" horiz-adv-x="603" unicode="L" d="M605 153l-19 -153h-502l89 727h177l-70 -574h325z"/>
<glyph glyph-name="M" horiz-adv-x="1003" unicode="M" d="M1019 727l-89 -727h-170l66 539l-230 -539h-179l-98 545l-67 -545h-170l89 727h267l92 -533l222 533h267z"/>
<glyph glyph-name="N" horiz-adv-x="839" unicode="N" d="M853 727l-89 -727h-273l-169 549l-6 1l-68 -550h-166l89 727h274l166 -545h9l67 545h166z"/>
<glyph glyph-name="O" horiz-adv-x="744" unicode="O" d="M571 497q0 52 -28 70q-22 14 -79 14h-36q-80 0 -108 -39q-19 -27 -30 -117l-15 -124q-6 -50 -6 -73q0 -51 29 -69q22 -13 77 -13h36q81 0 108 38q20 27 31 117l15 124q6 50 6 72zM752 529q0 -39 -6 -88l-19 -155q-19 -158 -82 -223q-69 -72 -223 -72h-96q-122 0 -177 42 q-61 48 -61 166q0 38 6 87l19 155q19 158 82 223q69 72 222 72h96q122 0 176 -42q63 -48 63 -165z"/>
<glyph glyph-name="P" horiz-adv-x="709" unicode="P" d="M554 511q0 69 -88 69h-138l-29 -234h146q55 0 75.5 21t26.5 77l5 44q2 18 2 23zM735 512q-2 -9 -4 -23l-6 -50q-16 -131 -86 -187q-66 -52 -201 -52h-156l-25 -200h-175l89 727h331q113 0 166 -34q67 -42 67 -147v-34z"/>
<glyph glyph-name="Q" horiz-adv-x="751" unicode="Q" d="M571 496q0 53 -28 71q-22 14 -79 14h-36q-80 0 -108 -39q-19 -28 -30 -118l-15 -124q-6 -50 -6 -73q0 -51 28 -69q22 -14 78 -14h91l-64 63l73 75l65 -65l25 207q6 50 6 72zM752 529q0 -40 -6 -89l-19 -156q-16 -131 -66 -181l49 -51l-70 -77l-55 52q-58 -39 -172 -39 h-87q-122 0 -177 42q-61 48 -61 166q0 39 6 88l19 156q19 158 82 224q69 73 222 73h96q122 0 177 -42q62 -48 62 -166z"/>
<glyph glyph-name="R" horiz-adv-x="708" unicode="R" d="M532 517q0 39 -24 53q-18 11 -61 11h-119l-26 -215h119q54 0 76 19.5t29 73.5l4 29q0 5 1 14.5t1 14.5zM716 576q0 -17 -3 -43l-7 -61q-16 -143 -152 -160l-2 -9q116 -20 116 -131q0 -5 -1 -14t-1 -14l-18 -144h-179l15 125q0 5 1 14.5t1 14.5q0 40 -23 53q-18 11 -61 11 h-118l-27 -218h-175l89 727h283q122 0 174 -19q88 -33 88 -132z"/>
<glyph glyph-name="S" horiz-adv-x="683" unicode="S" d="M687 584q-2 -9 -2 -13l-5 -42h-167q1 6 1 18q0 50 -74 50h-45q-45 0 -64 -9q-29 -13 -34 -51l-4 -31q-1 -4 -1 -12q0 -29 28 -40q12 -4 54 -9l142 -16q157 -18 157 -145q0 -5 -1 -13.5t-1 -13.5l-9 -72q-11 -89 -71 -141.5t-150 -52.5h-159q-96 0 -145 25q-68 34 -68 119 v16q0 3 2 19l5 41h167q-1 -5 -1 -10v-8q0 -39 31 -53q20 -9 65 -9h49q45 0 66 11q27 15 32 55l4 32q1 8 1 13q0 30 -27 42q-14 6 -53 11l-156 18q-141 16 -141 146q0 17 3 40l6 46q13 101 78 152q50 39 174 39h117q196 0 196 -140v-12z"/>
<glyph glyph-name="T" horiz-adv-x="621" unicode="T" d="M677 727l-18 -146h-186l-71 -581h-177l71 581h-187l18 146h550z"/>
<glyph glyph-name="U" horiz-adv-x="764" unicode="U" d="M789 727l-54 -441q-11 -88 -22 -125q-36 -120 -148 -154q-53 -16 -132 -16h-96q-74 0 -114 11q-59 16 -92 62t-33 121q0 36 8 101l54 441h174l-52 -426q-5 -41 -5 -65q0 -55 28 -74q22 -16 81 -16h36q80 0 109 38q21 28 32 117l52 426h174z"/>
<glyph glyph-name="V" horiz-adv-x="729" unicode="V" d="M794 727l-290 -727h-279l-105 727h185l75 -576l10 1l220 575h184z"/>
<glyph glyph-name="W" horiz-adv-x="1025" unicode="W" d="M1080 727l-207 -727h-260l-37 497l-162 -497h-263l-20 727h176l-1 -563l200 563h201l54 -563l144 563h175z"/>
<glyph glyph-name="X" horiz-adv-x="725" unicode="X" d="M767 727l-208 -349l135 -378h-201l-88 301l-169 -301h-198l233 378l-118 349h196l77 -274l144 274h197z"/>
<glyph glyph-name="Y" horiz-adv-x="679" unicode="Y" d="M762 727l-300 -472l-31 -255h-175l30 255l-184 472h197l99 -301l169 301h195z"/>
<glyph glyph-name="Z" horiz-adv-x="689" unicode="Z" d="M718 727l-20 -164l-401 -410h351l-19 -153h-575l20 161l410 413h-338l19 153h553z"/>
<glyph glyph-name="bracketleft" horiz-adv-x="331" unicode="[" d="M404 730l-13 -100h-110l-89 -728h110l-13 -104h-242l115 932h242z"/>
<glyph glyph-name="backslash" horiz-adv-x="277" unicode="\" d="M298 0h-76l-226 730h76z"/>
<glyph glyph-name="bracketright" horiz-adv-x="331" unicode="]" d="M356 730l-115 -932h-242l13 104h112l89 728h-112l13 100h242z"/>
<glyph glyph-name="asciicircum" d="M520 272h-112l-118 298l-118 -298h-112l166 424h124z" unicode="^"/>
<glyph glyph-name="underscore" horiz-adv-x="495" unicode="_" d="M500 -242h-500v120h500v-120z"/>
<glyph glyph-name="grave" horiz-adv-x="492" unicode="`" d="M381 576h-47l-114 181h98z"/>
<glyph glyph-name="a" horiz-adv-x="576" unicode="a" d="M386 186q0 45 -53 45h-45q-61 0 -67 -57l-3 -28q-1 -4 -1 -12q0 -45 54 -45h45q60 0 66 57l3 28q1 4 1 12zM555 368q-2 -8 -2 -12l-44 -356h-144l9 70q-66 -77 -135 -77h-59q-112 0 -112 111q0 5 1 13.5t1 13.5l6 50q8 66 53 100q42 33 110 33h45q68 0 111 -68l17 134 q1 8 1 14q0 43 -49 43h-28q-30 0 -42 -6q-18 -8 -24 -33h-143q13 70 62 99q40 24 117 24h78q82 0 121 -23q50 -29 50 -105v-25z"/>
<glyph glyph-name="b" d="M421 342q0 33 -13.5 47t-46.5 14h-19q-47 0 -65 -33q-11 -20 -18 -76l-10 -81q-3 -24 -3 -48q0 -33 13.5 -47t46.5 -14h19q47 0 65 33q11 20 18 76l10 81q3 24 3 48zM570 365q0 -22 -4 -56l-13 -109q-25 -207 -186 -207q-110 0 -136 73l-6 -1l-7 -65h-138l89 727h143 l-33 -274l9 1q35 61 142 61q140 0 140 -150z" unicode="b"/>
<glyph glyph-name="c" horiz-adv-x="557" unicode="c" d="M554 361q0 -9 -2 -25h-144q1 5 1 16q0 62 -63 62h-22q-50 0 -68 -33q-10 -18 -18 -81l-11 -85q-5 -39 -5 -58q0 -33 14.5 -45t48.5 -12h22q42 0 62 25q15 21 21 66h144q-14 -112 -60 -155t-158 -43h-69q-88 0 -127 29q-45 34 -45 119v35q3 19 4 26l13 110q13 113 60 159 q49 50 160 50h69q78 0 125.5 -41.5t47.5 -118.5z"/>
<glyph glyph-name="d" d="M399 343q0 33 -13.5 46.5t-46.5 13.5h-19q-47 0 -65 -33q-11 -20 -18 -76l-10 -81q-3 -24 -3 -48q0 -33 13.5 -47t46.5 -14h19q46 0 64 33q11 20 18 76l10 81q4 32 4 49zM592 727l-89 -727h-139l10 65l-9 -1q-44 -71 -151 -71q-139 0 -139 148v24q0 1 4 35l13 109 q25 206 186 206q110 0 132 -61l5 -1l33 274h144z" unicode="d"/>
<glyph glyph-name="e" horiz-adv-x="559" unicode="e" d="M415 376q0 34 -16 46.5t-51 12.5h-21q-46 0 -66 -24q-15 -20 -21 -70l-4 -34h173l3 29q3 29 3 40zM553 345q-2 -13 -4 -33l-9 -74h-313l-9 -75q-1 -8 -1 -22q0 -54 67 -54h21q36 0 53 11.5t27 44.5h141q-20 -83 -73 -118q-49 -32 -137 -32h-69q-88 0 -127 29 q-45 34 -45 119v35q3 19 4 26l13 110q13 113 60 159q49 50 160 50h69q88 0 127 -29q45 -34 45 -119v-28z"/>
<glyph glyph-name="f" horiz-adv-x="356" unicode="f" d="M431 727l-12 -103h-28q-79 0 -86 -55l-8 -61h107l-13 -108h-107l-49 -400h-146l49 400h-56l13 108h57q0 11 5 50q11 84 45 123q39 46 119 46h110z"/>
<glyph glyph-name="g" horiz-adv-x="575" unicode="g" d="M409 347q0 63 -63 63h-20q-48 0 -68 -33q-11 -21 -18 -77l-10 -81q-3 -24 -3 -47q0 -34 14.5 -48t48.5 -14h20q48 0 67 32q12 21 19 77l10 81q3 24 3 47zM568 514l-59 -484q-8 -66 -20 -103q-26 -81 -112 -110q-40 -13 -84 -13h-56q-167 0 -167 108q0 11 1 18l3 20h137 q0 -47 53 -47h24q46 0 63 29q11 18 18 72l10 77l-9 -2q-35 -60 -155 -60q-135 0 -135 139q0 27 3 51l13 106q12 98 49 147q45 60 136 60q106 0 128 -65l9 2l7 55h143z"/>
<glyph glyph-name="h" horiz-adv-x="591" unicode="h" d="M570 366q-2 -13 -4 -33l-41 -333h-143l36 296q3 25 3 46q0 37 -19 48q-14 8 -54 8q-50 0 -70 -32q-13 -21 -20 -80l-35 -286h-143l89 727h143l-35 -284l11 1q28 71 147 71q71 0 101 -24q34 -27 34 -95v-30z"/>
<glyph glyph-name="i" horiz-adv-x="298" unicode="i" d="M285 508l-62 -508h-146l62 508h146zM312 727l-13 -111h-146l13 111h146z"/>
<glyph glyph-name="j" horiz-adv-x="303" unicode="j" d="M291 510l-58 -467q-12 -96 -40 -137q-38 -54 -125 -54h-51l12 102q33 0 45 22q6 12 9 34l62 500h146zM317 728l-13 -111h-146l13 111h146z"/>
<glyph glyph-name="k" horiz-adv-x="556" unicode="k" d="M565 508l-163 -242l129 -266h-168l-96 212h-18l-26 -212h-143l89 727h143l-51 -417h18l124 198h162z"/>
<glyph glyph-name="l" horiz-adv-x="298" unicode="l" d="M317 727l-89 -727h-146l89 727h146z"/>
<glyph glyph-name="m" horiz-adv-x="840" unicode="m" d="M822 404q0 -26 -5 -67l-41 -337h-141l37 300q4 32 4 48q0 34 -14 44.5t-49 10.5q-44 0 -63 -37q-10 -21 -17 -77l-35 -289h-140l37 300q4 32 4 48q0 34 -14 44.5t-49 10.5q-44 0 -63 -37q-10 -21 -17 -77l-35 -289h-141l63 514h136l-7 -68l7 1q41 74 146 74q57 0 82 -24 q22 -20 35 -79q52 103 160 103q65 0 92.5 -26t27.5 -91z"/>
<glyph glyph-name="n" horiz-adv-x="591" unicode="n" d="M571 402q0 -24 -5 -65l-41 -337h-143l37 300q3 24 3 45q0 37 -19 49q-14 9 -55 9q-51 0 -70 -33q-13 -21 -20 -81l-35 -289h-143l63 514h138l-8 -67h9q44 74 154 74q71 0 101 -24q34 -27 34 -95z"/>
<glyph glyph-name="o" horiz-adv-x="560" unicode="o" d="M406 358q0 33 -14 44.5t-48 11.5h-20q-50 0 -68 -33q-10 -18 -18 -81l-11 -85q-5 -39 -5 -58q0 -33 14.5 -45t48.5 -12h20q51 0 68 34q9 16 17 81l11 85q5 39 5 58zM553 345q-1 -6 -4 -33l-13 -110q-13 -113 -60 -159q-49 -50 -160 -50h-69q-88 0 -127 29q-45 34 -45 119 v35q3 19 4 26l13 110q13 113 60 159q49 50 160 50h69q88 0 127 -29q45 -34 45 -119v-28z"/>
<glyph glyph-name="p" d="M422 350q0 33 -13.5 47t-46.5 14h-19q-49 0 -65 -33q-12 -25 -18 -76l-10 -82q-3 -25 -3 -48q0 -33 13.5 -47t46.5 -14h19q47 0 65 33q11 20 18 76l10 82q3 25 3 48zM571 345q-1 -7 -4 -30l-14 -109q-13 -98 -50 -147q-45 -60 -136 -60q-107 0 -128 62h-9l-31 -257h-143 l87 710h138l-8 -66h9q46 74 150 74q139 0 139 -150v-27z" unicode="p"/>
<glyph glyph-name="q" d="M400 351q0 33 -13.5 46.5t-46.5 13.5h-19q-49 0 -65 -33q-12 -25 -18 -76l-10 -82q-3 -25 -3 -48q0 -33 13.5 -47t46.5 -14h19q47 0 65 34q10 20 17 75l10 82q4 33 4 49zM566 514l-87 -710h-144l31 257l-9 -2q-35 -60 -142 -60q-140 0 -140 151q0 25 4 56l14 109 q13 98 50 147q45 60 136 60q103 0 131 -74h9l8 66h139z" unicode="q"/>
<glyph glyph-name="r" horiz-adv-x="498" unicode="r" d="M525 408q0 -25 -5 -71l-4 -37h-133l3 24q2 16 2 25q0 30 -12 42t-42 12q-43 0 -60 -38q-9 -20 -16 -76l-35 -289h-143l63 514h138l-8 -65l7 1q40 71 135 71q61 0 85.5 -26t24.5 -87z"/>
<glyph glyph-name="s" horiz-adv-x="562" unicode="s" d="M552 414q0 -14 -1 -22l-143 -1q0 44 -66 44h-21q-71 0 -77 -47q-3 -18 -3 -22v-6q0 -37 51 -42l115 -11q135 -13 135 -102q0 -10 -1 -18l-6 -45q-10 -74 -64 -113q-50 -36 -128 -36h-109q-170 0 -170 118v12q1 5 2 9h150q0 -52 70 -52h22q41 0 60.5 12.5t24.5 50.5 q1 8 1 15q0 29 -23 39q-12 6 -49 10l-103 11q-123 13 -123 112q0 8 1 15l6 43q19 133 198 133h101q150 0 150 -107zM66 132v4l-1 -4h1z"/>
<glyph glyph-name="t" horiz-adv-x="505" unicode="t" d="M509 511l-13 -103h-218l-28 -227q-3 -24 -3 -39q0 -29 14 -38q11 -8 42 -8q38 0 51 14.5t18 53.5l4 34h116l-6 -50q-19 -155 -167 -155h-87q-132 0 -132 110q0 23 4 52l4 29l27 224h-59l13 103h59l12 102h143l-12 -102h218z"/>
<glyph glyph-name="u" horiz-adv-x="595" unicode="u" d="M588 514l-63 -514h-138l8 66l-9 -1q-45 -72 -154 -72q-70 0 -101 24q-34 26 -34 94q0 24 5 65l41 338h143l-37 -299q-3 -24 -3 -45q0 -38 19 -50q13 -8 55 -8q50 0 70 32q13 22 20 80l35 290h143z"/>
<glyph glyph-name="v" horiz-adv-x="543" unicode="v" d="M589 514l-208 -514h-227l-75 514h154l48 -396l154 396h154z"/>
<glyph glyph-name="w" horiz-adv-x="786" unicode="w" d="M823 514l-145 -514h-206l-30 362l-117 -362h-210l-18 514h143l7 -391l126 391h177l30 -389l101 389h142z"/>
<glyph glyph-name="x" horiz-adv-x="560" unicode="x" d="M578 514l-152 -246l106 -268h-162l-58 215l-115 -215h-159l174 270l-92 244h160l45 -199l98 199h155z"/>
<glyph glyph-name="y" horiz-adv-x="538" unicode="y" d="M573 510l-259 -580q-33 -74 -60 -96q-38 -31 -112 -31q-29 0 -79 5l12 98h26q25 0 51 15t33 38l16 52l-125 499h148l67 -361l129 361h153z"/>
<glyph glyph-name="z" horiz-adv-x="533" unicode="z" d="M539 514l-16 -129l-287 -276h260l-13 -109h-427l16 129l292 279h-243l13 106h405z"/>
<glyph glyph-name="braceleft" horiz-adv-x="386" unicode="{" d="M316 -202h-86q-35 0 -69 32q-43 41 -43 104v230q0 58 -82 58v94q82 0 82 48v228q0 50 30 92q34 46 82 46h86v-98h-38q-30 0 -40 -17q-6 -10 -6 -37v-212q0 -85 -96 -98q96 -12 96 -106v-214q0 -27 5 -36q9 -16 41 -16h38v-98z"/>
<glyph glyph-name="bar" horiz-adv-x="316" unicode="|" d="M208 -202h-80v932h80v-932z"/>
<glyph glyph-name="braceright" horiz-adv-x="386" unicode="}" d="M354 222q-82 0 -82 -58v-230q0 -49 -31 -91q-33 -45 -81 -45h-86v98h38q28 0 37 12t9 40v214q0 94 96 106q-96 13 -96 98v212q0 28 -5 37q-9 17 -41 17h-38v98h86q35 0 69 -33q43 -41 43 -105v-228q0 -48 82 -48v-94z"/>
<glyph glyph-name="asciitilde" d="M520 350q0 -55 -30 -98q-33 -48 -86 -48q-30 0 -116.5 48t-103.5 48q-26 0 -40 -19.5t-14 -46.5h-70q22 148 124 148q37 0 115 -48t97 -48q46 0 46 64h78z" unicode="~"/>
<glyph glyph-name="nonbreakingspace" horiz-adv-x="347" unicode=" " d="M306 300q0 -51 -36.5 -87.5t-87.5 -36.5q-53 0 -89.5 35.5t-36.5 88.5t36.5 89.5t89.5 36.5q52 0 88 -37t36 -89z"/>
<glyph glyph-name="exclamdown" horiz-adv-x="344" unicode="¡" d="M296 429l-53 -429h-140l53 429h140zM332 727l-19 -158h-140l19 158h140z"/>
<glyph glyph-name="cent" horiz-adv-x="557" unicode="¢" d="M305 413q-39 -5 -53 -41q-7 -16 -14 -72l-11 -85q-4 -31 -4 -57q0 -52 43 -57zM554 361q0 -9 -2 -25h-144q1 6 1 17q0 49 -44 59l-39 -311q54 11 64 90h144q-14 -112 -60 -155t-158 -43l-17 -119h-60l14 119h-6q-88 0 -127 29q-45 34 -45 119v35q3 19 4 26l13 110 q13 113 60 159q49 50 160 50h6l14 115h60l-14 -115q79 0 126 -40q50 -43 50 -120z"/>
<glyph glyph-name="sterling" horiz-adv-x="689" unicode="£" d="M711 594q0 -12 -1 -21l-5 -44h-155l2 16q1 6 1 11q0 22 -15.5 36.5t-45.5 14.5h-34q-68 0 -76 -64l-17 -135h187l-14 -113h-187q-7 -58 -29 -88.5t-76 -61.5h427l-18 -145h-568l18 145q65 7 73 73l9 77h-82l14 113h82l15 124q12 98 76 151t164 53h52q83 0 136 -29 q67 -37 67 -113z"/>
<glyph glyph-name="currency" horiz-adv-x="683" unicode="¤" d="M722 512h-168q0 43 -23.5 60.5t-71.5 17.5q-70 0 -91.5 -28t-31.5 -97h211l-33 -74h-187l-7 -56h169l-33 -74h-144q-3 -26 -3 -42q0 -49 22 -66q19 -16 73 -16q64 0 90 25q16 15 27 68h171q-21 -125 -74 -176q-65 -63 -204 -63h-52q-112 0 -166.5 47.5t-54.5 160.5 q0 28 3 62h-106l33 74h82l7 56h-98l33 74h74q22 144 84 205q67 66 200 66h40q121 0 176 -42q54 -42 54 -152q0 -14 -1 -30z"/>
<glyph glyph-name="yen" horiz-adv-x="550" unicode="¥" d="M639 706l-248 -354h148l-7 -60h-154l-7 -52h154l-7 -60h-154l-22 -180h-118l22 180h-154l7 60h154l7 52h-154l7 60h148l-168 354h126l118 -256l178 256h124z"/>
<glyph glyph-name="brokenbar" horiz-adv-x="316" unicode="¦" d="M208 -202h-80v416l80 -54v-362zM208 350l-80 54v326h80v-380z"/>
<glyph glyph-name="section" horiz-adv-x="550" unicode="§" d="M394 252q0 41 -43 62q-33 16 -79 16q-86 0 -86 -64q0 -78 122 -78q86 0 86 64zM538 276q0 -92 -62 -144q36 -33 36 -88q0 -111 -91 -157q-57 -29 -135 -29q-95 0 -158 45q-72 50 -72 141h134q0 -80 104 -80q82 0 82 58q0 32 -86 52q-128 30 -161 46q-87 41 -87 122 q0 94 62 142q-36 32 -36 90q0 95 69 143q59 41 157 41q94 0 158 -44q72 -50 72 -140h-134q0 40 -33 61q-28 17 -71 17q-82 0 -82 -56q0 -32 86 -52q128 -30 161 -46q87 -41 87 -122z"/>
<glyph glyph-name="dieresis" horiz-adv-x="492" unicode="¨" d="M297 725l-15 -120h-90l15 120h90zM467 725l-15 -120h-90l15 120h90z"/>
<glyph glyph-name="copyright" horiz-adv-x="730" unicode="©" d="M570 294q-7 -67 -58 -107.5t-120 -40.5q-95 0 -153.5 62t-58.5 158q0 98 56.5 159t153.5 61q70 0 119 -38t61 -106h-86q-6 36 -32.5 56t-63.5 20q-60 0 -93 -46q-29 -41 -29 -104q0 -60 33 -104q36 -50 93 -50q36 0 62.5 22.5t29.5 57.5h86zM686 364q0 129 -90.5 219.5 t-219.5 90.5q-130 0 -221 -90t-91 -220q0 -131 90.5 -221.5t221.5 -90.5q130 0 220 91t90 221zM758 364q0 -159 -111.5 -271.5t-270.5 -112.5q-160 0 -272 112t-112 272t112 271t272 111q159 0 270.5 -111.5t111.5 -270.5z"/>
<glyph glyph-name="ordfeminine" horiz-adv-x="432" unicode="ª" d="M275 468v20q0 43 -47 43h-33q-48 0 -48 -43v-20q0 -44 48 -44h33q47 0 47 44zM379 368h-103v53q-45 -59 -96 -59h-45q-92 0 -92 95v36q0 91 107 91h33q52 0 93 -56v106q0 44 -44 44h-21q-43 0 -47 -27h-103q0 81 120 81h59q71 0 102 -22q37 -26 37 -93v-249z"/>
<glyph glyph-name="guillemotleft" horiz-adv-x="550" unicode="«" d="M323 482l-14 -114l-111 -90l89 -88l-14 -118l-148 148l14 116zM537 484l-14 -114l-111 -90l90 -88l-15 -118l-148 148l14 116z"/>
<glyph glyph-name="logicalnot" d="M546 122h-114v176h-390v114h504v-290z" unicode="¬"/>
<glyph glyph-name="minus" d="M536 172h-484v120h484v-120z" unicode="­"/>
<glyph glyph-name="minus" d="M536 172h-484v120h484v-120z" unicode="−"/>
<glyph glyph-name="registered" horiz-adv-x="730" unicode="®" d="M498 454q0 35 -35 47q-20 7 -65 7h-100v-116h122q39 0 56 11q22 14 22 51zM578 442q0 -112 -112 -112l100 -174h-94l-92 174h-82v-174h-80v412h200q75 0 112 -20q48 -33 48 -106zM686 364q0 130 -90 220t-220 90q-131 0 -221.5 -89.5t-90.5 -220.5q0 -132 90 -222 t222 -90q131 0 220.5 90.5t89.5 221.5zM758 364q0 -159 -111.5 -271.5t-270.5 -112.5q-160 0 -272 112t-112 272t112 271t272 111q159 0 270.5 -111.5t111.5 -270.5z"/>
<glyph glyph-name="degree" horiz-adv-x="397" unicode="°" d="M294 576q0 37 -26.5 63.5t-63.5 26.5t-63.5 -26.5t-26.5 -63.5q0 -38 26 -64t64 -26t64 26t26 64zM354 576q0 -62 -44 -106t-106 -44q-63 0 -106.5 43.5t-43.5 106.5q0 62 44 106t106 44t106 -44t44 -106z"/>
<glyph glyph-name="plusminus" d="M532 -130h-484v120h484v-120zM532 292h-182v-182h-120v182h-182v120h182v182h120v-182h182v-120z" unicode="±"/>
<glyph glyph-name="twosuperior" horiz-adv-x="454" unicode="²" d="M488 633q0 -11 -1 -19l-5 -40q-13 -105 -98 -127l-141 -37q-32 -9 -37 -38l-4 -26h249l-11 -96h-361l13 111q12 99 88 122l146 44q45 13 48 48l2 20q1 5 1 15q0 40 -56 40h-21q-34 0 -49 -11.5t-20 -43.5l-3 -21h-105l5 37q17 125 158 125h70q132 0 132 -103z"/>
<glyph glyph-name="threesuperior" horiz-adv-x="454" unicode="³" d="M481 635q0 -9 -1 -17l-4 -31q-9 -66 -77 -81l-2 -14q64 -17 64 -76q0 -11 -1 -18l-5 -36q-16 -118 -162 -118h-73q-133 0 -133 104q0 8 1 17l4 37h108l-2 -16q-1 -8 -1 -11q0 -44 58 -44h23q63 0 69 52l2 17q1 4 1 12q0 41 -57 41h-33l10 85h32q56 0 64 51l2 13q1 6 1 11 q0 38 -53 38h-20q-59 0 -65 -56l-1 -10h-107l3 27q14 124 165 124h52q138 0 138 -101z"/>
<glyph glyph-name="acute" horiz-adv-x="492" unicode="´" d="M462 757l-158 -181h-47l107 181h98z"/>
<glyph glyph-name="mu" horiz-adv-x="592" unicode="µ" d="M609 542l-67 -542h-140l8 68q-57 -77 -145 -92q-31 0 -69 6l-25 -202h-140l94 762h140l-42 -336q-4 -18 -4 -38q0 -66 94 -66q93 8 113 90l43 350h140z"/>
<glyph glyph-name="mu" horiz-adv-x="592" unicode="μ" d="M609 542l-67 -542h-140l8 68q-57 -77 -145 -92q-31 0 -69 6l-25 -202h-140l94 762h140l-42 -336q-4 -18 -4 -38q0 -66 94 -66q93 8 113 90l43 350h140z"/>
<glyph glyph-name="paragraph" horiz-adv-x="550" unicode="¶" d="M534 658h-76v-878h-72v878h-84v-878h-72v486q-185 17 -204 214q-1 10 -1 21q0 82 53 153q58 76 138 76h318v-72z"/>
<glyph glyph-name="cedilla" horiz-adv-x="492" unicode="¸" d="M370 -126q-2 -9 -2 -13q-7 -60 -40 -80q-26 -16 -91 -16h-104l6 47h107q51 0 56 38q2 16 2 24q0 35 -42 35h-60l11 91h50l-6 -52h58q55 0 55 -62v-12z"/>
<glyph glyph-name="onesuperior" horiz-adv-x="454" unicode="¹" d="M443 730l-59 -480h-107l46 376l-133 -109l-55 73l176 140h132z"/>
<glyph glyph-name="ordmasculine" horiz-adv-x="420" unicode="º" d="M275 517v61q0 53 -8 66q-11 18 -48 18h-15q-39 0 -50 -24q-6 -14 -6 -60v-61q0 -47 6 -61q11 -24 50 -24h15q39 0 50 24q6 14 6 61zM380 508q0 -80 -31.5 -113t-111.5 -33h-51q-80 0 -111.5 33t-31.5 113v78q0 80 31.5 113t111.5 33h51q80 0 111.5 -33t31.5 -113v-78z "/>
<glyph glyph-name="guillemotright" horiz-adv-x="550" unicode="»" d="M305 336l-14 -116l-184 -148l14 118l111 88l-89 90l14 114zM513 336l-14 -116l-184 -148l14 118l111 88l-89 90l14 114z"/>
<glyph glyph-name="onequarter" horiz-adv-x="1124" unicode="¼" d="M969 405l-182 -225h154zM443 730l-59 -480h-107l46 376l-133 -109l-55 73l176 140h132zM912 730l-516 -730h-80l508 730h88zM1105 180l-10 -86h-57l-12 -94h-107l12 94h-241l14 121l218 265h163l-37 -300h57z"/>
<glyph glyph-name="onehalf" horiz-adv-x="1139" unicode="½" d="M443 730l-59 -480h-107l46 376l-133 -109l-55 73l176 140h132zM912 730l-516 -730h-80l508 730h88zM1138 381q0 -9 -1 -17l-5 -40q-13 -104 -99 -127l-140 -37q-35 -9 -38 -38l-3 -26h249l-12 -96h-361l14 111q12 99 88 122l145 44q45 14 48 48l2 20q1 5 1 15 q0 40 -56 40h-21q-64 0 -69 -55l-2 -21h-105l4 37q14 125 159 125h70q132 0 132 -105z"/>
<glyph glyph-name="threequarters" horiz-adv-x="1124" unicode="¾" d="M969 405l-182 -225h154zM481 635q0 -9 -1 -17l-4 -31q-9 -66 -77 -81l-2 -14q64 -17 64 -76q0 -11 -1 -18l-5 -36q-16 -118 -162 -118h-73q-133 0 -133 104q0 8 1 17l4 37h108l-2 -16q-1 -8 -1 -11q0 -44 58 -44h23q63 0 69 52l2 17q1 4 1 12q0 41 -57 41h-33l10 85h32 q56 0 64 51l2 13q1 6 1 11q0 38 -53 38h-20q-59 0 -65 -56l-1 -10h-107l3 27q14 124 165 124h52q138 0 138 -101zM912 730l-516 -730h-80l508 730h88zM1105 180l-10 -86h-57l-12 -94h-107l12 94h-241l14 121l218 265h163l-37 -300h57z"/>
<glyph glyph-name="questiondown" horiz-adv-x="566" unicode="¿" d="M539 180l-4 -34q-9 -76 -66 -116q-52 -37 -131 -37h-116q-68 0 -110 28q-50 32 -50 97q0 13 1 21l9 73q5 45 33 82q22 30 57 50q29 16 78 42q42 22 48 63l2 13h152l-6 -50q-9 -77 -74 -110l-91 -46q-44 -22 -47 -50l-5 -46q-1 -4 -1 -12q0 -42 53 -42h43q66 0 73 57l2 17 h150zM475 729l-20 -158h-152l20 158h152z"/>
<glyph glyph-name="Agrave" horiz-adv-x="740" unicode="À" d="M499 261l-37 327h-29l-119 -327h185zM716 0h-187l-17 130h-245l-49 -130h-187l292 722h284zM534 805h-47l-116 164h98z"/>
<glyph glyph-name="Aacute" horiz-adv-x="740" unicode="Á" d="M499 261l-37 327h-29l-119 -327h185zM716 0h-187l-17 130h-245l-49 -130h-187l292 722h284zM613 969l-156 -164h-47l105 164h98z"/>
<glyph glyph-name="Acircumflex" horiz-adv-x="740" unicode="Â" d="M499 261l-37 327h-29l-119 -327h185zM716 0h-187l-17 130h-245l-49 -130h-187l292 722h284zM609 805h-47l-75 114l-106 -114h-46l105 164h104z"/>
<glyph glyph-name="Atilde" horiz-adv-x="740" unicode="Ã" d="M499 261l-37 328h-29l-119 -328h185zM716 0h-187l-17 130h-245l-49 -130h-187l292 722h284zM631 945q-35 -101 -101 -101q-13 0 -33 6l-41 12q-24 7 -34 7q-35 0 -56 -40h-33q33 97 99 97q18 0 38 -6l43 -13q13 -4 30 -4q35 0 55 42h33z"/>
<glyph glyph-name="Adieresis" horiz-adv-x="740" unicode="Ä" d="M499 261l-37 328h-29l-119 -328h185zM716 0h-187l-17 130h-245l-49 -130h-187l292 723h284zM448 937l-12 -102h-90l12 102h90zM618 937l-12 -102h-90l12 102h90z"/>
<glyph glyph-name="Aring" horiz-adv-x="740" unicode="Å" d="M499 261l-37 327h-29l-119 -327h185zM548 841q1 5 1 10q0 23 -16.5 42t-45.5 19t-53.5 -18.5t-24.5 -47.5q0 -76 61 -76q31 0 52.5 20t25.5 51zM716 0h-187l-17 130h-245l-49 -130h-187l292 722h98q-64 51 -64 105q0 6 1 14q6 51 45 86.5t90 35.5q46 0 76 -30.5t30 -76.5 q0 -7 -1 -15q-9 -66 -93 -119h102z"/>
<glyph glyph-name="AE" horiz-adv-x="971" unicode="Æ" d="M528 605h-63l-154 -325h177zM989 727l-16 -136h-279l-20 -159h271l-15 -119h-271l-21 -175h286l-17 -138h-453l20 159h-220l-74 -159h-186l372 727h623z"/>
<glyph glyph-name="Ccedilla" horiz-adv-x="696" unicode="Ç" d="M709 548q0 -23 -5 -70l-1 -4h-174l1 3q2 18 2 26q0 46 -30 64q-23 14 -73 14q-78 0 -105 -41q-18 -27 -29 -115l-15 -124q-6 -50 -6 -73q0 -50 27 -68q21 -14 75 -14q66 0 92.5 24t35.5 90l1 7h178l-2 -11q-27 -150 -85 -203q-68 -62 -204 -62h-30l-5 -36h58q56 0 56 -54 v-9l-2 -24q-5 -56 -33.5 -76t-97.5 -20h-104l6 47h107q28 0 40.5 11t16.5 39q1 4 1 12q0 35 -42 35h-60l9 75q-116 0 -168 45q-56 48 -56 161q0 40 6 89l19 155q19 158 82 223q69 72 222 72h54q118 0 172 -34q66 -43 66 -154z"/>
<glyph glyph-name="Egrave" horiz-adv-x="677" unicode="È" d="M697 722l-18 -145h-351l-18 -149h341l-15 -122h-341l-20 -161h359l-18 -145h-534l89 722h526zM510 805h-47l-116 164h98z"/>
<glyph glyph-name="Eacute" horiz-adv-x="677" unicode="É" d="M697 722l-18 -145h-351l-18 -149h341l-15 -122h-341l-20 -161h359l-18 -145h-534l89 722h526zM589 969l-156 -164h-47l105 164h98z"/>
<glyph glyph-name="Ecircumflex" horiz-adv-x="677" unicode="Ê" d="M697 722l-18 -145h-351l-18 -149h341l-15 -122h-341l-20 -161h359l-18 -145h-534l89 722h526zM585 805h-47l-75 114l-106 -114h-46l105 164h104z"/>
<glyph glyph-name="Edieresis" horiz-adv-x="677" unicode="Ë" d="M697 723l-18 -145h-351l-18 -150h341l-15 -122h-341l-20 -161h359l-18 -145h-534l89 723h526zM424 937l-12 -102h-90l12 102h90zM594 937l-12 -102h-90l12 102h90z"/>
<glyph glyph-name="Igrave" horiz-adv-x="349" unicode="Ì" d="M354 722l-89 -722h-177l89 722h177zM337 805h-47l-116 164h98z"/>
<glyph glyph-name="Iacute" horiz-adv-x="349" unicode="Í" d="M354 722l-89 -722h-177l89 722h177zM416 969l-156 -164h-47l105 164h98z"/>
<glyph glyph-name="Icircumflex" horiz-adv-x="349" unicode="Î" d="M354 722l-89 -722h-177l89 722h177zM412 805h-47l-75 114l-106 -114h-46l105 164h104z"/>
<glyph glyph-name="Idieresis" horiz-adv-x="349" unicode="Ï" d="M354 723l-89 -723h-177l89 723h177zM251 937l-12 -102h-90l12 102h90zM421 937l-12 -102h-90l12 102h90z"/>
<glyph glyph-name="Eth" horiz-adv-x="762" unicode="Ð" d="M589 498q0 51 -28 69q-22 14 -78 14h-155l-9 -78l67 23l27 -113l-110 -38l-28 -229h155q80 0 108 39q19 27 30 117l15 123q6 49 6 73zM770 524q0 -37 -6 -85l-19 -151q-20 -156 -82 -219q-68 -69 -221 -69h-360l38 311l-55 -19l-27 113l98 34l35 288h360q121 0 175 -41 q64 -47 64 -162z"/>
<glyph glyph-name="Ntilde" horiz-adv-x="839" unicode="Ñ" d="M853 722l-89 -722h-273l-156 551l-20 -4l-67 -547h-166l89 722h274l156 -545l19 4l67 541h166zM681 945q-35 -101 -101 -101q-13 0 -33 6l-41 12q-24 7 -34 7q-35 0 -56 -40h-33q33 97 99 97q18 0 38 -6l43 -13q13 -4 30 -4q35 0 55 42h33z"/>
<glyph glyph-name="Ograve" horiz-adv-x="744" unicode="Ò" d="M571 493q0 52 -28 70q-22 14 -79 14h-36q-80 0 -108 -38q-19 -27 -30 -117l-15 -123q-6 -49 -6 -72q0 -51 29 -69q22 -13 77 -13h36q80 0 108 38q20 27 31 116l15 123q6 49 6 71zM752 524q0 -37 -6 -86l-19 -154q-19 -157 -83 -222q-69 -71 -222 -71h-96q-122 0 -176 42 q-62 48 -62 165q0 37 6 86l19 154q19 157 82 222q68 71 222 71h96q123 0 177 -42q62 -47 62 -165zM537 805h-47l-116 164h98z"/>
<glyph glyph-name="Oacute" horiz-adv-x="744" unicode="Ó" d="M571 493q0 52 -28 70q-22 14 -79 14h-36q-80 0 -108 -38q-19 -27 -30 -117l-15 -123q-6 -49 -6 -72q0 -51 29 -69q22 -13 77 -13h36q80 0 108 38q20 27 31 116l15 123q6 49 6 71zM752 524q0 -37 -6 -86l-19 -154q-19 -157 -83 -222q-69 -71 -222 -71h-96q-122 0 -176 42 q-62 48 -62 165q0 37 6 86l19 154q19 157 82 222q68 71 222 71h96q123 0 177 -42q62 -47 62 -165zM616 969l-156 -164h-47l105 164h98z"/>
<glyph glyph-name="Ocircumflex" horiz-adv-x="744" unicode="Ô" d="M571 493q0 52 -28 70q-22 14 -79 14h-36q-80 0 -108 -38q-19 -27 -30 -117l-15 -123q-6 -49 -6 -72q0 -51 29 -69q22 -13 77 -13h36q80 0 108 38q20 27 31 116l15 123q6 49 6 71zM752 524q0 -37 -6 -86l-19 -154q-19 -157 -83 -222q-69 -71 -222 -71h-96q-122 0 -176 42 q-62 48 -62 165q0 37 6 86l19 154q19 157 82 222q68 71 222 71h96q123 0 177 -42q62 -47 62 -165zM612 805h-47l-75 114l-106 -114h-46l105 164h104z"/>
<glyph glyph-name="Otilde" horiz-adv-x="744" unicode="Õ" d="M571 494q0 52 -29 70q-22 13 -78 13h-36q-80 0 -108 -38q-19 -27 -30 -117l-15 -123q-6 -49 -6 -72q0 -51 29 -69q22 -13 77 -13h36q80 0 108 38q20 27 31 116l15 123q6 49 6 72zM752 524q0 -37 -6 -86l-19 -154q-19 -157 -83 -222q-69 -71 -222 -71h-96q-122 0 -176 42 q-62 48 -62 165q0 37 6 86l19 154q19 157 82 222q69 72 222 72h96q123 0 177 -42q62 -48 62 -166zM634 945q-35 -101 -101 -101q-13 0 -33 6l-41 12q-20 6 -34 6q-36 0 -56 -39h-33q33 97 99 97q24 0 38 -7l43 -12q10 -4 30 -4q35 0 55 42h33z"/>
<glyph glyph-name="Odieresis" horiz-adv-x="744" unicode="Ö" d="M571 494q0 52 -29 70q-22 13 -78 13h-36q-80 0 -108 -38q-19 -27 -30 -117l-15 -122q-6 -49 -6 -73q0 -51 29 -69q22 -13 77 -13h36q81 0 108 38q20 27 31 117l15 122q6 49 6 72zM752 524q0 -37 -6 -86l-19 -154q-19 -157 -83 -222q-69 -71 -222 -71h-96q-122 0 -176 42 q-62 48 -62 165q0 37 6 86l19 154q19 157 82 222q69 72 222 72h96q123 0 177 -42q62 -48 62 -166zM451 937l-12 -102h-90l12 102h90zM621 937l-12 -102h-90l12 102h90z"/>
<glyph glyph-name="multiply" d="M535 82l-85 -85l-150 150l-150 -150l-85 85l150 150l-150 150l85 85l150 -150l150 150l85 -85l-150 -150z" unicode="×"/>
<glyph glyph-name="Oslash" horiz-adv-x="744" unicode="Ø" d="M571 497l-268 -341q23 -10 72 -10h36q81 0 108 38q20 27 31 117l15 124q6 50 6 72zM541 568q-23 13 -77 13h-36q-80 0 -108 -39q-19 -27 -30 -117l-15 -124q-6 -50 -6 -82zM827 822l-116 -147q41 -48 41 -146q0 -39 -6 -88l-19 -155q-19 -158 -82 -223q-69 -72 -223 -72 h-96q-87 0 -138 20l-103 -131h-80l130 166q-47 47 -47 151q0 40 6 89l19 155q19 158 82 223q69 72 222 72h96q89 0 142 -22l84 108h88z"/>
<glyph glyph-name="Ugrave" horiz-adv-x="764" unicode="Ù" d="M789 722l-54 -438q-11 -87 -22 -124q-36 -119 -148 -153q-53 -16 -132 -16h-96q-74 0 -114 11q-59 16 -92 62t-33 120q0 35 8 100l54 438h174l-56 -461q-1 -7 -1 -26q0 -55 28 -74q22 -16 81 -16h36q80 0 109 38q21 28 32 116l52 423h174zM547 805h-47l-116 164h98z"/>
<glyph glyph-name="Uacute" horiz-adv-x="764" unicode="Ú" d="M789 722l-54 -438q-11 -87 -22 -124q-36 -119 -148 -153q-53 -16 -132 -16h-96q-74 0 -114 11q-59 16 -92 62t-33 120q0 35 8 100l54 438h174l-56 -461q-1 -7 -1 -26q0 -55 28 -74q22 -16 81 -16h36q80 0 109 38q21 28 32 116l52 423h174zM626 969l-156 -164h-47l105 164 h98z"/>
<glyph glyph-name="Ucircumflex" horiz-adv-x="764" unicode="Û" d="M789 722l-54 -438q-11 -87 -22 -124q-36 -119 -148 -153q-53 -16 -132 -16h-96q-74 0 -114 11q-59 16 -92 62t-33 120q0 35 8 100l54 438h174l-56 -461q-1 -7 -1 -26q0 -55 28 -74q22 -16 81 -16h36q80 0 109 38q21 28 32 116l52 423h174zM622 805h-47l-75 114l-106 -114 h-46l105 164h104z"/>
<glyph glyph-name="Udieresis" horiz-adv-x="764" unicode="Ü" d="M789 722l-54 -438q-11 -87 -22 -124q-36 -119 -148 -153q-53 -16 -132 -16h-96q-74 0 -114 11q-59 16 -92 62t-33 120q0 35 8 100l54 438h174l-52 -422q-5 -41 -5 -65q0 -55 28 -74q22 -16 81 -16h36q80 0 109 38q21 28 32 117l52 422h174zM461 937l-12 -102h-90l12 102 h90zM631 937l-12 -102h-90l12 102h90z"/>
<glyph glyph-name="ch7" horiz-adv-x="679" unicode="Ý" d="M762 722l-300 -469l-31 -253h-175l30 253l-184 469h197l99 -299l169 299h195zM583 969l-156 -164h-47l105 164h98z"/>
<glyph glyph-name="Thorn" horiz-adv-x="709" unicode="Þ" d="M543 421q0 69 -88 69h-138l-29 -234h146q56 0 76 21q17 19 25 77l6 44q2 15 2 23zM724 422q-2 -9 -4 -23l-6 -50q-16 -131 -86 -187q-66 -52 -201 -52h-156l-14 -110h-175l89 727h175l-11 -91h156q113 0 166 -33q67 -42 67 -147v-34z"/>
<glyph glyph-name="germandbls" horiz-adv-x="569" unicode="ß" d="M558 282q0 -5 -2 -22l-11 -91q-11 -93 -56 -134.5t-138 -41.5h-26q-17 3 -25 4l12 103h9q40 0 58 22q15 19 20 62l11 96q1 9 1 13v7q0 55 -65 55l10 88q45 7 52 60l7 55q1 8 1 15q0 49 -55 49q-37 0 -53 -23q-12 -18 -17 -58l-66 -541h-147l67 546q22 181 197 181h61 q151 0 151 -121v-12q-2 -9 -2 -13l-7 -56q-6 -50 -33 -75q-20 -19 -74 -39q59 -10 86 -33q34 -28 34 -83v-13z"/>
<glyph glyph-name="agrave" horiz-adv-x="576" unicode="à" d="M386 184q0 44 -53 44h-45q-61 0 -67 -56l-3 -28q-1 -4 -1 -12q0 -44 54 -44h45q60 0 66 56l3 28q1 4 1 12zM555 390q0 -15 -3 -39l-43 -351h-144l8 69q-65 -76 -134 -76h-59q-112 0 -112 110q0 5 1 13.5t1 13.5l6 49q16 131 162 131h45q68 0 112 -67l16 132q1 8 1 9v6 q0 42 -49 42h-28q-56 0 -66 -38h-143q13 70 62 98q40 23 117 23h78q82 0 121 -22q51 -28 51 -103zM434 591h-47l-116 165h98z"/>
<glyph glyph-name="aacute" horiz-adv-x="576" unicode="á" d="M386 184q0 44 -53 44h-45q-61 0 -67 -56l-3 -28q-1 -4 -1 -12q0 -44 54 -44h45q60 0 66 56l3 28q1 4 1 12zM555 390q0 -15 -3 -39l-43 -351h-144l8 69q-65 -76 -134 -76h-59q-112 0 -112 110q0 5 1 13.5t1 13.5l6 49q16 131 162 131h45q68 0 112 -67l16 132q1 8 1 9v6 q0 42 -49 42h-28q-56 0 -66 -38h-143q13 70 62 98q40 23 117 23h78q82 0 121 -22q51 -28 51 -103zM513 756l-156 -165h-47l105 165h98z"/>
<glyph glyph-name="acircumflex" horiz-adv-x="576" unicode="â" d="M386 184q0 44 -53 44h-45q-61 0 -67 -56l-3 -28q-1 -4 -1 -12q0 -44 54 -44h45q60 0 66 56l3 28q1 4 1 12zM555 390q0 -15 -3 -39l-43 -351h-144l8 69q-65 -76 -134 -76h-59q-112 0 -112 110q0 5 1 13.5t1 13.5l6 49q16 131 162 131h45q68 0 112 -67l16 132q1 8 1 9v6 q0 42 -49 42h-28q-56 0 -66 -38h-143q13 70 62 98q40 23 117 23h78q82 0 121 -22q51 -28 51 -103zM509 591h-47l-75 115l-106 -115h-46l105 165h104z"/>
<glyph glyph-name="atilde" horiz-adv-x="576" unicode="ã" d="M386 184q0 44 -53 44h-45q-61 0 -67 -56l-3 -28q-1 -4 -1 -12q0 -44 54 -44h45q60 0 66 56l3 28q1 4 1 12zM555 391q0 -14 -3 -39l-43 -352h-144l8 69q-65 -76 -134 -76h-59q-112 0 -112 110q0 5 1 13.5t1 13.5l6 49q16 132 162 132h45q67 0 112 -68l16 132q1 8 1 9v6 q0 42 -49 42h-28q-29 0 -42 -6q-18 -8 -24 -32h-143q13 70 62 98q40 23 117 23h78q82 0 120 -21q52 -29 52 -103zM531 732q-35 -102 -102 -102q-13 0 -32 6l-41 13q-28 6 -35 6q-35 0 -55 -40h-33q33 98 99 98q13 0 38 -7l43 -12q10 -4 30 -4q35 0 55 42h33z"/>
<glyph glyph-name="adieresis" horiz-adv-x="576" unicode="ä" d="M386 184q0 45 -53 45h-45q-61 0 -67 -57l-3 -28q-1 -4 -1 -12q0 -44 54 -44h45q60 0 66 56l3 28q1 4 1 12zM555 391q0 -14 -3 -39l-43 -352h-144l8 69q-65 -76 -134 -76h-59q-112 0 -112 110q0 5 1 13.5t1 13.5l6 49q16 132 162 132h45q67 0 112 -68l16 133q1 8 1 9v6 q0 41 -49 41h-28q-29 0 -42 -6q-18 -8 -24 -32h-143q13 70 62 98q40 23 117 23h78q82 0 120 -21q52 -29 52 -103zM348 724l-13 -103h-90l13 103h90zM518 724l-13 -103h-90l13 103h90z"/>
<glyph glyph-name="aring" horiz-adv-x="576" unicode="å" d="M386 183q0 45 -53 45h-45q-61 0 -67 -57l-3 -27q-1 -4 -1 -12q0 -45 54 -45h45q60 0 66 57l3 27q1 4 1 12zM459 690q1 6 1 11q0 23 -16 42t-46 19q-29 0 -53.5 -19.5t-24.5 -47.5q0 -76 60 -76q31 0 53 20t26 51zM555 390q0 -15 -3 -39l-43 -351h-144l8 69 q-64 -76 -134 -76h-59q-112 0 -112 109q0 5 1 14t1 13l6 50q16 131 162 131h45q67 0 112 -68l16 132q1 8 1 9v6q0 42 -49 42h-28q-29 0 -42 -6q-18 -8 -24 -32h-143q13 70 62 98q40 23 117 23h78q82 0 120 -21q52 -29 52 -103zM510 705q0 -8 -1 -15q-7 -52 -45 -87.5 t-90 -35.5q-46 0 -75.5 30t-29.5 76q0 9 1 17q6 51 44.5 87t89.5 36q46 0 76 -31t30 -77z"/>
<glyph glyph-name="ae" horiz-adv-x="860" unicode="æ" d="M386 186q0 45 -53 45h-45q-61 0 -67 -57l-3 -28q-1 -4 -1 -12q0 -45 54 -45h45q60 0 66 57l3 28q1 4 1 12zM717 376q0 34 -16 46.5t-51 12.5h-21q-46 0 -66 -24q-15 -20 -21 -70l-4 -34h173l3 29q3 29 3 40zM855 345q-2 -13 -4 -33l-9 -74h-313l-9 -75q-1 -8 -1 -22 q0 -54 67 -54h20q36 0 53.5 11.5t27.5 44.5h141q-20 -83 -73 -118q-49 -32 -137 -32h-69q-63 0 -97 14q-45 18 -69 67q-68 -81 -144 -81h-59q-112 0 -112 111q0 5 1 13.5t1 13.5l6 50q8 66 53 100q42 33 110 33h45q68 0 111 -68l17 134q1 8 1 14q0 43 -49 43h-28 q-30 0 -42 -6q-18 -8 -24 -33h-143q13 70 62 99q40 24 117 24h78q44 0 65 -9q27 -10 50 -42q24 30 49 40.5t66 10.5h69q88 0 127 -29q45 -34 45 -119v-28z"/>
<glyph glyph-name="ccedilla" horiz-adv-x="557" unicode="ç" d="M554 361q0 -9 -2 -25h-144q1 5 1 16q0 62 -63 62h-22q-50 0 -68 -33q-10 -18 -18 -81l-11 -85q-5 -39 -5 -58q0 -33 14.5 -45t48.5 -12h22q42 0 62 25q15 21 21 66h144q-14 -112 -60 -155t-158 -43h-34l-5 -42h58q55 0 55 -62v-12q-2 -9 -2 -13q-7 -59 -40 -80 q-26 -16 -90 -16h-104l5 47h107q51 0 56 38q2 16 2 24q0 35 -42 35h-60l10 81q-81 0 -119 34t-38 114v24q0 3 4 37l13 110q13 113 60 159q49 50 160 50h69q78 0 125.5 -41.5t47.5 -118.5z"/>
<glyph glyph-name="egrave" horiz-adv-x="559" unicode="è" d="M415 370q0 35 -15.5 47.5t-51.5 12.5h-21q-47 0 -66 -23q-16 -19 -22 -70l-4 -34h173l4 29q3 22 3 38zM553 339q-1 -9 -4 -31l-9 -73h-313l-9 -75q-1 -8 -1 -12v-9q0 -53 67 -53h21q35 0 52.5 11.5t26.5 43.5h141q-19 -83 -72 -117q-48 -31 -137 -31h-69q-89 0 -128 29 q-45 34 -45 119v23q0 4 4 35l14 109q14 113 60 158q48 49 159 49h69q89 0 128 -29q45 -34 45 -119v-28zM417 591h-47l-116 165h98z"/>
<glyph glyph-name="eacute" horiz-adv-x="559" unicode="é" d="M415 370q0 35 -15.5 47.5t-51.5 12.5h-21q-47 0 -66 -23q-16 -19 -22 -70l-4 -34h173l4 29q3 22 3 38zM553 339q-1 -9 -4 -31l-9 -73h-313l-9 -75q-1 -8 -1 -12v-9q0 -53 67 -53h21q35 0 52.5 11.5t26.5 43.5h141q-19 -83 -72 -117q-48 -31 -137 -31h-69q-89 0 -128 29 q-45 34 -45 119v23q0 4 4 35l14 109q14 113 60 158q48 49 159 49h69q89 0 128 -29q45 -34 45 -119v-28zM496 756l-156 -165h-47l105 165h98z"/>
<glyph glyph-name="ecircumflex" horiz-adv-x="559" unicode="ê" d="M415 370q0 35 -15.5 47.5t-51.5 12.5h-21q-47 0 -66 -23q-16 -19 -22 -70l-4 -34h173l4 29q3 22 3 38zM553 339q-1 -9 -4 -31l-9 -73h-313l-9 -75q-1 -8 -1 -12v-9q0 -53 67 -53h21q35 0 52.5 11.5t26.5 43.5h141q-19 -83 -72 -117q-48 -31 -137 -31h-69q-89 0 -128 29 q-45 34 -45 119v23q0 4 4 35l14 109q14 113 60 158q48 49 159 49h69q89 0 128 -29q45 -34 45 -119v-28zM492 591h-47l-75 115l-106 -115h-46l105 165h104z"/>
<glyph glyph-name="edieresis" horiz-adv-x="559" unicode="ë" d="M415 370q0 35 -15.5 47.5t-51.5 12.5h-21q-47 0 -66 -23q-16 -19 -22 -69l-4 -34h173l4 28q3 21 3 38zM553 340q-1 -9 -4 -31l-9 -73h-313l-9 -75q-1 -8 -1 -12v-9q0 -54 67 -54h21q35 0 52.5 11.5t26.5 43.5h141q-19 -83 -72 -117q-48 -31 -137 -31h-69q-87 0 -126 29 q-46 34 -46 117v36q3 18 4 25l13 109q13 111 61 158.5t158 47.5h69q88 0 127 -29q46 -34 46 -118v-28zM331 724l-13 -103h-90l13 103h90zM501 724l-13 -103h-90l13 103h90z"/>
<glyph glyph-name="igrave" horiz-adv-x="298" unicode="ì" d="M285 508l-62 -508h-146l62 508h146zM285 591h-47l-116 165h98z"/>
<glyph glyph-name="iacute" horiz-adv-x="298" unicode="í" d="M285 508l-62 -508h-146l62 508h146zM364 756l-156 -165h-47l105 165h98z"/>
<glyph glyph-name="icircumflex" horiz-adv-x="298" unicode="î" d="M285 508l-62 -508h-146l62 508h146zM360 591h-47l-75 115l-106 -115h-46l105 165h104z"/>
<glyph glyph-name="idieresis" horiz-adv-x="298" unicode="ï" d="M285 508l-62 -508h-146l62 508h146zM199 724l-13 -103h-90l13 103h90zM369 724l-13 -103h-90l13 103h90z"/>
<glyph glyph-name="ntilde" horiz-adv-x="591" unicode="ñ" d="M571 402q0 -24 -5 -65l-41 -337h-143l37 300q3 24 3 45q0 37 -19 49q-14 9 -55 9q-51 0 -70 -33q-13 -21 -20 -81l-35 -289h-143l63 514h138l-8 -67h9q44 74 154 74q71 0 101 -24q34 -27 34 -95zM538 732q-35 -102 -102 -102q-8 0 -32 7l-41 12q-20 6 -35 6 q-35 0 -55 -40h-33q33 98 99 98q18 0 38 -6l43 -13q13 -4 30 -4q35 0 55 42h33z"/>
<glyph glyph-name="ograve" horiz-adv-x="560" unicode="ò" d="M405 353q0 33 -14 44.5t-48 11.5h-20q-50 0 -68 -33q-11 -19 -18 -80l-10 -84q-5 -42 -5 -56q0 -33 14.5 -45t48.5 -12h20q47 0 63 24q14 21 22 89l10 84q5 42 5 57zM553 339q0 -1 -4 -31l-14 -109q-14 -112 -60 -157q-49 -49 -159 -49h-69q-89 0 -128 29q-45 34 -45 119 v23q0 4 4 35l14 109q14 113 60 158q48 49 159 49h69q89 0 128 -29q45 -34 45 -119v-28zM418 591h-47l-116 165h98z"/>
<glyph glyph-name="oacute" horiz-adv-x="560" unicode="ó" d="M405 353q0 33 -14 44.5t-48 11.5h-20q-50 0 -68 -33q-11 -19 -18 -80l-10 -84q-5 -42 -5 -56q0 -33 14.5 -45t48.5 -12h20q47 0 63 24q14 21 22 89l10 84q5 42 5 57zM553 339q0 -1 -4 -31l-14 -109q-14 -112 -60 -157q-49 -49 -159 -49h-69q-89 0 -128 29q-45 34 -45 119 v23q0 4 4 35l14 109q14 113 60 158q48 49 159 49h69q89 0 128 -29q45 -34 45 -119v-28zM497 756l-156 -165h-47l105 165h98z"/>
<glyph glyph-name="ocircumflex" horiz-adv-x="560" unicode="ô" d="M405 353q0 33 -14 44.5t-48 11.5h-20q-50 0 -68 -33q-11 -19 -18 -80l-10 -84q-5 -42 -5 -56q0 -33 14.5 -45t48.5 -12h20q47 0 63 24q14 21 22 89l10 84q5 42 5 57zM553 339q0 -1 -4 -31l-14 -109q-14 -112 -60 -157q-49 -49 -159 -49h-69q-89 0 -128 29q-45 34 -45 119 v23q0 4 4 35l14 109q14 113 60 158q48 49 159 49h69q89 0 128 -29q45 -34 45 -119v-28zM493 591h-47l-75 115l-106 -115h-46l105 165h104z"/>
<glyph glyph-name="otilde" horiz-adv-x="560" unicode="õ" d="M405 354q0 33 -14 44t-48 11h-20q-50 0 -68 -33q-11 -18 -18 -80l-10 -84q-5 -42 -5 -56q0 -33 14.5 -45t48.5 -12h20q47 0 63 24q14 21 22 89l14 113q1 13 1 29zM553 340q-2 -13 -4 -31l-13 -109q-13 -112 -60 -158q-50 -49 -160 -49h-69q-87 0 -126 29q-46 34 -46 117 v36q3 18 4 25l13 109q13 111 61 158.5t158 47.5h69q88 0 127 -29q46 -34 46 -118v-28zM515 732q-35 -102 -102 -102q-13 0 -32 6l-41 13q-28 6 -35 6q-35 0 -55 -40h-33q33 98 99 98q13 0 38 -7l43 -12q10 -4 30 -4q35 0 55 42h33z"/>
<glyph glyph-name="odieresis" horiz-adv-x="560" unicode="ö" d="M405 354q0 33 -14 44t-48 11h-20q-50 0 -68 -33q-11 -18 -18 -80l-10 -84q-5 -42 -5 -56q0 -33 14.5 -45t48.5 -12h20q47 0 63 24q14 21 22 89l14 113q1 13 1 29zM553 340q-2 -13 -4 -31l-13 -109q-13 -112 -60 -158q-50 -49 -160 -49h-69q-87 0 -126 29q-46 34 -46 117 v36q3 18 4 25l13 109q13 111 61 158.5t158 47.5h69q88 0 127 -29q46 -34 46 -118v-28zM332 724l-13 -103h-90l13 103h90zM502 724l-13 -103h-90l13 103h90z"/>
<glyph glyph-name="divide" d="M374 0h-150v146h150v-146zM538 200h-484v120h484v-120zM374 376h-150v146h150v-146z" unicode="÷"/>
<glyph glyph-name="oslash" horiz-adv-x="560" unicode="ø" d="M405 330l-159 -224q15 -6 39 -6h20q51 0 68 34q9 16 17 81zM375 411q-12 3 -31 3h-20q-50 0 -68 -33q-10 -18 -18 -81l-13 -106zM610 622l-95 -136q38 -35 38 -111v-30q-1 -6 -4 -33l-13 -110q-13 -113 -60 -159q-49 -50 -160 -50h-69q-47 0 -76 7l-76 -108h-80l96 138 q-36 33 -36 110v36q3 19 4 26l13 110q13 113 60 159q49 50 160 50h69q35 0 67 -5l74 106h88z"/>
<glyph glyph-name="ugrave" horiz-adv-x="595" unicode="ù" d="M588 514l-63 -514h-138l8 66l-9 -1q-45 -72 -154 -72q-70 0 -101 24q-34 26 -34 94q0 24 5 65l41 338h143l-37 -299q-3 -24 -3 -45q0 -38 19 -50q13 -8 55 -8q50 0 70 32q13 22 20 80l35 290h143zM445 591h-47l-116 165h98z"/>
<glyph glyph-name="uacute" horiz-adv-x="595" unicode="ú" d="M588 514l-63 -514h-138l8 66l-9 -1q-45 -72 -154 -72q-70 0 -101 24q-34 26 -34 94q0 24 5 65l41 338h143l-37 -299q-3 -24 -3 -45q0 -38 19 -50q13 -8 55 -8q50 0 70 32q13 22 20 80l35 290h143zM524 756l-156 -165h-47l105 165h98z"/>
<glyph glyph-name="ucircumflex" horiz-adv-x="595" unicode="û" d="M588 514l-63 -514h-138l8 66l-9 -1q-45 -72 -154 -72q-70 0 -101 24q-34 26 -34 94q0 24 5 65l41 338h143l-37 -299q-3 -24 -3 -45q0 -38 19 -50q13 -8 55 -8q50 0 70 32q13 22 20 80l35 290h143zM520 591h-47l-75 115l-106 -115h-46l105 165h104z"/>
<glyph glyph-name="udieresis" horiz-adv-x="595" unicode="ü" d="M588 514l-63 -514h-138l8 66l-9 -1q-45 -72 -154 -72q-70 0 -101 24q-34 26 -34 94q0 24 5 65l41 338h143l-37 -299q-3 -24 -3 -45q0 -38 19 -50q13 -8 55 -8q50 0 70 32q13 22 20 80l35 290h143zM359 724l-13 -103h-90l13 103h90zM529 724l-13 -103h-90l13 103h90z"/>
<glyph glyph-name="yacute" horiz-adv-x="538" unicode="ý" d="M573 510l-259 -580q-33 -74 -60 -96q-38 -31 -112 -31q-29 0 -79 5l12 98h26q25 0 51 15t33 38l16 52l-125 499h148l67 -361l129 361h153zM485 757l-156 -164h-47l105 164h98z"/>
<glyph glyph-name="thorn" d="M422 350q0 33 -13.5 47t-46.5 14h-19q-49 0 -65 -33q-12 -25 -18 -76l-10 -82q-3 -25 -3 -48q0 -33 13.5 -47t46.5 -14h19q47 0 65 33q11 20 18 76l10 82q3 25 3 48zM571 345q-1 -7 -4 -30l-14 -109q-13 -98 -50 -147q-45 -60 -136 -60q-108 0 -129 62h-8l-31 -257h-143 l113 921h138l-35 -275h8q44 72 152 72q139 0 139 -150v-27z" unicode="þ"/>
<glyph glyph-name="OE" horiz-adv-x="998" unicode="Œ" d="M572 504q0 53 -28 71q-22 14 -79 14h-36q-80 0 -108 -42q-19 -28 -30 -119l-16 -129q-6 -48 -6 -78q0 -51 28 -69q22 -14 77 -14h36q82 0 110 40q18 28 30 121l16 129q6 48 6 76zM1031 727l-17 -142h-263l-19 -156h251l-15 -119h-251l-21 -169h271l-17 -141h-421l4 36 q-30 -14 -53 -22q-71 -23 -145 -23q-123 0 -182 48q-64 54 -64 173q0 33 5 74l19 155q18 148 87 219q75 76 220 76q75 0 142 -22q23 -8 52 -23l4 36h413z"/>
<glyph glyph-name="oe" horiz-adv-x="882" unicode="œ" d="M418 355q0 35 -15.5 47t-52.5 12h-22q-53 0 -71 -32q-11 -17 -19 -82l-11 -85q-4 -31 -4 -56q0 -35 15.5 -47t51.5 -12h21q53 0 72 32q11 19 19 83l11 85q5 39 5 55zM740 376q0 34 -16 46.5t-51 12.5h-25q-48 0 -67 -25q-15 -19 -21 -71l-4 -32h178l3 29q3 29 3 40z M878 345q-2 -13 -4 -33l-9 -74h-318l-9 -75q-1 -8 -1 -12v-9q0 -55 68 -55h25q36 0 53.5 11.5t27.5 44.5h140q-17 -83 -72 -118q-48 -32 -137 -32h-82q-53 0 -75 26q-21 23 -26 78q-27 -54 -58 -77q-36 -27 -92 -27h-62q-88 0 -127 29q-45 34 -45 119v35q3 19 4 26l13 110 q13 113 60 159q49 50 160 50h62q52 0 80 -17.5t44 -65.5q47 83 144 83h65q88 0 126 -29q45 -34 45 -118v-29z"/>
<glyph glyph-name="Scaron" horiz-adv-x="683" unicode="Š" d="M687 580q-2 -9 -2 -13l-5 -41h-167q1 6 1 17q0 50 -74 50h-45q-44 0 -65 -9q-30 -14 -34 -51l-3 -31q-1 -4 -1 -12q0 -28 28 -39q13 -4 53 -9l142 -16q157 -18 157 -142q0 -5 -1 -14.5t-1 -14.5l-8 -71q-10 -89 -70.5 -141t-150.5 -52h-159q-96 0 -145 25q-68 34 -68 119 q0 18 2 34l5 40h167q-1 -6 -1 -15q0 -40 30 -54q20 -10 66 -10h49q44 0 65 11q28 15 33 54l4 33q1 8 1 13q0 30 -27 41q-13 6 -53 11l-156 18q-72 8 -105 40q-36 34 -36 104q0 12 3 40l5 46q11 100 78 151q51 39 175 39h117q196 0 196 -139v-12zM601 969l-105 -164h-104 l-65 164h46l78 -115l103 115h47z"/>
<glyph glyph-name="scaron" horiz-adv-x="562" unicode="š" d="M552 408q0 -14 -1 -21l-144 -1q0 44 -65 44h-21q-80 0 -80 -59q-1 -10 -1 -14q0 -37 52 -42l114 -12q136 -14 136 -101q0 -9 -1 -17l-6 -45q-10 -73 -65 -112q-50 -35 -127 -35h-109q-170 0 -170 118q0 15 1 23l151 -3q0 -52 70 -52h22q40 0 59.5 12.5t24.5 49.5 q1 8 1 16q0 41 -71 48l-104 10q-122 12 -122 111q0 7 1 15l5 42q16 132 198 132h101q151 0 151 -107zM514 756l-105 -165h-104l-65 165h46l78 -116l103 116h47z"/>
<glyph glyph-name="Ydieresis" horiz-adv-x="679" unicode="Ÿ" d="M762 723l-300 -469l-31 -254h-175l30 254l-184 469h197l99 -300l169 300h195zM418 937l-12 -102h-90l12 102h90zM588 937l-12 -102h-90l12 102h90z"/>
<glyph glyph-name="circumflex" horiz-adv-x="492" unicode="ˆ" d="M456 576h-47l-74 126l-107 -126h-46l107 181h104z"/>
<glyph glyph-name="tilde" horiz-adv-x="492" unicode="˜" d="M480 733q-38 -117 -103 -117q-13 0 -33 7l-41 14q-23 8 -34 8q-35 0 -56 -46h-33q34 111 100 111q24 0 38 -7l44 -14q8 -5 29 -5q35 0 56 49h33z"/>
<glyph glyph-name="pi" horiz-adv-x="347" unicode="π" d="M306 300q0 -51 -36.5 -87.5t-87.5 -36.5q-53 0 -89.5 35.5t-36.5 88.5t36.5 89.5t89.5 36.5q52 0 88 -37t36 -89z"/>
<glyph glyph-name="endash" horiz-adv-x="495" unicode="–" d="M500 208h-500v106h500v-106z"/>
<glyph glyph-name="emdash" horiz-adv-x="990" unicode="—" d="M1000 208h-1000v106h1000v-106z"/>
<glyph glyph-name="quoteleft" horiz-adv-x="330" unicode="‘" d="M312 727l-5 -55q-56 -2 -60 -56l-2 -26h51l-18 -153h-130l22 181q13 109 142 109z"/>
<glyph glyph-name="quotesinglbase" horiz-adv-x="330" unicode="‚" d="M244 162l-22 -181q-13 -109 -143 -109l6 54q57 2 59 57l1 27h-50l19 152h130z"/>
<glyph glyph-name="quotedblleft" horiz-adv-x="556" unicode="“" d="M312 727l-5 -55q-56 -2 -60 -56l-2 -26h51l-18 -153h-130l22 181q13 109 142 109zM554 727l-5 -55q-53 -2 -59 -56q-2 -8 -2 -26h50l-18 -153h-129l22 181q13 109 141 109z"/>
<glyph glyph-name="quotedblright" horiz-adv-x="556" unicode="”" d="M313 727l-22 -180q-13 -110 -142 -110l5 54q52 2 59 57q2 8 2 27h-50l18 152h130zM555 727l-22 -180q-13 -110 -142 -110l5 54q56 2 60 57l2 27h-51l18 152h130z"/>
<glyph glyph-name="dagger" horiz-adv-x="550" unicode="†" d="M585 484l-14 -116h-182l-69 -564h-130l69 564h-180l14 116h180l28 224h136l-28 -224h176z"/>
<glyph glyph-name="daggerdbl" horiz-adv-x="550" unicode="‡" d="M581 484l-14 -116h-174l-27 -218h174l-14 -116h-174l-28 -230h-136l28 230h-182l14 116h182l27 218h-182l14 116h182l28 224h136l-28 -224h174z"/>
<glyph glyph-name="ellipsis" horiz-adv-x="990" unicode="…" d="M246 0h-150v146h150v-146zM580 0h-150v146h150v-146zM912 0h-150v146h150v-146z"/>
<glyph glyph-name="perthousand" horiz-adv-x="1184" unicode="‰" d="M718 238q0 38 -41 38h-13q-33 0 -44 -23q-7 -12 -12 -53l-7 -56q-3 -24 -3 -39q0 -22 8.5 -29.5t31.5 -7.5h13q33 0 45 22q7 12 12 54l7 56q3 24 3 38zM335 623q0 38 -41 38h-13q-33 0 -44 -23q-7 -12 -12 -53l-7 -56q-3 -24 -3 -38q0 -38 41 -38h13q33 0 44 23 q7 12 12 53l7 56q3 24 3 38zM1078 238q0 38 -41 38h-13q-33 0 -44 -23q-7 -12 -12 -53l-7 -56q-3 -24 -3 -39q0 -22 8.5 -29.5t31.5 -7.5h13q33 0 45 22q7 12 12 54l7 56q3 24 3 38zM762 730l-516 -730h-80l508 730h88zM816 247q0 -15 -3 -39l-9 -72q-9 -75 -39 -105 q-33 -33 -106 -33h-45q-58 0 -84 19q-30 22 -30 78q0 17 3 41l9 72q9 75 39.5 106.5t104.5 31.5h45q59 0 85 -20q30 -23 30 -79zM433 633q0 -16 -3 -40l-9 -72q-9 -75 -39 -105q-33 -33 -106 -33h-45q-59 0 -84 19q-30 23 -30 79q0 16 3 40l9 72q9 75 40.5 106.5t104.5 31.5 h45q59 0 84 -19q30 -23 30 -79zM1176 247q0 -15 -3 -39l-9 -72q-9 -75 -39 -105q-33 -33 -106 -33h-45q-58 0 -84 19q-30 22 -30 78q0 17 3 41l9 72q9 75 39.5 106.5t104.5 31.5h45q59 0 85 -20q30 -23 30 -79z"/>
<glyph glyph-name="guilsinglleft" horiz-adv-x="331" unicode="‹" d="M316 476l-13 -110l-115 -88l93 -88l-14 -116l-149 140l15 124z"/>
<glyph glyph-name="guilsinglright" horiz-adv-x="331" unicode="›" d="M297 338l-15 -124l-185 -140l14 116l115 88l-93 88l13 110z"/>
<glyph glyph-name="fraction" horiz-adv-x="166" unicode="⁄" d="M342 730l-426 -730h-80l418 730h88z"/>
<glyph glyph-name="trademark" horiz-adv-x="990" unicode="™" d="M418 668h-122v-326h-98v326h-122v78h342v-78zM934 342h-88v326l-120 -326h-52l-118 326v-326h-88v404h142l90 -240l92 240h142v-404z"/>
<glyph glyph-name="partialdiff" horiz-adv-x="347" unicode="∂" d="M306 300q0 -51 -36.5 -87.5t-87.5 -36.5q-53 0 -89.5 35.5t-36.5 88.5t36.5 89.5t89.5 36.5q52 0 88 -37t36 -89z"/>
<glyph glyph-name="product" horiz-adv-x="347" unicode="∏" d="M306 300q0 -51 -36.5 -87.5t-87.5 -36.5q-53 0 -89.5 35.5t-36.5 88.5t36.5 89.5t89.5 36.5q52 0 88 -37t36 -89z"/>
<glyph glyph-name="summation" horiz-adv-x="347" unicode="∑" d="M306 300q0 -51 -36.5 -87.5t-87.5 -36.5q-53 0 -89.5 35.5t-36.5 88.5t36.5 89.5t89.5 36.5q52 0 88 -37t36 -89z"/>
<glyph glyph-name="radical" horiz-adv-x="347" unicode="√" d="M306 300q0 -51 -36.5 -87.5t-87.5 -36.5q-53 0 -89.5 35.5t-36.5 88.5t36.5 89.5t89.5 36.5q52 0 88 -37t36 -89z"/>
<glyph glyph-name="infinity" horiz-adv-x="347" unicode="∞" d="M306 300q0 -51 -36.5 -87.5t-87.5 -36.5q-53 0 -89.5 35.5t-36.5 88.5t36.5 89.5t89.5 36.5q52 0 88 -37t36 -89z"/>
<glyph glyph-name="notequal" horiz-adv-x="347" unicode="≠" d="M306 300q0 -51 -36.5 -87.5t-87.5 -36.5q-53 0 -89.5 35.5t-36.5 88.5t36.5 89.5t89.5 36.5q52 0 88 -37t36 -89z"/>
<glyph glyph-name="lessequal" horiz-adv-x="347" unicode="≤" d="M306 300q0 -51 -36.5 -87.5t-87.5 -36.5q-53 0 -89.5 35.5t-36.5 88.5t36.5 89.5t89.5 36.5q52 0 88 -37t36 -89z"/>
<glyph glyph-name="greaterequal" horiz-adv-x="347" unicode="≥" d="M306 300q0 -51 -36.5 -87.5t-87.5 -36.5q-53 0 -89.5 35.5t-36.5 88.5t36.5 89.5t89.5 36.5q52 0 88 -37t36 -89z"/>
<glyph glyph-name="lozenge" horiz-adv-x="347" unicode="◊" d="M306 300q0 -51 -36.5 -87.5t-87.5 -36.5q-53 0 -89.5 35.5t-36.5 88.5t36.5 89.5t89.5 36.5q52 0 88 -37t36 -89z"/>
</font>
</defs>
</svg>
